Subcategories

Lou Rawls ‎- Love All Your Blues Away (1986) [2016]

Posted By: JET 1
Lou Rawls ‎- Love All Your Blues Away (1986) [2016]

Lou Rawls ‎- Love All Your Blues Away (1986) [2016]
EAC Rip | FLAC (Tracks) +CUE, LOG | 317 MB | Covers Included
Genre: Rhythm & Blues, Soul, Disco | Label: Sony Music [Japan] | Catalog Number: SICP 4862

We have all heard the crooning voice of Lou Rawls (1935 - 2006) through his biggest hits such as "You'll Never Find Another Love Like Mine", “See You When I Git There” and “Lady Love”. From gospel, R&B to soul and jazz to blues and straight-up pop, Lou Rawls was a consummate master of African-American vocal music whose versatility helped him adapt to the changing musical times over and over again while always remaining unmistakably himself. Rawls' smooth, classy elegance permeated nearly everything he sang, yet the fire of his early gospel days was never too far from the surface. Rawls always remained a highly visible figure on the American cultural landscape, pursuing an acting and voice-over career in addition to his continued concert appearances, and doing extensive charity work on behalf of his consuming passion, the United Negro College Fund. “Love All Your Blues Away” is not his best album. Quite honestly I didn’t even know it existed until recently, but it’s an interesting find. Produced by the great Jay Graydon, with contributions by David Foster, it has become sort of an obscure “West Coast” classic. It embodies a mixture of typical 80’s synthesizer-pop and classic Rawls soul and jazz ballads, which seem to come from two different production camps, most likely in an effort to maintain Rawls current with pop music developments of the time and at the same time remain true to his fan base.

Exact Audio Copy V1.2 from 12. August 2016

EAC extraction logfile from 3. December 2016, 22:16

Lou Rawls / Love All Your Blues Away

Used drive : GENERIC CDRCB05 Adapter: 1 ID: 1

Read mode : Secure
Utilize accurate stream : Yes
Defeat audio cache : Yes
Make use of C2 pointers : No

Read offset correction : 102
Overread into Lead-In and Lead-Out : No
Fill up missing offset samples with silence : Yes
Delete leading and trailing silent blocks : No
Null samples used in CRC calculations : Yes
Used interface : Native Win32 interface for Win NT & 2000
Gap handling : Appended to previous track

Used output format : User Defined Encoder
Selected bitrate : 1024 kBit/s
Quality : High
Add ID3 tag : No
Command line compressor : C:\Program Files (x86)\Exact Audio Copy\Flac\flac.exe
Additional command line options : -T "artist=%artist%" -T "title=%title%" -T "album=%albumtitle%" -T "date=%year%" -T "tracknumber=%tracknr%" -T "genre=%genre%" -5 %source%


TOC of the extracted CD

Track | Start | Length | Start sector | End sector
––––––––––––––––––––––––––––-
1 | 0:00.00 | 4:41.11 | 0 | 21085
2 | 4:41.11 | 4:11.69 | 21086 | 39979
3 | 8:53.05 | 4:04.54 | 39980 | 58333
4 | 12:57.59 | 4:39.68 | 58334 | 79326
5 | 17:37.52 | 4:19.48 | 79327 | 98799
6 | 21:57.25 | 4:12.08 | 98800 | 117707
7 | 26:09.33 | 4:23.74 | 117708 | 137506
8 | 30:33.32 | 2:26.47 | 137507 | 148503
9 | 33:00.04 | 3:31.45 | 148504 | 164373


Track 1

Filename K:\POST\Lou Rawls ‎- Love All Your Blues Away (1986) [2016]\01. Change Your Mind.wav

Pre-gap length 0:00:02.00

Peak level 90.4 %
Extraction speed 2.5 X
Track quality 100.0 %
Test CRC EC829591
Copy CRC EC829591
Accurately ripped (confidence 3) [FE4632E5] (AR v2)
Copy OK

Track 2

Filename K:\POST\Lou Rawls ‎- Love All Your Blues Away (1986) [2016]\02. Are You With Me.wav

Peak level 96.8 %
Extraction speed 2.7 X
Track quality 100.0 %
Test CRC 212F00D4
Copy CRC 212F00D4
Accurately ripped (confidence 3) [9FA04A8A] (AR v2)
Copy OK

Track 3

Filename K:\POST\Lou Rawls ‎- Love All Your Blues Away (1986) [2016]\03. Love All Your Blues Away.wav

Pre-gap length 0:00:01.03

Peak level 97.9 %
Extraction speed 2.9 X
Track quality 100.0 %
Test CRC CF91B736
Copy CRC CF91B736
Accurately ripped (confidence 3) [D666D7E3] (AR v2)
Copy OK

Track 4

Filename K:\POST\Lou Rawls ‎- Love All Your Blues Away (1986) [2016]\04. Stop Me From Starting This Feeling.wav

Pre-gap length 0:00:01.39

Peak level 100.0 %
Extraction speed 3.2 X
Track quality 100.0 %
Test CRC 27A21888
Copy CRC 27A21888
Accurately ripped (confidence 3) [C964A544] (AR v2)
Copy OK

Track 5

Filename K:\POST\Lou Rawls ‎- Love All Your Blues Away (1986) [2016]\05. Learn To Love Again.wav

Pre-gap length 0:00:01.22

Peak level 100.0 %
Extraction speed 3.3 X
Track quality 100.0 %
Test CRC DB07BECD
Copy CRC DB07BECD
Accurately ripped (confidence 3) [93E8E2AA] (AR v2)
Copy OK

Track 6

Filename K:\POST\Lou Rawls ‎- Love All Your Blues Away (1986) [2016]\06. Willow Weep For Me.wav

Pre-gap length 0:00:02.35

Peak level 79.6 %
Extraction speed 3.6 X
Track quality 100.0 %
Test CRC 1A684B47
Copy CRC 1A684B47
Accurately ripped (confidence 3) [26511173] (AR v2)
Copy OK

Track 7

Filename K:\POST\Lou Rawls ‎- Love All Your Blues Away (1986) [2016]\07. We'll Be Together Again.wav

Pre-gap length 0:00:01.35

Peak level 55.7 %
Extraction speed 3.7 X
Track quality 100.0 %
Test CRC 8640BD7C
Copy CRC 8640BD7C
Accurately ripped (confidence 3) [80E32930] (AR v2)
Copy OK

Track 8

Filename K:\POST\Lou Rawls ‎- Love All Your Blues Away (1986) [2016]\08. The Way You Look Tonight.wav

Pre-gap length 0:00:01.09

Peak level 78.8 %
Extraction speed 3.5 X
Track quality 100.0 %
Test CRC 3825523C
Copy CRC 3825523C
Accurately ripped (confidence 3) [15512417] (AR v2)
Copy OK

Track 9

Filename K:\POST\Lou Rawls ‎- Love All Your Blues Away (1986) [2016]\09. It Never Entered My Mind.wav

Pre-gap length 0:00:01.60

Peak level 70.3 %
Extraction speed 3.9 X
Track quality 100.0 %
Test CRC 6B0B9B9F
Copy CRC 6B0B9B9F
Accurately ripped (confidence 3) [0C514FF4] (AR v2)
Copy OK


All tracks accurately ripped

No errors occurred

End of status report

–– CUETools DB Plugin V2.1.6

[CTDB TOCID: 7zvpI3_b3X__TztH5jm_6XKgVgo-] found
Submit result: 7zvpI3_b3X__TztH5jm_6XKgVgo- has been confirmed
Track | CTDB Status
1 | (5/5) Accurately ripped
2 | (5/5) Accurately ripped
3 | (5/5) Accurately ripped
4 | (5/5) Accurately ripped
5 | (5/5) Accurately ripped
6 | (5/5) Accurately ripped
7 | (5/5) Accurately ripped
8 | (5/5) Accurately ripped
9 | (5/5) Accurately ripped


Tracklist:
1. Change Your Mind
2. Are You With Me
3. Love All Your Blues Away (2nd sample above)
4. Stop Me From Starting This Feeling
5. Learn To Love Again
6. Willow Weep For Me
7. We'll Be Together Again (1st sample above)
8. The Way You Look Tonight
9. It Never Entered My Mind