Subcategories

Lovebites - Awakening From Abyss (2017) [Japanese Ltd. Ed.] CD+DVD

Posted By: Andi_Deris
Lovebites - Awakening From Abyss (2017) [Japanese Ltd. Ed.] CD+DVD

Lovebites - Awakening From Abyss (2017) [Japanese Ltd. Ed.] CD+DVD
EAC Rip | FLAC: Image+Cue+Log | 488 Mb | MP3 CBR 320 kbps | 154 Mb | Scans | 113 Mb | 01:00:59
DVD5 | Video: NTSC 16:9 (720x480) | Audio: LinearPCM, 2 ch | 714 Mb | 10:42
Victor Entertainment | VIZL-1256
Heavy/Power Metal

Japan's powerful metal heroines LOVEBITES unleash their powerful debut album. Already gaining approval from their metal heroes, LOVEBITES are set to take the metal community by storm by bringing the old skool metal sound up to date. For fans of: BAND-MAID, BABYMETAL, Iron Maiden, Anthrax, Nightwish, Within Temptation, Helloween, Stratovarius, Megadeth, Saxon.

Lovebites - Awakening From Abyss (2017) [Japanese Ltd. Ed.] CD+DVD




Lovebites - Awakening From Abyss (2017) [Japanese Ltd. Ed.] CD+DVD


CD

01. The Awakening (02:05)
02. The Hammer Of Wrath (04:41)
03. Warning Shot (04:03)
04. Shadowmaker (05:42)
05. Scream For Me (Awakened Version) (06:12)
06. Liar (06:03)
07. Burden Of Time (04:46)
08. The Apocalypse (Awakened Version) (04:59)
09. Inspire (05:20)
10. Don't Bite The Dust (Awakened Version) (04:13)
11. Edge Of The World (06:44)
12. Bravehearted (Awakened Version) (06:11)

Lovebites - Awakening From Abyss (2017) [Japanese Ltd. Ed.] CD+DVD


DVD (video clips)

01. Don't Bite the Dust
02. Shadowmaker

Lovebites - Awakening From Abyss (2017) [Japanese Ltd. Ed.] CD+DVD

Lovebites - Awakening From Abyss (2017) [Japanese Ltd. Ed.] CD+DVD
Lovebites - Awakening From Abyss (2017) [Japanese Ltd. Ed.] CD+DVD
Lovebites - Awakening From Abyss (2017) [Japanese Ltd. Ed.] CD+DVD
Lovebites - Awakening From Abyss (2017) [Japanese Ltd. Ed.] CD+DVD
Lovebites - Awakening From Abyss (2017) [Japanese Ltd. Ed.] CD+DVD


Produced by Steve Jacobs

The Band

• Asami - Vocals
• Midori - Guitars
• Mi-Ya - Guitars, Keyboards
• Miho - Bass
• Haruna - Drums

*****
• Mao - Keyboards, Programming

Exact Audio Copy V1.3 from 2. September 2016

EAC extraction logfile from 21. November 2017, 11:51

Lovebites / Awakening From Abyss (Japan)

Used drive : ATAPI iHAS122 W Adapter: 2 ID: 0

Read mode : Secure
Utilize accurate stream : Yes
Defeat audio cache : Yes
Make use of C2 pointers : No

Read offset correction : 48
Overread into Lead-In and Lead-Out : No
Fill up missing offset samples with silence : Yes
Delete leading and trailing silent blocks : No
Null samples used in CRC calculations : Yes
Used interface : Installed external ASPI interface

Used output format : User Defined Encoder
Selected bitrate : 1024 kBit/s
Quality : High
Add ID3 tag : No
Command line compressor : C:\Program Files\FLAC\flac.exe
Additional command line options : -V -8 -T "Date=%year%" -T "Genre=%genre%" -T"COMMENT=Ripped by Ilijan" -8 -V %source%


TOC of the extracted CD

Track | Start | Length | Start sector | End sector
––––––––––––––––––––––––––––-
1 | 0:00.00 | 2:05.01 | 0 | 9375
2 | 2:05.01 | 4:41.21 | 9376 | 30471
3 | 6:46.22 | 4:03.01 | 30472 | 48697
4 | 10:49.23 | 5:42.00 | 48698 | 74347
5 | 16:31.23 | 6:12.00 | 74348 | 102247
6 | 22:43.23 | 6:03.00 | 102248 | 129472
7 | 28:46.23 | 4:46.00 | 129473 | 150922
8 | 33:32.23 | 4:59.00 | 150923 | 173347
9 | 38:31.23 | 5:20.13 | 173348 | 197360
10 | 43:51.36 | 4:12.40 | 197361 | 216300
11 | 48:04.01 | 6:43.50 | 216301 | 246575
12 | 54:47.51 | 6:10.46 | 246576 | 274371


Range status and errors

Selected range

Filename D:\Vknish + Devastator = Swolo4\Lovebites - Awakening From Abyss (Japan).wav

Peak level 98.8 %
Extraction speed 3.9 X
Range quality 99.9 %
Test CRC 62C576C3
Copy CRC 62C576C3
Copy OK

No errors occurred


AccurateRip summary

Track 1 not present in database
Track 2 not present in database
Track 3 not present in database
Track 4 not present in database
Track 5 not present in database
Track 6 not present in database
Track 7 not present in database
Track 8 not present in database
Track 9 not present in database
Track 10 not present in database
Track 11 not present in database
Track 12 not present in database

None of the tracks are present in the AccurateRip database

End of status report

–– CUETools DB Plugin V2.1.6

[CTDB TOCID: d7z3biAMG847nQ_oVFKkI9r.I20-] found
Submit result: d7z3biAMG847nQ_oVFKkI9r.I20- has been confirmed
Track | CTDB Status
1 | (32/32) Accurately ripped
2 | (32/32) Accurately ripped
3 | (32/32) Accurately ripped
4 | (32/32) Accurately ripped
5 | (32/32) Accurately ripped
6 | (32/32) Accurately ripped
7 | (32/32) Accurately ripped
8 | (32/32) Accurately ripped
9 | (32/32) Accurately ripped
10 | (32/32) Accurately ripped
11 | (32/32) Accurately ripped
12 | (32/32) Accurately ripped


==== Log checksum 1BD22508D58FC7E9408AE6B50999C3F3C926DE7A6E460EF1E4C5ABA227BFECE7 ====

Size: ~ 0.71 Gb - DVD-5
Enabled regions: 1, 2, 3, 4, 5, 6, 7, 8

VTS_01 :
Play Length: 00:10:42+{00:04:39}+{00:05:45}
Video: NTSC 16:9 (720x480) VBR, Auto Letterboxed
Audio:
Japanese (LinearPCM, 2 ch)

* Menus Information *

VIDEO_TS Menu
Video:
NTSC 4:3 (720x480) VBR
Auto Pan&Scan, Auto Letterboxed
Japanese Language Unit :
Title Menu

VTS_01 Menu
Video:
NTSC 16:9 (720x480) VBR
Auto Letterboxed
Japanese Language Unit :
Root Menu


Many thanks to the original uploader: Ilijan



Password: pass