Subcategories

Loverboy - Original Album Classics (2013) [5CD Box Set]

Posted By: Andi_Deris
Loverboy - Original Album Classics (2013) [5CD Box Set]

Loverboy - Original Album Classics (2013) [5CD Box Set]
EAC Rip | FLAC: Tracks+Cue+Log | MP3 CBR 320 kbps
1.44 Gb | 507 Mb | Time: 03:38:36
Sony Music Entertainment/Columbia | 88883763392
Melodic Rock, Arena Rock, AOR

Loverboy Original Album Classics includes all five of the Canadian AOR rockers' chart-topping outings from the '80s, including their eponymous debut (1980), Get Lucky (1981), Keep It Up (1983), Lovin' Every Minute of It (1985), and Wildside (1987).

Loverboy - Original Album Classics (2013) [5CD Box Set]




Loverboy - Original Album Classics (2013) [5CD Box Set]


Loverboy (1980)
EAC Rip | FLAC: Tracks+Cue+Log | MP3 CBR 320 kbps
257 Mb | 94 Mb | Time: 40:12


01. The Kid Is Hot Tonite (04:29)
02. Turn Me Loose (05:38)
03. Always On My Mind (03:34)
04. Lady Of The 80's (05:12)
05. Little Girl (03:56)
06. Prissy Prissy (04:22)
07. Teenage Overdose (04:17)
08. D.O.A. (03:44)
09. It Don't Matter (05:00)

Loverboy - Original Album Classics (2013) [5CD Box Set]


Get Lucky (1981) [Remastered 2006]
EAC Rip | FLAC: Tracks+Cue+Log | MP3 CBR 320 kbps
371 Mb | 123 Mb | Time: 52:48


01. Working For The Weekend (03:42)
02. When It's Over (05:08)
03. Jump (03:39)
04. Gangs In The Street (04:35)
05. Emotional (04:53)
06. Lucky Ones (03:50)
07. It's Your Life (04:05)
08. Watch Out (03:57)
09. Take Me To The Top (06:18)
10. I Told You So (Demo - Previously Unreleased) (01:13)
11. Boy Likes The Girl (Demo - Previously Unreleased) (04:32)
12. Your Town Saturday Night (Demo - Previously Unreleased) (03:09)
13. Working For The Weekend (Demo - Previously Unreleased) (03:48)

Loverboy - Original Album Classics (2013) [5CD Box Set]


Keep It Up (1983)
EAC Rip | FLAC: Tracks+Cue+Log | MP3 CBR 320 kbps
258 Mb | 90 Mb | Time: 38:38


01. Hot Girls In Love (04:01)
02. Strike Zone (06:02)
03. It's Never Easy (04:07)
04. Chance Of A Lifetime (04:00)
05. Queen Of The Broken Hearts (03:50)
06. Prime Of Your Life (04:55)
07. Passion Pit (04:28)
08. One-Sided Love Affair (03:41)
09. Meltdown (03:33)

Loverboy - Original Album Classics (2013) [5CD Box Set]


Lovin' Every Minute Of It (1985)
EAC Rip | FLAC: Tracks+Cue+Log | MP3 CBR 320 kbps
240 Mb | 89 Mb | Time: 38:20


01. Lovin' Every Minute Of It (03:33)
02. Steal The Thunder (04:11)
03. Friday Night (03:33)
04. This Could Be The Night (04:59)
05. Too Much Too Soon (04:10)
06. Lead A Double Life (04:22)
07. Dangerous (03:34)
08. Destination Heartbreak (04:47)
09. Bullet In The Chamber (05:12)

Loverboy - Original Album Classics (2013) [5CD Box Set]


Wildside (1987)
EAC Rip | FLAC: Tracks+Cue+Log | MP3 CBR 320 kbps
350 Mb | 113 Mb | Time: 48:43


01. Notorious (04:39)
02. Walkin' On Fire (04:17)
03. Break It To Me Gently (04:37)
04. Love Will Rise Again (04:30)
05. Can't Get Much Better (04:05)
06. Hometown Hero (04:13)
07. Wildside (03:31)
08. Don't Let Go (03:36)
09. That's Where My Money Goes (04:14)
10. Read My Lips (05:03)
11. Don't Keep Me In The Dark (05:57)

Exact Audio Copy V1.0 beta 3 from 29. August 2011

EAC extraction logfile from 8. July 2014, 20:19

Loverboy / Loverboy

Used drive : TSSTcorpCDDVDW SH-S223Q Adapter: 8 ID: 0

Read mode : Secure
Utilize accurate stream : Yes
Defeat audio cache : Yes
Make use of C2 pointers : No

Read offset correction : 6
Overread into Lead-In and Lead-Out : No
Fill up missing offset samples with silence : Yes
Delete leading and trailing silent blocks : No
Null samples used in CRC calculations : Yes
Used interface : Native Win32 interface for Win NT & 2000
Gap handling : Appended to previous track

Used output format : User Defined Encoder
Selected bitrate : 128 kBit/s
Quality : High
Add ID3 tag : No
Command line compressor : C:\Program Files (x86)\Exact Audio Copy\Flac\flac.exe
Additional command line options : –best –picture="C:\FLAC\folder.jpg" -P 4096 -V -T "ARTIST=%artist%" -T "TITLE=%title%" -T "ALBUM=%albumtitle%" -T "TRACKNUMBER=%tracknr%" %source% -o %dest%


TOC of the extracted CD

Track | Start | Length | Start sector | End sector
––––––––––––––––––––––––––––-
1 | 0:00.00 | 4:28.72 | 0 | 20171
2 | 4:28.72 | 5:37.70 | 20172 | 45516
3 | 10:06.67 | 3:34.10 | 45517 | 61576
4 | 13:41.02 | 5:11.70 | 61577 | 84971
5 | 18:52.72 | 3:56.13 | 84972 | 102684
6 | 22:49.10 | 4:21.52 | 102685 | 122311
7 | 27:10.62 | 4:17.03 | 122312 | 141589
8 | 31:27.65 | 3:43.55 | 141590 | 158369
9 | 35:11.45 | 4:59.65 | 158370 | 180859


Track 1

Filename C:\FLAC\Loverboy\Loverboy\01 - The Kid Is Hot Tonite.wav

Pre-gap length 0:00:02.00

Peak level 85.2 %
Extraction speed 4.0 X
Track quality 100.0 %
Test CRC 6DF07584
Copy CRC 6DF07584
Accurately ripped (confidence 3) [0B93E03F] (AR v2)
Copy OK

Track 2

Filename C:\FLAC\Loverboy\Loverboy\02 - Turn Me Loose.wav

Peak level 85.6 %
Extraction speed 4.5 X
Track quality 100.0 %
Test CRC B90E252D
Copy CRC B90E252D
Accurately ripped (confidence 3) [0D772666] (AR v2)
Copy OK

Track 3

Filename C:\FLAC\Loverboy\Loverboy\03 - Always On My Mind.wav

Peak level 76.3 %
Extraction speed 3.6 X
Track quality 99.9 %
Test CRC B9441D94
Copy CRC B9441D94
Accurately ripped (confidence 3) [F427B3E8] (AR v2)
Copy OK

Track 4

Filename C:\FLAC\Loverboy\Loverboy\04 - Lady Of The 80's.wav

Peak level 72.9 %
Extraction speed 5.2 X
Track quality 100.0 %
Test CRC 86667167
Copy CRC 86667167
Accurately ripped (confidence 3) [E845B9AA] (AR v2)
Copy OK

Track 5

Filename C:\FLAC\Loverboy\Loverboy\05 - Little Girl.wav

Pre-gap length 0:00:02.56

Peak level 86.0 %
Extraction speed 5.3 X
Track quality 100.0 %
Test CRC F3F36BD3
Copy CRC F3F36BD3
Accurately ripped (confidence 3) [6A9B20BA] (AR v2)
Copy OK

Track 6

Filename C:\FLAC\Loverboy\Loverboy\06 - Prissy Prissy.wav

Pre-gap length 0:00:01.00

Peak level 82.6 %
Extraction speed 5.6 X
Track quality 100.0 %
Test CRC EE09A071
Copy CRC EE09A071
Accurately ripped (confidence 3) [A1E42408] (AR v2)
Copy OK

Track 7

Filename C:\FLAC\Loverboy\Loverboy\07 - Teenage Overdose.wav

Peak level 90.2 %
Extraction speed 5.9 X
Track quality 100.0 %
Test CRC 7D2152C9
Copy CRC 7D2152C9
Accurately ripped (confidence 3) [B4FECD18] (AR v2)
Copy OK

Track 8

Filename C:\FLAC\Loverboy\Loverboy\08 - D.O.A..wav

Pre-gap length 0:00:01.20

Peak level 75.0 %
Extraction speed 4.7 X
Track quality 99.9 %
Test CRC D226561C
Copy CRC D226561C
Accurately ripped (confidence 3) [E4E8FDEB] (AR v2)
Copy OK

Track 9

Filename C:\FLAC\Loverboy\Loverboy\09 - It Don't Matter.wav

Peak level 75.2 %
Extraction speed 6.5 X
Track quality 100.0 %
Test CRC D4824436
Copy CRC D4824436
Accurately ripped (confidence 3) [28F7A0E7] (AR v2)
Copy OK


All tracks accurately ripped

No errors occurred

End of status report

==== Log checksum 450611BE40F107FC3FEDE84FD00657E4778DD935BED040F81257817201373AF4 ====

Exact Audio Copy V1.0 beta 3 from 29. August 2011

EAC extraction logfile from 8. July 2014, 19:29

Loverboy / Get Lucky

Used drive : TSSTcorpCDDVDW SH-S223Q Adapter: 8 ID: 0

Read mode : Secure
Utilize accurate stream : Yes
Defeat audio cache : Yes
Make use of C2 pointers : No

Read offset correction : 6
Overread into Lead-In and Lead-Out : No
Fill up missing offset samples with silence : Yes
Delete leading and trailing silent blocks : No
Null samples used in CRC calculations : Yes
Used interface : Native Win32 interface for Win NT & 2000
Gap handling : Appended to previous track

Used output format : User Defined Encoder
Selected bitrate : 128 kBit/s
Quality : High
Add ID3 tag : No
Command line compressor : C:\Program Files (x86)\Exact Audio Copy\Flac\flac.exe
Additional command line options : –best –picture="C:\FLAC\folder.jpg" -P 4096 -V -T "ARTIST=%artist%" -T "TITLE=%title%" -T "ALBUM=%albumtitle%" -T "TRACKNUMBER=%tracknr%" %source% -o %dest%


TOC of the extracted CD

Track | Start | Length | Start sector | End sector
––––––––––––––––––––––––––––-
1 | 0:00.00 | 3:41.44 | 0 | 16618
2 | 3:41.44 | 5:07.47 | 16619 | 39690
3 | 8:49.16 | 3:38.73 | 39691 | 56113
4 | 12:28.14 | 4:34.59 | 56114 | 76722
5 | 17:02.73 | 4:53.05 | 76723 | 98702
6 | 21:56.03 | 3:50.15 | 98703 | 115967
7 | 25:46.18 | 4:04.52 | 115968 | 134319
8 | 29:50.70 | 3:57.01 | 134320 | 152095
9 | 33:47.71 | 6:17.60 | 152096 | 180430
10 | 40:05.56 | 1:12.72 | 180431 | 185902
11 | 41:18.53 | 4:32.03 | 185903 | 206305
12 | 45:50.56 | 3:08.60 | 206306 | 220465
13 | 48:59.41 | 3:47.44 | 220466 | 237534


Track 1

Filename C:\FLAC\Loverboy\Get Lucky\01 - Working For The Weekend.wav

Pre-gap length 0:00:02.00

Peak level 94.4 %
Extraction speed 4.8 X
Track quality 100.0 %
Test CRC AFA1DB81
Copy CRC AFA1DB81
Accurately ripped (confidence 14) [5EDE8663] (AR v2)
Copy OK

Track 2

Filename C:\FLAC\Loverboy\Get Lucky\02 - When It's Over.wav

Peak level 100.0 %
Extraction speed 5.6 X
Track quality 100.0 %
Test CRC F547821F
Copy CRC F547821F
Accurately ripped (confidence 14) [F8550557] (AR v2)
Copy OK

Track 3

Filename C:\FLAC\Loverboy\Get Lucky\03 - Jump.wav

Peak level 100.0 %
Extraction speed 5.8 X
Track quality 100.0 %
Test CRC B9819104
Copy CRC B9819104
Accurately ripped (confidence 14) [4CADDD19] (AR v2)
Copy OK

Track 4

Filename C:\FLAC\Loverboy\Get Lucky\04 - Gangs In The Street.wav

Peak level 100.0 %
Extraction speed 6.3 X
Track quality 100.0 %
Test CRC D724F13B
Copy CRC D724F13B
Accurately ripped (confidence 14) [E9FF8DE4] (AR v2)
Copy OK

Track 5

Filename C:\FLAC\Loverboy\Get Lucky\05 - Emotional.wav

Peak level 100.0 %
Extraction speed 6.8 X
Track quality 100.0 %
Test CRC 268F3CD8
Copy CRC 268F3CD8
Accurately ripped (confidence 14) [E6974874] (AR v2)
Copy OK

Track 6

Filename C:\FLAC\Loverboy\Get Lucky\06 - Lucky Ones.wav

Peak level 100.0 %
Extraction speed 6.9 X
Track quality 100.0 %
Test CRC 9862FC91
Copy CRC 9862FC91
Accurately ripped (confidence 14) [6AD50C5C] (AR v2)
Copy OK

Track 7

Filename C:\FLAC\Loverboy\Get Lucky\07 - It's Your Life.wav

Peak level 100.0 %
Extraction speed 5.9 X
Track quality 99.9 %
Test CRC 893B6B26
Copy CRC 893B6B26
Accurately ripped (confidence 14) [AE80871E] (AR v2)
Copy OK

Track 8

Filename C:\FLAC\Loverboy\Get Lucky\08 - Watch Out.wav

Peak level 100.0 %
Extraction speed 6.0 X
Track quality 99.9 %
Test CRC 67957EEF
Copy CRC 67957EEF
Accurately ripped (confidence 14) [353CA895] (AR v2)
Copy OK

Track 9

Filename C:\FLAC\Loverboy\Get Lucky\09 - Take Me To The Top.wav

Peak level 100.0 %
Extraction speed 7.1 X
Track quality 99.9 %
Test CRC F1BB07A7
Copy CRC F1BB07A7
Accurately ripped (confidence 14) [279FF9BC] (AR v2)
Copy OK

Track 10

Filename C:\FLAC\Loverboy\Get Lucky\10 - I Told You So (Demo).wav

Pre-gap length 0:00:06.76

Peak level 69.7 %
Extraction speed 6.2 X
Track quality 100.0 %
Test CRC 7EBC3917
Copy CRC 7EBC3917
Accurately ripped (confidence 13) [39B4C7C5] (AR v2)
Copy OK

Track 11

Filename C:\FLAC\Loverboy\Get Lucky\11 - Boy Likes The Girl (Demo).wav

Peak level 95.5 %
Extraction speed 8.5 X
Track quality 100.0 %
Test CRC 63960B92
Copy CRC 63960B92
Accurately ripped (confidence 14) [275312B0] (AR v2)
Copy OK

Track 12

Filename C:\FLAC\Loverboy\Get Lucky\12 - Your Town Saturday Night (Demo).wav

Pre-gap length 0:00:01.57

Peak level 100.0 %
Extraction speed 8.2 X
Track quality 100.0 %
Test CRC 320F2FE2
Copy CRC 320F2FE2
Accurately ripped (confidence 13) [307F42EB] (AR v2)
Copy OK

Track 13

Filename C:\FLAC\Loverboy\Get Lucky\13 - Working For The Weekend (Demo).wav

Pre-gap length 0:00:01.06

Peak level 100.0 %
Extraction speed 8.6 X
Track quality 100.0 %
Test CRC F32B1A94
Copy CRC F32B1A94
Accurately ripped (confidence 14) [BF7CFDEE] (AR v2)
Copy OK


All tracks accurately ripped

No errors occurred

End of status report

==== Log checksum 08902BC72FB4ADAACB32C2554238A1C0325FD9AED2E983F0D6B93793E0A9BBDF ====

Exact Audio Copy V1.0 beta 3 from 29. August 2011

EAC extraction logfile from 8. July 2014, 18:59

Loverboy / Keep It Up

Used drive : TSSTcorpCDDVDW SH-S223Q Adapter: 8 ID: 0

Read mode : Secure
Utilize accurate stream : Yes
Defeat audio cache : Yes
Make use of C2 pointers : No

Read offset correction : 6
Overread into Lead-In and Lead-Out : No
Fill up missing offset samples with silence : Yes
Delete leading and trailing silent blocks : No
Null samples used in CRC calculations : Yes
Used interface : Native Win32 interface for Win NT & 2000
Gap handling : Appended to previous track

Used output format : User Defined Encoder
Selected bitrate : 128 kBit/s
Quality : High
Add ID3 tag : No
Command line compressor : C:\Program Files (x86)\Exact Audio Copy\Flac\flac.exe
Additional command line options : –best –picture="C:\FLAC\folder.jpg" -P 4096 -V -T "ARTIST=%artist%" -T "TITLE=%title%" -T "ALBUM=%albumtitle%" -T "TRACKNUMBER=%tracknr%" %source% -o %dest%


TOC of the extracted CD

Track | Start | Length | Start sector | End sector
––––––––––––––––––––––––––––-
1 | 0:00.00 | 4:01.00 | 0 | 18074
2 | 4:01.00 | 6:02.00 | 18075 | 45224
3 | 10:03.00 | 4:07.00 | 45225 | 63749
4 | 14:10.00 | 4:00.00 | 63750 | 81749
5 | 18:10.00 | 3:50.00 | 81750 | 98999
6 | 22:00.00 | 4:55.00 | 99000 | 121124
7 | 26:55.00 | 4:27.60 | 121125 | 141209
8 | 31:22.60 | 3:41.15 | 141210 | 157799
9 | 35:04.00 | 3:33.00 | 157800 | 173774


Track 1

Filename C:\FLAC\Loverboy\Keep It Up\01 - Hot Girls In Love.wav

Pre-gap length 0:00:02.00

Peak level 82.6 %
Extraction speed 4.0 X
Track quality 99.9 %
Test CRC AE6ADD56
Copy CRC AE6ADD56
Track not present in AccurateRip database
Copy OK

Track 2

Filename C:\FLAC\Loverboy\Keep It Up\02 - Strike Zone.wav

Pre-gap length 0:00:02.00

Peak level 80.0 %
Extraction speed 5.8 X
Track quality 100.0 %
Test CRC F7AAEFCE
Copy CRC F7AAEFCE
Track not present in AccurateRip database
Copy OK

Track 3

Filename C:\FLAC\Loverboy\Keep It Up\03 - It's Never Easy.wav

Pre-gap length 0:00:02.00

Peak level 82.9 %
Extraction speed 4.8 X
Track quality 99.9 %
Test CRC E2214C56
Copy CRC E2214C56
Track not present in AccurateRip database
Copy OK

Track 4

Filename C:\FLAC\Loverboy\Keep It Up\04 - Chance Of A Lifetime.wav

Pre-gap length 0:00:01.00

Peak level 69.7 %
Extraction speed 5.1 X
Track quality 99.9 %
Test CRC 714F3605
Copy CRC 714F3605
Track not present in AccurateRip database
Copy OK

Track 5

Filename C:\FLAC\Loverboy\Keep It Up\05 - Queen Of The Broken Hearts.wav

Pre-gap length 0:00:04.00

Peak level 87.4 %
Extraction speed 6.6 X
Track quality 100.0 %
Test CRC 21A100C6
Copy CRC 21A100C6
Track not present in AccurateRip database
Copy OK

Track 6

Filename C:\FLAC\Loverboy\Keep It Up\06 - Prime Of Your Life.wav

Peak level 79.2 %
Extraction speed 7.2 X
Track quality 100.0 %
Test CRC BB6F2E5D
Copy CRC BB6F2E5D
Track not present in AccurateRip database
Copy OK

Track 7

Filename C:\FLAC\Loverboy\Keep It Up\07 - Passion Pit.wav

Pre-gap length 0:00:01.00

Peak level 66.8 %
Extraction speed 7.4 X
Track quality 100.0 %
Test CRC 48CEBF78
Copy CRC 48CEBF78
Track not present in AccurateRip database
Copy OK

Track 8

Filename C:\FLAC\Loverboy\Keep It Up\08 - One-Sided Love Affair.wav

Pre-gap length 0:00:00.80

Peak level 76.2 %
Extraction speed 7.5 X
Track quality 100.0 %
Test CRC A6DC19F8
Copy CRC A6DC19F8
Track not present in AccurateRip database
Copy OK

Track 9

Filename C:\FLAC\Loverboy\Keep It Up\09 - Meltdown.wav

Pre-gap length 0:00:01.00

Peak level 69.9 %
Extraction speed 7.7 X
Track quality 100.0 %
Test CRC 5B3C764A
Copy CRC 5B3C764A
Track not present in AccurateRip database
Copy OK


None of the tracks are present in the AccurateRip database

No errors occurred

End of status report

==== Log checksum 497DB6D3B8354E687F51B94A0753567D627EB1202C204084A2E73D4C4C19DB79 ====

Exact Audio Copy V1.0 beta 3 from 29. August 2011

EAC extraction logfile from 8. July 2014, 18:23

Loverboy / Lovin' Every Minute Of It

Used drive : TSSTcorpCDDVDW SH-S223Q Adapter: 8 ID: 0

Read mode : Secure
Utilize accurate stream : Yes
Defeat audio cache : Yes
Make use of C2 pointers : No

Read offset correction : 6
Overread into Lead-In and Lead-Out : No
Fill up missing offset samples with silence : Yes
Delete leading and trailing silent blocks : No
Null samples used in CRC calculations : Yes
Used interface : Native Win32 interface for Win NT & 2000
Gap handling : Appended to previous track

Used output format : User Defined Encoder
Selected bitrate : 128 kBit/s
Quality : High
Add ID3 tag : No
Command line compressor : C:\Program Files (x86)\Exact Audio Copy\Flac\flac.exe
Additional command line options : –best –picture="C:\FLAC\folder.jpg" -P 4096 -V -T "ARTIST=%artist%" -T "TITLE=%title%" -T "ALBUM=%albumtitle%" -T "TRACKNUMBER=%tracknr%" %source% -o %dest%


TOC of the extracted CD

Track | Start | Length | Start sector | End sector
––––––––––––––––––––––––––––-
1 | 0:00.00 | 3:33.22 | 0 | 15996
2 | 3:33.22 | 4:10.33 | 15997 | 34779
3 | 7:43.55 | 3:32.72 | 34780 | 50751
4 | 11:16.52 | 4:58.33 | 50752 | 73134
5 | 16:15.10 | 4:10.05 | 73135 | 91889
6 | 20:25.15 | 4:21.57 | 91890 | 111521
7 | 24:46.72 | 3:33.43 | 111522 | 127539
8 | 28:20.40 | 4:46.32 | 127540 | 149021
9 | 33:06.72 | 5:11.63 | 149022 | 172409


Track 1

Filename C:\FLAC\Loverboy\Lovin' Every Minute Of It\01 - Lovin' Every Minute Of It.wav

Pre-gap length 0:00:02.00

Peak level 79.4 %
Extraction speed 4.8 X
Track quality 100.0 %
Test CRC 04058887
Copy CRC 04058887
Accurately ripped (confidence 3) [2C735E4C] (AR v2)
Copy OK

Track 2

Filename C:\FLAC\Loverboy\Lovin' Every Minute Of It\02 - Steal The Thunder.wav

Peak level 79.3 %
Extraction speed 5.4 X
Track quality 100.0 %
Test CRC 702145CC
Copy CRC 702145CC
Accurately ripped (confidence 3) [99675002] (AR v2)
Copy OK

Track 3

Filename C:\FLAC\Loverboy\Lovin' Every Minute Of It\03 - Friday Night.wav

Peak level 78.3 %
Extraction speed 5.6 X
Track quality 100.0 %
Test CRC 691892A0
Copy CRC 691892A0
Accurately ripped (confidence 3) [A88436C0] (AR v2)
Copy OK

Track 4

Filename C:\FLAC\Loverboy\Lovin' Every Minute Of It\04 - This Could Be The Night.wav

Pre-gap length 0:00:00.60

Peak level 83.0 %
Extraction speed 5.3 X
Track quality 99.9 %
Test CRC B6594620
Copy CRC B6594620
Accurately ripped (confidence 3) [8D0589EB] (AR v2)
Copy OK

Track 5

Filename C:\FLAC\Loverboy\Lovin' Every Minute Of It\05 - Too Much Too Soon.wav

Peak level 100.0 %
Extraction speed 6.6 X
Track quality 100.0 %
Test CRC 7341D9BB
Copy CRC 7341D9BB
Accurately ripped (confidence 3) [82C13428] (AR v2)
Copy OK

Track 6

Filename C:\FLAC\Loverboy\Lovin' Every Minute Of It\06 - Lead A Double Life.wav

Pre-gap length 0:00:01.70

Peak level 100.0 %
Extraction speed 7.0 X
Track quality 100.0 %
Test CRC 24D7414F
Copy CRC 24D7414F
Accurately ripped (confidence 3) [10899BA1] (AR v2)
Copy OK

Track 7

Filename C:\FLAC\Loverboy\Lovin' Every Minute Of It\07 - Dangerous.wav

Peak level 97.7 %
Extraction speed 7.0 X
Track quality 100.0 %
Test CRC 9AF542A2
Copy CRC 9AF542A2
Accurately ripped (confidence 3) [388B85E8] (AR v2)
Copy OK

Track 8

Filename C:\FLAC\Loverboy\Lovin' Every Minute Of It\08 - Destination Heartbreak.wav

Peak level 100.0 %
Extraction speed 7.7 X
Track quality 100.0 %
Test CRC 4A8BB045
Copy CRC 4A8BB045
Accurately ripped (confidence 3) [A4FDFD0A] (AR v2)
Copy OK

Track 9

Filename C:\FLAC\Loverboy\Lovin' Every Minute Of It\09 - Bullet In The Chamber.wav

Peak level 100.0 %
Extraction speed 8.1 X
Track quality 100.0 %
Test CRC 5257E747
Copy CRC 5257E747
Accurately ripped (confidence 3) [E24F5A7D] (AR v2)
Copy OK


All tracks accurately ripped

No errors occurred

End of status report

==== Log checksum FD1A5EC4A117F281FBD070732C924221D0B368EE973FD41BCBDCA7FEB52160F7 ====

Exact Audio Copy V1.0 beta 3 from 29. August 2011

EAC extraction logfile from 8. July 2014, 18:06

Loverboy / Wildside

Used drive : TSSTcorpCDDVDW SH-S223Q Adapter: 8 ID: 0

Read mode : Secure
Utilize accurate stream : Yes
Defeat audio cache : Yes
Make use of C2 pointers : No

Read offset correction : 6
Overread into Lead-In and Lead-Out : No
Fill up missing offset samples with silence : Yes
Delete leading and trailing silent blocks : No
Null samples used in CRC calculations : Yes
Used interface : Native Win32 interface for Win NT & 2000
Gap handling : Appended to previous track

Used output format : User Defined Encoder
Selected bitrate : 128 kBit/s
Quality : High
Add ID3 tag : No
Command line compressor : C:\Program Files (x86)\Exact Audio Copy\Flac\flac.exe
Additional command line options : –best –picture="C:\FLAC\folder.jpg" -P 4096 -V -T "ARTIST=%artist%" -T "TITLE=%title%" -T "ALBUM=%albumtitle%" -T "TRACKNUMBER=%tracknr%" %source% -o %dest%


TOC of the extracted CD

Track | Start | Length | Start sector | End sector
––––––––––––––––––––––––––––-
1 | 0:00.00 | 4:39.00 | 0 | 20924
2 | 4:39.00 | 4:17.22 | 20925 | 40221
3 | 8:56.22 | 4:36.58 | 40222 | 60979
4 | 13:33.05 | 4:29.37 | 60980 | 81191
5 | 18:02.42 | 4:04.60 | 81192 | 99551
6 | 22:07.27 | 4:13.08 | 99552 | 118534
7 | 26:20.35 | 3:31.15 | 118535 | 134374
8 | 29:51.50 | 3:36.30 | 134375 | 150604
9 | 33:28.05 | 4:13.52 | 150605 | 169631
10 | 37:41.57 | 5:03.20 | 169632 | 192376
11 | 42:45.02 | 5:56.55 | 192377 | 219131


Track 1

Filename C:\FLAC\Loverboy\Wildside\01 - Notorious.wav

Pre-gap length 0:00:02.00

Peak level 100.0 %
Extraction speed 5.1 X
Track quality 100.0 %
Test CRC 6D331C03
Copy CRC 6D331C03
Accurately ripped (confidence 3) [7D52EAA1] (AR v2)
Copy OK

Track 2

Filename C:\FLAC\Loverboy\Wildside\02 - Walkin' On Fire.wav

Peak level 100.0 %
Extraction speed 4.5 X
Track quality 99.9 %
Test CRC A5937953
Copy CRC A5937953
Accurately ripped (confidence 3) [46E498BC] (AR v2)
Copy OK

Track 3

Filename C:\FLAC\Loverboy\Wildside\03 - Break It To Me Gently.wav

Pre-gap length 0:00:00.46

Peak level 100.0 %
Extraction speed 6.0 X
Track quality 100.0 %
Test CRC D8B96509
Copy CRC D8B96509
Accurately ripped (confidence 3) [ABE45443] (AR v2)
Copy OK

Track 4

Filename C:\FLAC\Loverboy\Wildside\04 - Love Will Rise Again.wav

Pre-gap length 0:00:00.90

Peak level 100.0 %
Extraction speed 6.4 X
Track quality 100.0 %
Test CRC 49342C0A
Copy CRC 49342C0A
Accurately ripped (confidence 3) [9F2EDF03] (AR v2)
Copy OK

Track 5

Filename C:\FLAC\Loverboy\Wildside\05 - Can't Get Much Better.wav

Pre-gap length 0:00:01.29

Peak level 100.0 %
Extraction speed 6.7 X
Track quality 100.0 %
Test CRC 0231FB3F
Copy CRC 0231FB3F
Accurately ripped (confidence 3) [995547D9] (AR v2)
Copy OK

Track 6

Filename C:\FLAC\Loverboy\Wildside\06 - Hometown Hero.wav

Peak level 100.0 %
Extraction speed 7.0 X
Track quality 100.0 %
Test CRC 1E5AC03E
Copy CRC 1E5AC03E
Accurately ripped (confidence 3) [7BA6FA0B] (AR v2)
Copy OK

Track 7

Filename C:\FLAC\Loverboy\Wildside\07 - Wildside.wav

Pre-gap length 0:00:00.13

Peak level 100.0 %
Extraction speed 7.2 X
Track quality 100.0 %
Test CRC B75ECA5E
Copy CRC B75ECA5E
Accurately ripped (confidence 3) [670CFE58] (AR v2)
Copy OK

Track 8

Filename C:\FLAC\Loverboy\Wildside\08 - Don't Let Go.wav

Peak level 100.0 %
Extraction speed 7.4 X
Track quality 100.0 %
Test CRC 4AA270D5
Copy CRC 4AA270D5
Accurately ripped (confidence 3) [8768DC0E] (AR v2)
Copy OK

Track 9

Filename C:\FLAC\Loverboy\Wildside\09 - That's Where My Money Goes.wav

Pre-gap length 0:00:00.93

Peak level 100.0 %
Extraction speed 7.8 X
Track quality 100.0 %
Test CRC 7B88DFDD
Copy CRC 7B88DFDD
Accurately ripped (confidence 3) [9E128985] (AR v2)
Copy OK

Track 10

Filename C:\FLAC\Loverboy\Wildside\10 - Read My Lips.wav

Pre-gap length 0:00:00.06

Peak level 100.0 %
Extraction speed 8.4 X
Track quality 100.0 %
Test CRC 805174E7
Copy CRC 805174E7
Accurately ripped (confidence 3) [AE146A22] (AR v2)
Copy OK

Track 11

Filename C:\FLAC\Loverboy\Wildside\11 - Don't Keep Me In The Dark.wav

Pre-gap length 0:00:02.02

Peak level 100.0 %
Extraction speed 8.9 X
Track quality 100.0 %
Test CRC CC66CD05
Copy CRC CC66CD05
Accurately ripped (confidence 3) [E86AC10B] (AR v2)
Copy OK


All tracks accurately ripped

No errors occurred

End of status report

==== Log checksum E747817C18DE6F9594759340DB6E37AE273414181A9BA3D4DA453E4A598F9ECA ====


Many thanks to the original uploader: crossovernickk

SEE also:
Moxy 1975 Moxy [2003, Unidisc]
Moxy 1976 Moxy II [2003, Unidisc]



Password: pass