Subcategories

Lucia Popp - Icon: Queen of the Night, Maiden of Light (7CD Box Set, 2009)

Posted By: Discograf_man
Lucia Popp - Icon: Queen of the Night, Maiden of Light (7CD Box Set, 2009)

Lucia Popp - Icon: Queen of the Night, Maiden of Light (7CD Box Set, 2009)
EAC Rip | APE (*image+.cue+.log) | Run Time: 8:27:35 | 1,96 Gb | Covers 15,98 Mb
Genre: Classical | Label: Warner Classics

Lucia Popp (born Lucia Poppová) entered the Academy in Bratislava primarily to study drama. Her voice was a mezzo-soprano but her musical lessons developed a high upper register to such a degree that her professional debut was as Queen of the Night in Mozart’s opera Die Zauberflöte in Bratislava. In 1963 Otto Klemperer heard her and she duly recorded this role with him in 1971. Also in 1963 Herbert von Karajan invited her to join the State Opera in Vienna where her first role was Barbarina in Mozart’s Le nozze di Figaro.
Lucia Popp - Icon: Queen of the Night, Maiden of Light (7CD Box Set, 2009)

Tracklist:

CD1:

1. Handel: Rodelinda, HWV 19 - Ombre, Piante, Urne Funesti!
2. Handel: Serse, HWV 40 - Un Cenno Leggiadretto
3. Handel: Rodelinda, HWV 19 - Hò Perduto Il Caro Sposo
4. Handel: Ottone, HWV 15 - Vinto È L'Amor
5. Handel: Giulio Cesare In Egitto, HWV 17 - E Pur Cosi In Un Giorno…Piangerò, La Sorte Mia
6. Handel: Joshua, HWV 64 - O Had I Jubal's Lyre
7. Handel: Der Messias, HWV 56 - Wohlan, Frohlocke, Du Tochter Zion
8. Handel: Der Messias, HWV 56 - Wie Lieblich Ist Der Boten Schritt
9. Handel: Der Messias, HWV 56 - Ich Weiss, Dass Mein Erlöser Lebet
10. Handel: Der Messias, HWV 56 - Ist Gott Mit Uns, Wer Sollte Uns Schaden?
11. Mozart: Exsultate, Jubilate, K 165 - Exsultate, Jubilate
12. Mozart: Exsultate, Jubilate, K 165 - Fulget Amica
13. Mozart: Exsultate, Jubilate, K 165 - Tu Virginum
14. Mozart: Exsultate, Jubilate, K 165 - Alleluia
15. Mozart: Vesperae Solennes De Confessore, K 339 - Laudate Dominum
16. Mozart: Vesperae De Domenica, K 321 - Laudate Dominum
17. Mozart: Petite Messe Solennelle - Crucifixus
18. Mozart: Petite Messe Solennelle - O Salutaris Hostia

CD2:

1. Mozart: Il Re Pastore, K 208 - L'Amerò, Sarò Costante
2. Mozart: Idomeneo K 366 - Solitudini Amiche…Zeffiretti Lusinghieri
3. Die Entführung Aus Dem Serail (1998 Digital Remaster): Durch Zärtlichkeit und Scmeicheln
4. Mozart: Die Entführung Aus Dem Serail, K 384 - Welche Wonne, Welche Lust
5. Mozart: Die Entführung Aus Dem Serail, K 384 - Act 2: Welcher Kummer…, Traurigkeit Ward Mir Zum Lose
6. Mozart: Le Nozze Di Figaro, K 492 - Porgi Amor
7. Mozart: Le Nozze Di Figaro, K 492 - Voi, Che Sapete
8. Mozart: Le Nozze Di Figaro, K 492 - Giunse Alfin Il Momento, Deh Vieni, Non Tardar
9. Mozart: Don Giovanni, K 527 - Act 2: In Quali Eccessi, Mi Tradì Quell' Alma Ingrata
10. Mozart: Don Giovanni, K 527 - Act 2: Crudele?, Non Mi Dir Bell' Idol Mio
11. Mozart: Così Fan Tutte, K 588 - Act 1: Come Scoglio
12. Mozart: Così Fan Tutte, K 588 - Act 2: Una Donna A Quindici Anni
13. Mozart: Die Zauberflöte - Act 1: O Zitt're Nicht, Mein Lieber Sohn
14. Mozart: Die Zauberflöte, K 620 - Act 2: Der Hölle Rache Kocht In Meinem Herzen
15. Mozart: Die Zauberflöte - Ach, Ich Fühl's, Es Ist Verschwunden
16. Non più di fiori vaghe catene (La Clemenza di Tito, KV 621)

CD3:

1. Wagner: Tannhäuser - Dich Teure Halle
2. Tannhäuser: Allmächt'ge Jungfrau (Elisabeth's Prayer)
3. Daphne Op 82: Leb wohl, du Tag! … O bleib geliebter Tag (Chor des Schäfer/Daphne)
4. Daphne Op 82: Was blendet so? … Daphne … Gespielen … Unheilvolle Daphne (Daphne/Leukippos)
5. Daphne: Ich komme…ich komme grünende Brüder
6. Strauss (R): Four Last Songs - Fruhling
7. Strauss (R): Four Last Songs - September
8. Strauss (R): Four Last Songs - Beim Schlafengehen
9. Strauss (R): Four Last Songs - Im Abendrot

CD4:

1. Strauss (R): Acht Lieder aus Letzte Blätter Op. 10: Zueignung
2. Strauss (R): Acht Lieder aus Letzte Blätter Op. 10: Nichts
3. Strauss (R): Acht Lieder aus Letzte Blätter Op. 10: Die Nacht
4. Strauss (R): Acht Lieder aus Letzte Blätter Op. 10: Die Georgine
5. Strauss (R): Acht Lieder aus Letzte Blätter Op. 10: Geduld
6. Strauss (R): Acht Lieder aus Letzte Blätter Op. 10: Die Verschwiegenen
7. Strauss (R): Acht Lieder aus Letzte Blätter Op. 10: Die Zeitlose
8. Strauss (R): Acht Lieder aus Letzte Blätter Op. 10: Allerseelen
9. Strauss (R): Rote Rosen Av76
10. Strauss (R): Die erwachte Rose Av60
11. Strauss (R): Begegnung Av72
12. Strauss (R): Schlagende Herzen from Drei Lieder Op. 29
13. Strauss (R): Heimkehr (von Schack) from Fünf Lieder Op. 15
14. Strauss (R): Weisser Jasmin (Busse) from Vier Lieder Op. 31
15. Strauss (R): Wiegenlied (Dehmel) from Fünf Lieder Op. 41
16. Strauss (R): Meinem Kinde (Falke) from 6 Lieder Op. 37
17. Strauss (R): Leise Lieder (Morgenstern) from Fünf Lieder Op. 41
18. Strauss (R): Leises Lied (Dehmel) from Fünf Lieder Op. 39
19. Strauss (R): Schlechtes Wetter (Heine) from Fünf Kleine Lieder Op. 69
20. Strauss (R): Vier Lieder Op. 36: Für funfzehn Pfennige (aus "Des Knaben Wunderhorn")
21. Strauss (R): Vier Lieder Op. 36: Hat gesagt, bleibt's nicht dabei (aus "Des Knaben Wundhorn")
22. Grieg: Peer Gynt, Op. 23 - Arabian Dance
23. Grieg: Peer Gynt, Op. 23 - Solveig's Song
24. Grieg: Peer Gynt, Op. 23 - Solveig's Cradle Song
25. Orff: Carmina Burana - 17. Cour D'Amours: Stetit Puella
26. Carmina Burana (2001 Digital Remaster): In trutina
27. Carmina Burana (2001 Digital Remaster): Dulcissime

CD5:

1. Tchaikovsky: Eugene Onegin, Op. 24 - Tatiana's Letter Scene
2. Tchaikovsky: Queen Of Spades, Op. 68 - Midnight Is Nearing
3. Tchaikovsky: Voina y Mir (War and Peace): Kakoye prove oni imyeyet (What right have they?)
4. Smetana: Bartered Bride, T 93 - Should I Ever Learn
5. Smetana: Bartered Bride, T 93 - O What Grief!
6. Smetana: Dalibor - Jak Je Mi? ( How Confused I Feel!)
7. Dvořák: Rusalka, Op. 114, B 203 - Act 1: Song To The Moon
8. Dvořák: Rusalka, Op. 114, B 203 - Deprived Of Youth
9. Armida: Za stihlou gazelou (At dawn, as I merrily pursued a slender gazelle) (Act 1)
10. Janáček: Jenufa - This Is My Mother's Room
11. Lieder aus 'Des Knaben Wunderhorn': Das irdische Leben
12. Lieder aus 'Des Knaben Wunderhorn': Rheinlegendchen
13. Mahler: Des Knaben Wunderhorn - Wer Hat Dies Liedlein Erdacht?
14. Lieder aus 'Des Knaben Wunderhorn': Wo die schönen Trompeten blasen
15. Mahler: Symphony #4 In G - 4. Sehr Behaglich

CD6:

1. Suppé: Boccaccio - Hab'Ich Nur Deine Liebe
2. Strauss Jr. (J): Die Fledermaus - Klänge Der Heimat
3. Strauss Jr. (J)/Benatzky: Casanova - Nonnenchor Und Das Lied Der Laura
4. Strauss Jr. (J): Die Tänzerin Fanny Elssler - Draussen In Sievering
5. Zeller: Der Obersteiger - Sei Nicht Bös
6. Millocker: Die Dubarry - Ich Schenk' Mein Herz
7. Lehár: Die Lustige Witwe - Es Lebt Eine Vilja, Ein Waldmägdelein
8. Lehár: Der Graf Von Luxemburg - Heut' Noch Werd' Ich Ehefrau
9. Lehár: Der Graf Von Luxemburg - Hoch, Evoë, Angèle Didier, Ich Danke, Meine Herrn Und Meine Damen
10. Lehár: Giuditta - Meine Lippen, Sie Küssen So Heiss
11. Lehár: Das Land Des Lächelns - Ich Möcht' Einmal Die Heimat Seh'n
12. Lehár: Friederike - Warum Hast Du Mich Wachgeküsst?
13. Lincke: Frau Luna - Schlösser, Die Im Monde Liegen
14. Stolz: Der Favorit - Du Sollst Der Kaiser Meiner Seele Sein
15. Stolz: Frühjahrsparade - Wien Wird Bei Nacht Erst Schön
16. Dostal (N): Die Ungarische Hochzeit - Spiel Das Lied Von Glück Und Treu
17. Fall: Die Kaiserin - Du Mein Schönbrunn
18. Kuenneke: Liselott - Glücklich Am Morgen

CD7:

1. Schubert: Am Mein Herz, D 860
2. Schubert: Der Fluss, D 693
3. Schubert: Der Knabe, D 692
4. Schubert: Die Rose, D 745
5. Schubert: Der Schmetterling, D 633
6. Schubert: Die Forelle, D 550
7. Schubert: Der Wanderer An Den Mond, D 870
8. Schubert: Der Einsame, D 800
9. Schubert: Fülle Der Liebe, D 854
10. Schubert: Die Junge Nonne, D 828
11. Schubert: Auf Dem Wasser Zu Singen, D 774
12. Schubert: Gretchen Am Spinnrade, D 118
13. Schubert: Fischerweise, D 881
14. Schubert: Der Jüngling An Der Quelle, D 300
15. Schubert: An Silvia, D 891
16. Schubert: Seligkeit, D 433

Lucia Popp (Soprano)

Lucia Popp - Icon: Queen of the Night, Maiden of Light (7CD Box Set, 2009)


Exact Audio Copy V1.0 beta 3 from 29. August 2011

EAC 抓取日志文件从25. 六月 2012, 22:38

Lucia Popp / Lucia Popp CD 1

使用驱动器 :HL-DT-STDVD-RAM GH60N Adapter: 0 ID: 1

读取模式 : 暴发

读取偏移校正: : 667
读取 Lead-In 和 Lead-Out : 否
用静音填充抓取中丢失偏移的采样 : 是
去除首尾静音块 : 否
在CRC 计算中使用了空样本 : 是
已用接口 : Win NT 及 2000 本地 Win32 接口

所用输出模式: : 内部 WAV 函数
样本格式 : 44.100 Hz; 16 Bit; 立体声


已抓取 CD 的 TOC

音轨 | 起始 | 长度 | 起始扇区 | 结束扇区
––––––––––––––––––––––
1 | 0:00.00 | 4:44.41 | 0 | 21340
2 | 4:44.41 | 3:47.21 | 21341 | 38386
3 | 8:31.62 | 4:56.65 | 38387 | 60651
4 | 13:28.52 | 3:59.36 | 60652 | 78612
5 | 17:28.13 | 6:40.37 | 78613 | 108649
6 | 24:08.50 | 2:55.47 | 108650 | 121821
7 | 27:04.22 | 4:38.06 | 121822 | 142677
8 | 31:42.28 | 2:25.31 | 142678 | 153583
9 | 34:07.59 | 5:24.15 | 153584 | 177898
10 | 39:31.74 | 4:46.65 | 177899 | 199413
11 | 44:18.64 | 4:56.51 | 199414 | 221664
12 | 49:15.40 | 0:49.38 | 221665 | 225377
13 | 50:05.03 | 6:58.37 | 225378 | 256764
14 | 57:03.40 | 2:59.14 | 256765 | 270203
15 | 60:02.54 | 5:17.73 | 270204 | 294051
16 | 65:20.52 | 5:36.30 | 294052 | 319281
17 | 70:57.07 | 3:04.34 | 319282 | 333115
18 | 74:01.41 | 5:56.06 | 333116 | 359821


范围状态及错误

已选择范围

文件名 D:\Music\VC Upload\Lucia Popp\Lucia Popp - Lucia Popp CD 1.wav

峰值电平 98.1 %
抓取速度 23.6 X
复制 CRC 36184226
复制成功

没有错误发生


AccurateRip 摘要

音轨 1 精确地校准抓取 1) [AE04FD7A] (AR v1)
音轨 2 精确地校准抓取 1) [983D7FD9] (AR v1)
音轨 3 精确地校准抓取 1) [F7DA5395] (AR v1)
音轨 4 精确地校准抓取 1) [CF19F486] (AR v1)
音轨 5 精确地校准抓取 1) [290EE8D4] (AR v1)
音轨 6 精确地校准抓取 1) [D7AD4823] (AR v1)
音轨 7 精确地校准抓取 1) [5C854369] (AR v1)
音轨 8 精确地校准抓取 1) [B4B7C065] (AR v1)
音轨 9 精确地校准抓取 1) [FD7F232F] (AR v1)
音轨 10 精确地校准抓取 1) [F1C8E330] (AR v1)
音轨 11 精确地校准抓取 1) [D9F2C5B6] (AR v1)
音轨 12 精确地校准抓取 1) [1E517BCA] (AR v1)
音轨 13 精确地校准抓取 1) [8BAFBB1C] (AR v1)
音轨 14 精确地校准抓取 1) [6574E23D] (AR v1)
音轨 15 精确地校准抓取 1) [B8D422B1] (AR v1)
音轨 16 精确地校准抓取 1) [7B2655AA] (AR v1)
音轨 17 精确地校准抓取 1) [B5A9EAF7] (AR v1)
音轨 18 精确地校准抓取 1) [7C8D6B82] (AR v1)

所有音轨精确校准抓取

状态报告结尾

–– CUETools DB Plugin V2.1.3

[CTDB TOCID: 2vydyK3nt6lH5vFOiN5Al0PD9Tg-] disk not present in database, Submit result: insufficient quality

============================================

Exact Audio Copy V1.0 beta 3 from 29. August 2011

EAC 抓取日志文件从25. 六月 2012, 22:47

Lucia Popp / Lucia Popp - CD 2

使用驱动器 :HL-DT-STDVD-RAM GH60N Adapter: 0 ID: 1

读取模式 : 暴发

读取偏移校正: : 667
读取 Lead-In 和 Lead-Out : 否
用静音填充抓取中丢失偏移的采样 : 是
去除首尾静音块 : 否
在CRC 计算中使用了空样本 : 是
已用接口 : Win NT 及 2000 本地 Win32 接口

所用输出模式: : 内部 WAV 函数
样本格式 : 44.100 Hz; 16 Bit; 立体声


已抓取 CD 的 TOC

音轨 | 起始 | 长度 | 起始扇区 | 结束扇区
––––––––––––––––––––––
1 | 0:00.00 | 6:23.07 | 0 | 28731
2 | 6:23.07 | 6:26.47 | 28732 | 57728
3 | 12:49.54 | 3:20.45 | 57729 | 72773
4 | 16:10.24 | 2:32.65 | 72774 | 84238
5 | 18:43.14 | 8:54.10 | 84239 | 124298
6 | 27:37.24 | 3:47.74 | 124299 | 141397
7 | 31:25.23 | 2:50.07 | 141398 | 154154
8 | 34:15.30 | 4:55.27 | 154155 | 176306
9 | 39:10.57 | 6:04.65 | 176307 | 203671
10 | 45:15.47 | 6:38.05 | 203672 | 233526
11 | 51:53.52 | 4:35.26 | 233527 | 254177
12 | 56:29.03 | 4:09.72 | 254178 | 272924
13 | 60:39.00 | 5:10.72 | 272925 | 296246
14 | 65:49.72 | 3:12.33 | 296247 | 310679
15 | 69:02.30 | 4:14.19 | 310680 | 329748
16 | 73:16.49 | 6:40.63 | 329749 | 359811


范围状态及错误

已选择范围

文件名 D:\Music\VC Upload\Lucia Popp\Lucia Popp - Lucia Popp - CD 2.wav

计时问题 0:00:00
计时问题 0:00:04

峰值电平 98.8 %
抓取速度 23.3 X
复制 CRC 6C05DA72
复制结束

没有错误发生


AccurateRip 摘要

音轨 1 精确地校准抓取 1) [C00AF091] (AR v1)
音轨 2 精确地校准抓取 1) [943BEDCA] (AR v1)
音轨 3 精确地校准抓取 1) [C2B486BB] (AR v1)
音轨 4 精确地校准抓取 1) [B122C038] (AR v1)
音轨 5 精确地校准抓取 1) [AB7AC152] (AR v1)
音轨 6 精确地校准抓取 1) [4AF02B07] (AR v1)
音轨 7 精确地校准抓取 1) [E997AF15] (AR v1)
音轨 8 精确地校准抓取 1) [D26B9329] (AR v1)
音轨 9 精确地校准抓取 1) [D6482E92] (AR v1)
音轨 10 精确地校准抓取 1) [CBD98D6B] (AR v1)
音轨 11 精确地校准抓取 1) [72F1E85A] (AR v1)
音轨 12 精确地校准抓取 1) [CB8DEBD9] (AR v1)
音轨 13 精确地校准抓取 1) [E79BB291] (AR v1)
音轨 14 精确地校准抓取 1) [6979BDE1] (AR v1)
音轨 15 精确地校准抓取 1) [B38D12F2] (AR v1)
音轨 16 精确地校准抓取 1) [512AE7A5] (AR v1)

所有音轨精确校准抓取

状态报告结尾

–– CUETools DB Plugin V2.1.3

[CTDB TOCID: KHAU2fpOrYrBa9uQaLVmx5rSOLY-] disk not present in database, Submit result: insufficient quality

=======================================

Exact Audio Copy V1.0 beta 3 from 29. August 2011

EAC 抓取日志文件从25. 六月 2012, 22:55

Lucia Popp / Lucia Popp - CD 3

使用驱动器 :HL-DT-STDVD-RAM GH60N Adapter: 0 ID: 1

读取模式 : 暴发

读取偏移校正: : 667
读取 Lead-In 和 Lead-Out : 否
用静音填充抓取中丢失偏移的采样 : 是
去除首尾静音块 : 否
在CRC 计算中使用了空样本 : 是
已用接口 : Win NT 及 2000 本地 Win32 接口

所用输出模式: : 内部 WAV 函数
样本格式 : 44.100 Hz; 16 Bit; 立体声


已抓取 CD 的 TOC

音轨 | 起始 | 长度 | 起始扇区 | 结束扇区
––––––––––––––––––––––
1 | 0:00.00 | 4:56.00 | 0 | 22199
2 | 4:56.00 | 5:33.65 | 22200 | 47239
3 | 10:29.65 | 8:38.50 | 47240 | 86139
4 | 19:08.40 | 10:03.14 | 86140 | 131378
5 | 29:11.54 | 11:05.26 | 131379 | 181279
6 | 40:17.05 | 3:51.09 | 181280 | 198613
7 | 44:08.14 | 5:16.56 | 198614 | 222369
8 | 49:24.70 | 6:20.48 | 222370 | 250917
9 | 55:45.43 | 8:24.34 | 250918 | 288751


范围状态及错误

已选择范围

文件名 D:\Music\VC Upload\Lucia Popp\Lucia Popp - Lucia Popp - CD 3.wav

计时问题 0:00:00
计时问题 0:00:04

峰值电平 99.5 %
抓取速度 21.9 X
复制 CRC 2DCE399A
复制结束

没有错误发生


AccurateRip 摘要

音轨 1 精确地校准抓取 1) [A99B374E] (AR v1)
音轨 2 精确地校准抓取 1) [8C7DFA80] (AR v1)
音轨 3 精确地校准抓取 1) [CF0E4AC5] (AR v1)
音轨 4 精确地校准抓取 1) [5DD449D6] (AR v1)
音轨 5 精确地校准抓取 1) [01210A53] (AR v1)
音轨 6 精确地校准抓取 1) [508F7AC8] (AR v1)
音轨 7 精确地校准抓取 1) [D9311BDA] (AR v1)
音轨 8 精确地校准抓取 1) [8AEE9A83] (AR v1)
音轨 9 精确地校准抓取 1) [6928E8A9] (AR v1)

所有音轨精确校准抓取

状态报告结尾

–– CUETools DB Plugin V2.1.3

[CTDB TOCID: nnckRVNBDt_A7N1Yh.SY1cRtt5o-] disk not present in database, Submit result: insufficient quality


All 7 log files included…