Subcategories

Lucien Kandel, Ensemble Musica Nova - Johannes Ockeghem: Missa Prolationum (2012)

Posted By: ArlegZ
Lucien Kandel, Ensemble Musica Nova - Johannes Ockeghem: Missa Prolationum (2012)

Lucien Kandel, Ensemble Musica Nova - Johannes Ockeghem: Missa Prolationum (2012)
EAC | FLAC | Image (Cue & Log) ~ 259 Mb | Total time: 57:13 | Scans included
Classical | Label: agOgique | # AGO008 | Recorded: 2011

Johannes Ockeghem was an absolute master of counterpoint who, for more than 40 years at the end of the 15th century, ruled over Franco-Flemish polyphony under three French kings, Charles VII, Louis XI and Charles VIII. His works which are still all too rarely performed continue to fascinate to this day. The Missa prolationum, together with the Missa cuiusvis toni, is a tour de force of writing, reaching levels of complexity that can impress even the most experienced performers. Although its Latin title would seem to suggest a sacred theme, this work does not strictly speaking belong to the liturgical domain and is not based on a pre-existing melodic motif, taken from motet or Gregorian chant. Musica Nova is composed of a loyal core of singers gathered around Lucien Kandel and has already recorded Ockeghem's 'Missa cuiusvis toni' and a selection of ballads and Motets by Machaut. Kandel has returned to manuscript sources to deliver a new edition of the 'Missa Prolationum', together with the 'Salve Regina' and 'Alma Redemptoris Mater', shedding new light and sparkle on the profound beauty of this jewel of the late Middle Ages.

Performer:
Ensemble Musica Nova
Lucien Kandel, direction

Track List:
01. Alma Redemptoris Mater
Missa prolationum
02. Kyrie
03. Gloria
04. Credo
05. Sanctus
06. Agnus Dei
07. Salve Regina


Exact Audio Copy V1.3 from 2. September 2016

EAC extraction logfile from 31. May 2019, 23:22

Ensemble Musica Nova / Johannes Ockeghem: Missa Prolationum

Used drive : TSSTcorpDVD+-RW TS-H653H Adapter: 1 ID: 0

Read mode : Secure
Utilize accurate stream : Yes
Defeat audio cache : Yes
Make use of C2 pointers : No

Read offset correction : 697
Overread into Lead-In and Lead-Out : No
Fill up missing offset samples with silence : Yes
Delete leading and trailing silent blocks : No
Null samples used in CRC calculations : Yes
Used interface : Native Win32 interface for Win NT & 2000

Used output format : User Defined Encoder
Selected bitrate : 1024 kBit/s
Quality : High
Add ID3 tag : No
Command line compressor : C:\Program Files (x86)\Exact Audio Copy\FLAC\FLAC.EXE
Additional command line options : -8 -e -p -V -T "ARTIST=%artist%" -T "TITLE=%title%" -T "ALBUM=%albumtitle%" -T "DATE=%year%" -T "TRACKNUMBER=%tracknr%" -T "GENRE=%genre%" -T "PERFORMER=%albuminterpret%" -T "COMPOSER=%composer%" %haslyrics%–tag-from-file=LYRICS="%lyricsfile%"%haslyrics% -T "ALBUMARTIST=%albumartist%" -T "DISCNUMBER=%cdnumber%" -T "TOTALDISCS=%totalcds%" -T "TOTALTRACKS=%numtracks%" -T "COMMENT=%comment%" %source% -o %dest%


TOC of the extracted CD

Track | Start | Length | Start sector | End sector
––––––––––––––––––––––––––––-
1 | 0:00.00 | 5:59.46 | 0 | 26970
2 | 5:59.46 | 4:52.25 | 26971 | 48895
3 | 10:51.71 | 9:11.04 | 48896 | 90224
4 | 20:03.00 | 11:04.39 | 90225 | 140063
5 | 31:07.39 | 8:39.58 | 140064 | 179046
6 | 39:47.22 | 6:54.61 | 179047 | 210157
7 | 46:42.08 | 10:29.52 | 210158 | 257384


Range status and errors

Selected range

Filename K:\Rips\Ockeghem - Missa prolationum - Kandel\Ensemble Musica Nova - Johannes Ockeghem- Missa Prolationum.wav

Peak level 91.6 %
Extraction speed 4.1 X
Range quality 99.9 %
Test CRC FEAD3FE7
Copy CRC FEAD3FE7
Copy OK

No errors occurred


AccurateRip summary

Track 1 accurately ripped (confidence 9) [23EB514D] (AR v2)
Track 2 accurately ripped (confidence 9) [1522DB69] (AR v2)
Track 3 accurately ripped (confidence 9) [515DC1B7] (AR v2)
Track 4 accurately ripped (confidence 9) [F0B93617] (AR v2)
Track 5 accurately ripped (confidence 9) [B956B759] (AR v2)
Track 6 accurately ripped (confidence 9) [A578CE95] (AR v2)
Track 7 accurately ripped (confidence 9) [807E779D] (AR v2)

All tracks accurately ripped

End of status report

–– CUETools DB Plugin V2.1.6

[CTDB TOCID: btddoI0lV4355KFNP0ht0GzAMDM-] found
Submit result: btddoI0lV4355KFNP0ht0GzAMDM- has been confirmed
Track | CTDB Status
1 | (5/5) Accurately ripped
2 | (5/5) Accurately ripped
3 | (5/5) Accurately ripped
4 | (5/5) Accurately ripped
5 | (5/5) Accurately ripped
6 | (5/5) Accurately ripped
7 | (5/5) Accurately ripped


==== Log checksum F30B473FFEF9050F0653D9509C09ABAA6AD1C95E798339DE9DEAAEF0EEAD6544 ====

Lucien Kandel, Ensemble Musica Nova - Johannes Ockeghem: Missa Prolationum (2012)

Thanks to the original releaser