Subcategories

Ludovico Einaudi & VA - Intouchables: La Bande Originale Du Film (Original Soundtrack) (2011) [Re-Up]

Posted By: Designol
Ludovico Einaudi & VA - Intouchables: La Bande Originale Du Film (Original Soundtrack) (2011) [Re-Up]

Ludovico Einaudi & VA - Intouchables: La Bande Originale Du Film (Original Soundtrack) (2011)
EAC | FLAC | Track (Cue&Log) ~ 353 Mb (incl 5%) | Mp3 (CBR320) ~ 170 Mb (incl 5%) | Scans included
Soundtrack, Score, Jazz, Classical, R&B | Label: TF1 Musique | # 602527 91856 3 | Time: 00:57:05

Intouchables is the official soundtrack to the Oliver Nakache/Eric Toledano-directed comedy-drama based on the true-story relationship between rich quadraplegic Philippe (François Cluzet) and his ex-prisoner hired help Driss (Omar Sy). Its 15 tracks contain snippets of dialogue from the film alongside several instrumentals from Italian composer Ludovico Einaudi ("Fly," "Writing Poems," "Una Mattina"), Vivaldi's Concerto for Two Violins/String Orchestra Op. 3, No. 8, and classic songs from George Benson ("The Ghetto"), Nina Simone ("Feeling Good"), and Terry Callier ("You're Goin' Miss Your Candyman") that are featured prominently in the Tokyo International Film Festival award winner.

Ludovico Einaudi & VA - Intouchables: La Bande Originale Du Film (Original Soundtrack) (2011) [Re-Up]



Tracklist:

01. Ludovico Einaudi - Fly (03:20)
02. Earth, Wind & Fire - September (03:33)
03. Omar Sy, François Cluzet, Audrey Fleurot - Des Références… (01:08)
04. Ludovico Einaudi - Writing Poems (04:09)
05. George Benson - The Ghetto (04:57)
06. Omar Sy, François Cluzet, Audrey Fleurot - L'Arbre Qui Chante (01:01)
07. Earth, Wind & Fire - You're Goin' Miss Your Candyman (07:18)
08. Omar Sy, François Cluzet, Audrey Fleurot - Blind Test (02:21)
09. Earth, Wind & Fire - Boogie Wonderland (Feat. The Emotions) (04:45)
10. Ludovico Einaudi - L'Origine Nascosta (03:12)
11. Nina Simone - Feeling Good (02:53)
12. Ludovico Einaudi - Cache-Cache (03:51)
13. Angelicum De Milan - Vivaldi: Concerto Pour 2 Violons & Orchestre) (03:21)
14. Ludovico Einaudi - Una Mattina (06:41)
15. Vib Gyor - Red Light (04:29)


Exact Audio Copy V1.0 beta 3 from 29. August 2011

EAC extraction logfile from 11. February 2012, 11:54

Ludovico Einaudi / Intouchables

Used drive : MATSHITABD-MLT UJ230AS Adapter: 0 ID: 0

Read mode : Secure
Utilize accurate stream : Yes
Defeat audio cache : Yes
Make use of C2 pointers : Yes

Read offset correction : 102
Overread into Lead-In and Lead-Out : No
Fill up missing offset samples with silence : Yes
Delete leading and trailing silent blocks : No
Null samples used in CRC calculations : Yes
Used interface : Native Win32 interface for Win NT & 2000
Gap handling : Appended to previous track

Used output format : User Defined Encoder
Selected bitrate : 768 kBit/s
Quality : High
Add ID3 tag : No
Command line compressor : C:\Program Files\Exact Audio Copy\FLAC\FLAC.EXE
Additional command line options : -6 -V -T "ARTIST=%artist%" -T "TITLE=%title%" -T "ALBUM=%albumtitle%" -T "DATE=%year%" -T "TRACKNUMBER=%tracknr%" -T "GENRE=%genre%" -T "COMMENT=%comment%" -T "BAND=%albuminterpret%" -T "ALBUMARTIST=%albuminterpret%" -T "COMPOSER=%composer%" %haslyrics%–tag-from-file=LYRICS="%lyricsfile%"%haslyrics% -T "DISCNUMBER=%cdnumber%" -T "TOTALDISCS=%totalcds%" -T "TOTALTRACKS=%numtracks%" %hascover%–picture="%coverfile%"%hascover% %source% -o %dest%


TOC of the extracted CD

Track | Start | Length | Start sector | End sector
––––––––––––––––––––––––––––-
1 | 0:00.00 | 3:20.41 | 0 | 15040
2 | 3:20.41 | 3:33.14 | 15041 | 31029
3 | 6:53.55 | 1:08.70 | 31030 | 36199
4 | 8:02.50 | 4:09.46 | 36200 | 54920
5 | 12:12.21 | 4:57.48 | 54921 | 77243
6 | 17:09.69 | 1:01.01 | 77244 | 81819
7 | 18:10.70 | 7:18.39 | 81820 | 114708
8 | 25:29.34 | 2:21.64 | 114709 | 125347
9 | 27:51.23 | 4:45.10 | 125348 | 146732
10 | 32:36.33 | 3:12.63 | 146733 | 161195
11 | 35:49.21 | 2:53.12 | 161196 | 174182
12 | 38:42.33 | 3:51.14 | 174183 | 191521
13 | 42:33.47 | 3:21.02 | 191522 | 206598
14 | 45:54.49 | 6:41.70 | 206599 | 236743
15 | 52:36.44 | 4:29.17 | 236744 | 256935


Track 1

Filename C:\Music\Ludovico Einaudi - Intouchables (2011) [FLAC] {Edition Prestige}\01 Fly.wav

Pre-gap length 0:00:02.00

Peak level 94.7 %
Extraction speed 2.0 X
Track quality 100.0 %
Test CRC 93062D58
Copy CRC 93062D58
Accurately ripped (confidence 1) [6371119B] (AR v1)
Copy OK

Track 2

Filename C:\Music\Ludovico Einaudi - Intouchables (2011) [FLAC] {Edition Prestige}\02 September.wav

Pre-gap length 0:00:00.12

Peak level 97.7 %
Extraction speed 1.8 X
Track quality 99.9 %
Test CRC 90E9B60E
Copy CRC 90E9B60E
Accurately ripped (confidence 1) [902E1FE0] (AR v1)
Copy OK

Track 3

Filename C:\Music\Ludovico Einaudi - Intouchables (2011) [FLAC] {Edition Prestige}\03 Des Références….wav

Pre-gap length 0:00:00.12

Peak level 74.2 %
Extraction speed 1.6 X
Track quality 100.0 %
Test CRC 186544AC
Copy CRC 186544AC
Accurately ripped (confidence 1) [775B2B87] (AR v1)
Copy OK

Track 4

Filename C:\Music\Ludovico Einaudi - Intouchables (2011) [FLAC] {Edition Prestige}\04 Writing Poems.wav

Peak level 97.7 %
Extraction speed 2.5 X
Track quality 100.0 %
Test CRC C608E96E
Copy CRC C608E96E
Accurately ripped (confidence 1) [2931C8FC] (AR v1)
Copy OK

Track 5

Filename C:\Music\Ludovico Einaudi - Intouchables (2011) [FLAC] {Edition Prestige}\05 The Ghetto.wav

Peak level 80.1 %
Extraction speed 2.4 X
Track quality 99.9 %
Test CRC E0B4C125
Copy CRC E0B4C125
Accurately ripped (confidence 1) [3C4B6179] (AR v1)
Copy OK

Track 6

Filename C:\Music\Ludovico Einaudi - Intouchables (2011) [FLAC] {Edition Prestige}\06 L'Arbre Qui Chante.wav

Pre-gap length 0:00:00.12

Peak level 97.7 %
Extraction speed 1.8 X
Track quality 100.0 %
Test CRC C194B80A
Copy CRC C194B80A
Accurately ripped (confidence 1) [4B1387C5] (AR v1)
Copy OK

Track 7

Filename C:\Music\Ludovico Einaudi - Intouchables (2011) [FLAC] {Edition Prestige}\07 You're Goin' Miss Your Candyman.wav

Pre-gap length 0:00:00.02

Peak level 97.7 %
Extraction speed 3.3 X
Track quality 100.0 %
Test CRC 9C514C9B
Copy CRC 9C514C9B
Accurately ripped (confidence 1) [72543764] (AR v1)
Copy OK

Track 8

Filename C:\Music\Ludovico Einaudi - Intouchables (2011) [FLAC] {Edition Prestige}\08 Blind Test.wav

Peak level 97.7 %
Extraction speed 2.8 X
Track quality 100.0 %
Test CRC 9136D565
Copy CRC 9136D565
Accurately ripped (confidence 1) [8D56F1AC] (AR v1)
Copy OK

Track 9

Filename C:\Music\Ludovico Einaudi - Intouchables (2011) [FLAC] {Edition Prestige}\09 Boogie Wonderland (Feat. The Emotions).wav

Pre-gap length 0:00:00.11

Peak level 97.7 %
Extraction speed 3.4 X
Track quality 100.0 %
Test CRC 07C8E917
Copy CRC 07C8E917
Accurately ripped (confidence 1) [3FD7B391] (AR v1)
Copy OK

Track 10

Filename C:\Music\Ludovico Einaudi - Intouchables (2011) [FLAC] {Edition Prestige}\10 L'Origine Nascosta.wav

Pre-gap length 0:00:00.12

Peak level 97.7 %
Extraction speed 3.3 X
Track quality 100.0 %
Test CRC E1461FCE
Copy CRC E1461FCE
Accurately ripped (confidence 1) [311D148A] (AR v1)
Copy OK

Track 11

Filename C:\Music\Ludovico Einaudi - Intouchables (2011) [FLAC] {Edition Prestige}\11 Feeling Good.wav

Pre-gap length 0:00:00.01

Peak level 77.8 %
Extraction speed 3.3 X
Track quality 100.0 %
Test CRC 0AE670EA
Copy CRC 0AE670EA
Accurately ripped (confidence 1) [86339838] (AR v1)
Copy OK

Track 12

Filename C:\Music\Ludovico Einaudi - Intouchables (2011) [FLAC] {Edition Prestige}\12 Cache-Cache.wav

Pre-gap length 0:00:00.12

Peak level 81.5 %
Extraction speed 3.6 X
Track quality 100.0 %
Test CRC 902D23E1
Copy CRC 902D23E1
Accurately ripped (confidence 1) [6C8A631F] (AR v1)
Copy OK

Track 13

Filename C:\Music\Ludovico Einaudi - Intouchables (2011) [FLAC] {Edition Prestige}\13 Vivaldi- Concerto Pour 2 Violons & Orchestre).wav

Pre-gap length 0:00:00.12

Peak level 97.7 %
Extraction speed 3.6 X
Track quality 100.0 %
Test CRC 1B136E7D
Copy CRC 1B136E7D
Accurately ripped (confidence 1) [0CD2695C] (AR v1)
Copy OK

Track 14

Filename C:\Music\Ludovico Einaudi - Intouchables (2011) [FLAC] {Edition Prestige}\14 Una Mattina.wav

Pre-gap length 0:00:00.12

Peak level 97.7 %
Extraction speed 4.2 X
Track quality 100.0 %
Test CRC B2909DC0
Copy CRC B2909DC0
Accurately ripped (confidence 1) [82B2BD12] (AR v1)
Copy OK

Track 15

Filename C:\Music\Ludovico Einaudi - Intouchables (2011) [FLAC] {Edition Prestige}\15 Red Light.wav

Pre-gap length 0:00:00.11

Peak level 39.9 %
Extraction speed 4.1 X
Track quality 100.0 %
Test CRC B2EF9E89
Copy CRC B2EF9E89
Accurately ripped (confidence 1) [CD9B6F19] (AR v1)
Copy OK


All tracks accurately ripped

No errors occurred

End of status report

–– CUETools DB Plugin V2.1.3

[CTDB TOCID: l8FwvTVpX597PR5lvRhudSof7mA-] disk not present in database, Submit result: l8FwvTVpX597PR5lvRhudSof7mA- has been uploaded


––––––––––––––––––––––––––––––

Exact Audio Copy V1.0 beta 3 from 29. August 2011

EAC extraction logfile from 11. February 2012, 12:51

Ludovico Einaudi / Intouchables

Used drive : MATSHITABD-MLT UJ230AS Adapter: 0 ID: 0

Read mode : Secure
Utilize accurate stream : Yes
Defeat audio cache : Yes
Make use of C2 pointers : No

Read offset correction : 102
Overread into Lead-In and Lead-Out : No
Fill up missing offset samples with silence : Yes
Delete leading and trailing silent blocks : No
Null samples used in CRC calculations : Yes
Used interface : Native Win32 interface for Win NT & 2000
Gap handling : Not detected, thus appended to previous track

Used output format : User Defined Encoder
Selected bitrate : 768 kBit/s
Quality : High
Add ID3 tag : No
Command line compressor : C:\Program Files\Exact Audio Copy\FLAC\FLAC.EXE
Additional command line options : -6 -V -T "ARTIST=%artist%" -T "TITLE=%title%" -T "ALBUM=%albumtitle%" -T "DATE=%year%" -T "TRACKNUMBER=%tracknr%" -T "GENRE=%genre%" -T "COMMENT=%comment%" -T "BAND=%albuminterpret%" -T "ALBUMARTIST=%albuminterpret%" -T "COMPOSER=%composer%" %haslyrics%–tag-from-file=LYRICS="%lyricsfile%"%haslyrics% -T "DISCNUMBER=%cdnumber%" -T "TOTALDISCS=%totalcds%" -T "TOTALTRACKS=%numtracks%" %hascover%–picture="%coverfile%"%hascover% %source% -o %dest%


TOC of the extracted CD

Track | Start | Length | Start sector | End sector
––––––––––––––––––––––––––––-
1 | 0:00.00 | 3:20.41 | 0 | 15040
2 | 3:20.41 | 3:33.14 | 15041 | 31029
3 | 6:53.55 | 1:08.70 | 31030 | 36199
4 | 8:02.50 | 4:09.46 | 36200 | 54920
5 | 12:12.21 | 4:57.48 | 54921 | 77243
6 | 17:09.69 | 1:01.01 | 77244 | 81819
7 | 18:10.70 | 7:18.39 | 81820 | 114708
8 | 25:29.34 | 2:21.64 | 114709 | 125347
9 | 27:51.23 | 4:45.10 | 125348 | 146732
10 | 32:36.33 | 3:12.63 | 146733 | 161195
11 | 35:49.21 | 2:53.12 | 161196 | 174182
12 | 38:42.33 | 3:51.14 | 174183 | 191521
13 | 42:33.47 | 3:21.02 | 191522 | 206598
14 | 45:54.49 | 6:41.70 | 206599 | 236743
15 | 52:36.44 | 4:29.17 | 236744 | 256935


Track 1

Filename C:\Music\Ludovico Einaudi - Intouchables (2011) [FLAC] {Edition Prestige}\01 Fly.wav

Peak level 94.7 %
Extraction speed 1.4 X
Track quality 100.0 %
Copy CRC 93062D58
Accurately ripped (confidence 1) [6371119B] (AR v1)
Copy OK

Track 2

Filename C:\Music\Ludovico Einaudi - Intouchables (2011) [FLAC] {Edition Prestige}\02 September.wav

Peak level 97.7 %
Extraction speed 1.5 X
Track quality 100.0 %
Copy CRC 90E9B60E
Accurately ripped (confidence 1) [902E1FE0] (AR v1)
Copy OK

Track 3

Filename C:\Music\Ludovico Einaudi - Intouchables (2011) [FLAC] {Edition Prestige}\03 Des Références….wav

Peak level 74.2 %
Extraction speed 1.2 X
Track quality 100.0 %
Copy CRC 186544AC
Accurately ripped (confidence 1) [775B2B87] (AR v1)
Copy OK

Track 4

Filename C:\Music\Ludovico Einaudi - Intouchables (2011) [FLAC] {Edition Prestige}\04 Writing Poems.wav

Peak level 97.7 %
Extraction speed 1.8 X
Track quality 100.0 %
Copy CRC C608E96E
Accurately ripped (confidence 1) [2931C8FC] (AR v1)
Copy OK

Track 5

Filename C:\Music\Ludovico Einaudi - Intouchables (2011) [FLAC] {Edition Prestige}\05 The Ghetto.wav

Peak level 80.1 %
Extraction speed 2.0 X
Track quality 100.0 %
Copy CRC E0B4C125
Accurately ripped (confidence 1) [3C4B6179] (AR v1)
Copy OK

Track 6

Filename C:\Music\Ludovico Einaudi - Intouchables (2011) [FLAC] {Edition Prestige}\06 L'Arbre Qui Chante.wav

Peak level 97.7 %
Extraction speed 1.4 X
Track quality 100.0 %
Copy CRC C194B80A
Accurately ripped (confidence 1) [4B1387C5] (AR v1)
Copy OK

Track 7

Filename C:\Music\Ludovico Einaudi - Intouchables (2011) [FLAC] {Edition Prestige}\07 You're Goin' Miss Your Candyman.wav

Peak level 97.7 %
Extraction speed 2.3 X
Track quality 100.0 %
Copy CRC 9C514C9B
Accurately ripped (confidence 1) [72543764] (AR v1)
Copy OK

Track 8

Filename C:\Music\Ludovico Einaudi - Intouchables (2011) [FLAC] {Edition Prestige}\08 Blind Test.wav

Peak level 97.7 %
Extraction speed 2.0 X
Track quality 100.0 %
Copy CRC 9136D565
Accurately ripped (confidence 1) [8D56F1AC] (AR v1)
Copy OK

Track 9

Filename C:\Music\Ludovico Einaudi - Intouchables (2011) [FLAC] {Edition Prestige}\09 Boogie Wonderland (Feat. The Emotions).wav

Peak level 97.7 %
Extraction speed 2.4 X
Track quality 100.0 %
Copy CRC 07C8E917
Accurately ripped (confidence 1) [3FD7B391] (AR v1)
Copy OK

Track 10

Filename C:\Music\Ludovico Einaudi - Intouchables (2011) [FLAC] {Edition Prestige}\10 L'Origine Nascosta.wav

Peak level 97.7 %
Extraction speed 2.4 X
Track quality 100.0 %
Copy CRC E1461FCE
Accurately ripped (confidence 1) [311D148A] (AR v1)
Copy OK

Track 11

Filename C:\Music\Ludovico Einaudi - Intouchables (2011) [FLAC] {Edition Prestige}\11 Feeling Good.wav

Peak level 77.8 %
Extraction speed 2.4 X
Track quality 100.0 %
Copy CRC 0AE670EA
Accurately ripped (confidence 1) [86339838] (AR v1)
Copy OK

Track 12

Filename C:\Music\Ludovico Einaudi - Intouchables (2011) [FLAC] {Edition Prestige}\12 Cache-Cache.wav

Peak level 81.5 %
Extraction speed 2.6 X
Track quality 100.0 %
Copy CRC 902D23E1
Accurately ripped (confidence 1) [6C8A631F] (AR v1)
Copy OK

Track 13

Filename C:\Music\Ludovico Einaudi - Intouchables (2011) [FLAC] {Edition Prestige}\13 Vivaldi- Concerto Pour 2 Violons & Orchestre).wav

Peak level 97.7 %
Extraction speed 2.6 X
Track quality 100.0 %
Copy CRC 1B136E7D
Accurately ripped (confidence 1) [0CD2695C] (AR v1)
Copy OK

Track 14

Filename C:\Music\Ludovico Einaudi - Intouchables (2011) [FLAC] {Edition Prestige}\14 Una Mattina.wav

Peak level 97.7 %
Extraction speed 2.9 X
Track quality 100.0 %
Copy CRC B2909DC0
Accurately ripped (confidence 1) [82B2BD12] (AR v1)
Copy OK

Track 15

Filename C:\Music\Ludovico Einaudi - Intouchables (2011) [FLAC] {Edition Prestige}\15 Red Light.wav

Peak level 39.9 %
Extraction speed 2.6 X
Track quality 99.9 %
Copy CRC B2EF9E89
Accurately ripped (confidence 1) [CD9B6F19] (AR v1)
Copy OK


All tracks accurately ripped

No errors occurred

End of status report

–– CUETools DB Plugin V2.1.3

[CTDB TOCID: l8FwvTVpX597PR5lvRhudSof7mA-] found, Submit result: already submitted
[638d13d2] (1/1) Accurately ripped


==== Log checksum 9B72928BD6AAD1A4C8E35A3B8FC5FC48A65039B7CBAB81B7BAB93A9449D2738C ====

––––––––––––––––––––––––––––––

Exact Audio Copy V1.0 beta 3 from 29. August 2011

EAC extraction logfile from 11. February 2012, 13:48

Ludovico Einaudi / Intouchables

Used drive : MATSHITABD-MLT UJ230AS Adapter: 0 ID: 0

Read mode : Secure
Utilize accurate stream : Yes
Defeat audio cache : Yes
Make use of C2 pointers : No

Read offset correction : 102
Overread into Lead-In and Lead-Out : No
Fill up missing offset samples with silence : Yes
Delete leading and trailing silent blocks : No
Null samples used in CRC calculations : Yes
Used interface : Native Win32 interface for Win NT & 2000
Gap handling : Appended to previous track

Used output format : User Defined Encoder
Selected bitrate : 768 kBit/s
Quality : High
Add ID3 tag : No
Command line compressor : C:\Program Files\Exact Audio Copy\FLAC\FLAC.EXE
Additional command line options : -6 -V -T "ARTIST=%artist%" -T "TITLE=%title%" -T "ALBUM=%albumtitle%" -T "DATE=%year%" -T "TRACKNUMBER=%tracknr%" -T "GENRE=%genre%" -T "COMMENT=%comment%" -T "BAND=%albuminterpret%" -T "ALBUMARTIST=%albuminterpret%" -T "COMPOSER=%composer%" %haslyrics%–tag-from-file=LYRICS="%lyricsfile%"%haslyrics% -T "DISCNUMBER=%cdnumber%" -T "TOTALDISCS=%totalcds%" -T "TOTALTRACKS=%numtracks%" %hascover%–picture="%coverfile%"%hascover% %source% -o %dest%


TOC of the extracted CD

Track | Start | Length | Start sector | End sector
––––––––––––––––––––––––––––-
1 | 0:00.00 | 3:20.41 | 0 | 15040
2 | 3:20.41 | 3:33.14 | 15041 | 31029
3 | 6:53.55 | 1:08.70 | 31030 | 36199
4 | 8:02.50 | 4:09.46 | 36200 | 54920
5 | 12:12.21 | 4:57.48 | 54921 | 77243
6 | 17:09.69 | 1:01.01 | 77244 | 81819
7 | 18:10.70 | 7:18.39 | 81820 | 114708
8 | 25:29.34 | 2:21.64 | 114709 | 125347
9 | 27:51.23 | 4:45.10 | 125348 | 146732
10 | 32:36.33 | 3:12.63 | 146733 | 161195
11 | 35:49.21 | 2:53.12 | 161196 | 174182
12 | 38:42.33 | 3:51.14 | 174183 | 191521
13 | 42:33.47 | 3:21.02 | 191522 | 206598
14 | 45:54.49 | 6:41.70 | 206599 | 236743
15 | 52:36.44 | 4:29.17 | 236744 | 256935


Track 1

Filename C:\Music\Ludovico Einaudi - Intouchables (2011) [FLAC] {Edition Prestige}\01 Fly.wav

Pre-gap length 0:00:02.00

Peak level 94.7 %
Extraction speed 1.4 X
Track quality 100.0 %
Test CRC 93062D58
Copy CRC 93062D58
Accurately ripped (confidence 1) [6371119B] (AR v1)
Copy OK

Track 2

Filename C:\Music\Ludovico Einaudi - Intouchables (2011) [FLAC] {Edition Prestige}\02 September.wav

Pre-gap length 0:00:00.12

Peak level 97.7 %
Extraction speed 1.5 X
Track quality 100.0 %
Test CRC 90E9B60E
Copy CRC 90E9B60E
Accurately ripped (confidence 1) [902E1FE0] (AR v1)
Copy OK

Track 3

Filename C:\Music\Ludovico Einaudi - Intouchables (2011) [FLAC] {Edition Prestige}\03 Des Références….wav

Pre-gap length 0:00:00.12

Peak level 74.2 %
Extraction speed 1.2 X
Track quality 100.0 %
Test CRC 186544AC
Copy CRC 186544AC
Accurately ripped (confidence 1) [775B2B87] (AR v1)
Copy OK

Track 4

Filename C:\Music\Ludovico Einaudi - Intouchables (2011) [FLAC] {Edition Prestige}\04 Writing Poems.wav

Pre-gap length 0:00:00.12

Peak level 97.7 %
Extraction speed 1.8 X
Track quality 100.0 %
Test CRC C608E96E
Copy CRC C608E96E
Accurately ripped (confidence 1) [2931C8FC] (AR v1)
Copy OK

Track 5

Filename C:\Music\Ludovico Einaudi - Intouchables (2011) [FLAC] {Edition Prestige}\05 The Ghetto.wav

Peak level 80.1 %
Extraction speed 2.0 X
Track quality 100.0 %
Test CRC E0B4C125
Copy CRC E0B4C125
Accurately ripped (confidence 1) [3C4B6179] (AR v1)
Copy OK

Track 6

Filename C:\Music\Ludovico Einaudi - Intouchables (2011) [FLAC] {Edition Prestige}\06 L'Arbre Qui Chante.wav

Pre-gap length 0:00:00.12

Peak level 97.7 %
Extraction speed 1.4 X
Track quality 100.0 %
Test CRC C194B80A
Copy CRC C194B80A
Accurately ripped (confidence 1) [4B1387C5] (AR v1)
Copy OK

Track 7

Filename C:\Music\Ludovico Einaudi - Intouchables (2011) [FLAC] {Edition Prestige}\07 You're Goin' Miss Your Candyman.wav

Pre-gap length 0:00:00.02

Peak level 97.7 %
Extraction speed 2.3 X
Track quality 100.0 %
Test CRC 9C514C9B
Copy CRC 9C514C9B
Accurately ripped (confidence 1) [72543764] (AR v1)
Copy OK

Track 8

Filename C:\Music\Ludovico Einaudi - Intouchables (2011) [FLAC] {Edition Prestige}\08 Blind Test.wav

Pre-gap length 0:00:00.11

Peak level 97.7 %
Extraction speed 2.0 X
Track quality 100.0 %
Test CRC 9136D565
Copy CRC 9136D565
Accurately ripped (confidence 1) [8D56F1AC] (AR v1)
Copy OK

Track 9

Filename C:\Music\Ludovico Einaudi - Intouchables (2011) [FLAC] {Edition Prestige}\09 Boogie Wonderland (Feat. The Emotions).wav

Pre-gap length 0:00:00.11

Peak level 97.7 %
Extraction speed 2.4 X
Track quality 100.0 %
Test CRC 07C8E917
Copy CRC 07C8E917
Accurately ripped (confidence 1) [3FD7B391] (AR v1)
Copy OK

Track 10

Filename C:\Music\Ludovico Einaudi - Intouchables (2011) [FLAC] {Edition Prestige}\10 L'Origine Nascosta.wav

Pre-gap length 0:00:00.13

Peak level 97.7 %
Extraction speed 2.4 X
Track quality 100.0 %
Test CRC E1461FCE
Copy CRC E1461FCE
Accurately ripped (confidence 1) [311D148A] (AR v1)
Copy OK

Track 11

Filename C:\Music\Ludovico Einaudi - Intouchables (2011) [FLAC] {Edition Prestige}\11 Feeling Good.wav

Pre-gap length 0:00:00.12

Peak level 77.8 %
Extraction speed 2.4 X
Track quality 100.0 %
Test CRC 0AE670EA
Copy CRC 0AE670EA
Accurately ripped (confidence 1) [86339838] (AR v1)
Copy OK

Track 12

Filename C:\Music\Ludovico Einaudi - Intouchables (2011) [FLAC] {Edition Prestige}\12 Cache-Cache.wav

Pre-gap length 0:00:00.12

Peak level 81.5 %
Extraction speed 2.6 X
Track quality 100.0 %
Test CRC 902D23E1
Copy CRC 902D23E1
Accurately ripped (confidence 1) [6C8A631F] (AR v1)
Copy OK

Track 13

Filename C:\Music\Ludovico Einaudi - Intouchables (2011) [FLAC] {Edition Prestige}\13 Vivaldi- Concerto Pour 2 Violons & Orchestre).wav

Pre-gap length 0:00:00.12

Peak level 97.7 %
Extraction speed 2.6 X
Track quality 100.0 %
Test CRC 1B136E7D
Copy CRC 1B136E7D
Accurately ripped (confidence 1) [0CD2695C] (AR v1)
Copy OK

Track 14

Filename C:\Music\Ludovico Einaudi - Intouchables (2011) [FLAC] {Edition Prestige}\14 Una Mattina.wav

Pre-gap length 0:00:00.12

Peak level 97.7 %
Extraction speed 2.9 X
Track quality 100.0 %
Test CRC B2909DC0
Copy CRC B2909DC0
Accurately ripped (confidence 1) [82B2BD12] (AR v1)
Copy OK

Track 15

Filename C:\Music\Ludovico Einaudi - Intouchables (2011) [FLAC] {Edition Prestige}\15 Red Light.wav

Pre-gap length 0:00:00.12

Peak level 39.9 %
Extraction speed 2.6 X
Track quality 99.9 %
Test CRC B2EF9E89
Copy CRC B2EF9E89
Accurately ripped (confidence 1) [CD9B6F19] (AR v1)
Copy OK


All tracks accurately ripped

No errors occurred

End of status report

–– CUETools DB Plugin V2.1.3

[CTDB TOCID: l8FwvTVpX597PR5lvRhudSof7mA-] found, Submit result: already submitted
[638d13d2] (1/1) Accurately ripped


==== Log checksum CBC9BBF5562DE0B7D4937515E3197814C2B505247E84A21B0B15D44F2051784A ====

foobar2000 1.2.1 / Dynamic Range Meter 1.1.1
log date: 2013-01-20 12:20:43

––––––––––––––––––––––––––––––––––––––––
Analyzed: Angelicum De Milan / Intouchables (1)
Earth, Wind & Fire / Intouchables (2-4)
George Benson / Intouchables (5)
Ludovico Einaudi / Intouchables (6-10)
Nina Simone / Intouchables (11)
Omar Sy, François Cluzet, Audrey Fleurot / Intouchables (12-14)
Vib Gyor / Intouchables (15)
––––––––––––––––––––––––––––––––––––––––

DR Peak RMS Duration Track
––––––––––––––––––––––––––––––––––––––––
DR11 -0.20 dB -15.54 dB 3:21 13-Vivaldi: Concerto Pour 2 Violons & Orchestre)
DR13 -0.20 dB -14.73 dB 3:33 02-September
DR11 -0.20 dB -14.05 dB 7:19 07-You're Goin' Miss Your Candyman
DR14 -0.20 dB -15.72 dB 4:45 09-Boogie Wonderland (Feat. The Emotions)
DR10 -1.93 dB -13.52 dB 4:58 05-The Ghetto
DR10 -0.47 dB -14.54 dB 3:21 01-Fly
DR14 -0.20 dB -18.84 dB 4:10 04-Writing Poems
DR11 -0.20 dB -16.88 dB 3:13 10-L'Origine Nascosta
DR11 -1.77 dB -17.25 dB 3:51 12-Cache-Cache
DR12 -0.20 dB -17.16 dB 6:42 14-Una Mattina
DR8 -2.17 dB -13.29 dB 2:53 11-Feeling Good
DR15 -2.59 dB -21.15 dB 1:09 03-Des Références…
DR12 -0.20 dB -16.66 dB 1:01 06-L'Arbre Qui Chante
DR13 -0.20 dB -16.51 dB 2:22 08-Blind Test
DR4 -7.97 dB -13.28 dB 4:29 15-Red Light
––––––––––––––––––––––––––––––––––––––––

Number of tracks: 15
Official DR value: DR11

Samplerate: 44100 Hz
Channels: 2
Bits per sample: 16
Bitrate: 889 kbps
Codec: FLAC
================================================================================

Ludovico Einaudi & VA - Intouchables: La Bande Originale Du Film (Original Soundtrack) (2011) [Re-Up]

All thanks to original releaser - Algo

More interesting music in My Blog


NitroFlare:

IntouchOST.FLAC.rar

IntouchOST.mp3.rar

Password: designol