Subcategories

Ludwig Guttler Edition (2015) (25CDs Box Set)

Posted By: murena
Ludwig Guttler Edition (2015) (25CDs Box Set)

Ludwig Guttler Edition (2015) (25CDs Box Set)
EAC Rip | FLAC (Image+.cue, log) | 25 CDs, 25 h 50 min | Covers included | 6,96 Gb
Genre: Classical / Label: Berlin Classics

The renowned trumpeter and conductor Ludwig Güttler presents, together with his Virtuosi Saxoniae ensemble, a unique musical compendium of the Dresden Baroque era. The series embarks on a journey of discovery in search of the vast musical diversity of that time: compositions by Bach, Telemann, Vivaldi, Zelenka and many more can be heard in new artistic splendour.

Star trumpeter and conductor Ludwig Güttler founded the Virtuosi Saxoniae, principally from members of the Dresden Staatskapelle, in 1985. It is thirty years, therefore, since he created an ensemble that has since then presented the works of 18th-century European music as it was heard in the chapel and at the theatre of the court of Saxony. True, the ensemble performs on modern instruments, but its performance practice is true to its historical antecedents.

This anniversary has prompted the Berlin Classics label to release a Ludwig Güttler Edition on a scale never offered before. It essentially brings together the whole series of recordings that Ludwig Güttler made with his Virtuosi in the years after the fall of the Berlin Wall. The history of music in Dresden understandably provides the core repertoire.

Ludwig Guttler Edition (2015) (25CDs Box Set)


CDs:
CD 1: Messe g-Moll - Johann Adolf Hasse
CD 2: Laudate pueri - Kantaten - Ariosti, Fux, Heinichen, Scarlatti, Zelenka
CD 3: Musik für Trompete, Corno da caccia & Posthorn - Baer, Fasch, Hertel, Molter, Johann Ernst Prinz von Sachsen-
CD 4: Weihnachtsoratorium - Johann Sebastian Bach
CD 5: Weihnachtsoratorium - Johann Sebastian Bach
CD 6: Weihnachtsoratorium - Johann Sebastian Bach
CD 7: Konzertante Oboenmusik des Barock - J. S. Bach, Hertel, Pisendel, Telemann, Vivaldi
CD 8: Miserere, Salve Regina, Te Deum - Johann Adolf Hesse
CD 9: Bach anders - Konzerte von Johann Sebastian Bach
CD 10: Orchestersuiten - Johann Sebastian Bach
CD 11: Solokantaten - Johann Sebastian Bach
CD 12: Konzerte & Kantaten - Johann Sebastian Bach
CD 13: Kantaten, Arien & Motetten - J. S. Bach, C. Ph. E. Bach, W. F. Bach, J. C. Bach
CD 14 - 15: Brandenburgische Konzerte - Johann Sebastian Bach
CD 16 - 17: Johannes-Passion - Johann Sebastian Bach
CD 18: Concerti per l'Orchestra di Dresda - Fasch, Graun, Heinichen, Telemann, Vivaldi
CD 19: Sinfonia e Concerti - Pisendel, Telemann
CD 20: Konzerte für den kursächsischen Hof - Antonio Vivaldi
CD 21: Concerti a diversi concertanti - Quantz, Telemann, Vivaldi, Zelenka
CD 22: Capriccios & Psalmen - Jan Dismas Zelenka
CD 23: Missa Dei Patris - Jan Dismas Zelenka
CD24: Das Corno da caccia - Baer, Fasch, Neruda, Röllig, Zelenka
CD 25: Violinkonzerte des Barock - Graun, Pisendel, Telemann, Vivaldi

CD 1: Messe g-Moll - Johann Adolf Hasse
01. Kyrie eleison
02. Christe eleison
03. Kyrie eleison
04. Gloria in excelsis Deo
05. Gratias agimus tibi
06. Domine Deus, Rex caelestis
07. Domine Fili unigenite
08. Domine Deus
09. Qui tollis peccata mundi
10. Quoniam tu solus sanctus
11. Cum Sancto Spiritu
12. Credo in unum Deum
13. Et incarnatus est
14. Crucifixus etiam pro nobis
15. Et resurrexit tertia die
16. Ad te levavi animam meam
17. Sanctus
18. Benedictus
19. Hosanna in excelsis
20. Agnus Dei

CD 2: Laudate pueri - Kantaten - Ariosti, Fux, Heinichen, Scarlatti, Zelenka
01. Laudate pueri
02. Quis sicut Dominus
03. Amen
04. O quam suavis est
05. Panem quem coelum dat
06. Sinfonia
07. Su le sponde del Tebro
08. Sinfonia
09. Contentatevi
10. Mesto, stanco e spirante
11. Infelici miei lumi
12. Dite almeno
13. Ritornell
14. All'aura
15. Tralascia pur di piangere
16. Incipit lamentation Jeremiae prophetae. Aleph.
17. Beth. Plorans ploravit in nocte
18. Ghimel. Migravit Judas
19. Daleth. Viae Sion lugent
20. Facti sunt hostes Jerusalem convertere ad Dominum
21. Plaudite, sonat tuba - Mors quae superba - Plaudite, sonat tuba
22. Dum exultat de morte Salvator
23. Mortales, vicit Leo de tribu Juda
24. O! Peccator gaude
25. Alleluja!

CD 3: Musik für Trompete, Corno da caccia & Posthorn - Baer, Fasch, Hertel, Molter, Johann Ernst Prinz von Sachsen-Weimar, Telemann
01. 1. Ouverture
02. Marche 2. 2. Marche
03. 3. Menuet alternativement 1 und 2
04. 4. Aria
05. 5. La Réjouissance
06. 6. Sarabande
07. 7. Gigue
08. 8. Passepied alternativement 1 und 2
09. 9. Rondeau
10. 1. Allegro
11. 2. Largo
12. 3. Allegro
13. 1. Allegro ma non troppo
14. 2. Largo
15. 3. Vivace
16. 1. Allegro
17. 2. Aria
18. 3. Menuett
19. 4. Siciliano
20. 5. Badinerie
21. 6. Gigue
22. 1. Vivace
23. 2. Largo
24. 3. Allegro
25. 4. Adagio
26. 5. Menuett
27. 1. Allegro
28. 2. Andante
29. 3. Allegro

CD 4: Weihnachtsoratorium - Johann Sebastian Bach
01. Chor: Jauchzet, frohlocket, auf, preiset die Tage (1. Teil)
02. Rezitativ: Es begab sich aber zu der Zeit
03. Accompagnato: Nun wird mein liebster Bräutigam
04. Arie: Bereite dich, Zion, mit zärtlichen Trieben
05. Choral: Wie soll ich dich empfangen

06. Rezitativ: Und sie gebar ihren ersten Sohn
07. Choral: Er ist auf Erden kommen arm - Rezitativ: Wer will die Erde recht erhöhn
08. Arie: Großer Herr, o starker König
09. Choral: Ach mein herzliebes Jesulein
10. Sinfonia (2. Teil)
11. Rezitativ: Und es waren Hirten in derselben Gegend
12. Choral: Brich an, o schönes Morgenlicht
13. Rezitativ: Und der Engel sprach zu ihnen - Fürchtet euch nicht
14. Rezitativ: Was Gott dem Abraham verheissen
15. Arie: Frohe Hirten, eilt, ach eilet
16. Rezitativ: Und das habt zum Zeichen
17. Choral: Schaut hin, dort liegt im finstren Stall
18. Rezitativ: So geht nun hin
19. Arie: Schlafe, mein Liebster, genieße der Ruh
20. Rezitativ: Und alsobald war da bei dem Engel
21. Chor: Ehre sei Gott in der Höhe
22. Rezitativ: So recht, ihr Engel, jauchzt und singet
23. Choral: Wir singen dir in deinem Heer

CD 5: Weihnachtsoratorium - Johann Sebastian Bach
01. Chor: Herrscher des Himmels (3. Teil)
02. Rezitativ: Und da die Engel von ihnen gen Himmel fuhren
03. Chor: Lasset uns nun gehen gen Bethlehem
04. Rezitativ: Er hat sein Volk getröst
05. Choral: Dies hat er alles uns getan
06. Duett: Herr, dein Mitleid, dein Erbarmen
07. Rezitativ: Und sie kamen eilend
08. Arie: Schließe, mein Herz, dies selige Wunder
09. Rezitativ: Ja, ja, mein Herz soll es bewahren
10. Choral: Ich will dich mit Fleiß bewahren
11. Rezitativ: Und die Hirten kehrten wieder um
12. Choral: Seid froh dieweil
13. Chor: Herrscher des Himmels
14. Chor: Fallt mit Danken, fallt mit Loben (4. Teil)
15. Rezitativ: Und da acht Tage um waren
16. Rezitativ: Immanuel, o süßes Wort - Choral: Jesu, du mein liebstes Leben
17. Arie: Flößt mein Heiland, flößt mein Namen
18. Rezitativ: Wohlan, dein Name soll sein - Choral: Jesu, dein Freud und Wonne
19. Arie: Ich will nur dir zu Ehren leben
20. Choral: Jesus, richte mein Beginnen

CD 6: Weihnachtsoratorium - Johann Sebastian Bach
1. Chor: Ehre sei dir, Gott, gesungen (5. Teil)
02. Rezitativ: Da Jesus geboren war zu Bethlehem
03. Chor: Wo ist der neugeborne König der Jüden - Rezitativ: Sucht ihn in meiner Brust
04. Choral: Dein Glanz all Finsternis verzehrt
05. Arie: Erleucht auch meine finstre Sinnen
06. Rezitativ: Da das der König Herodes hörte
07. Accompagnato: Warum wollt ihr erschrecken
08. Rezitativ: Und ließ versammeln alle Hohepriester
09. Terzett: Ach, wann wird die Zeit erscheinen
10. Rezitativ: Mein Liebster herrschet schon
11. Choral: Zwar ist solche Herzensstube
12. Chor: Herr, wenn die stolzen Feinde schnauben (6. Teil)
13. Rezitativ: Da berief Herodes die Weisen heimlich - Ziehet hin und forschet fleißig
14. Rezitativ: Du Falscher, suche nur den Herrn zu fällen
15. Arie: Nur ein Wink von seinen Händen
16. Rezitativ: Als sie nun den König gehöret hatten
17. Choral: Ich steh an deiner Krippen hier
18. Rezitativ: Und Gott befahl ihnen im Traum
19. Rezitativ: So geht! Genug, mein Schatz geht nicht von hier
20. Arie: Nun mögt ihr stolzen Feinde schrecken
21. Rezitativ: Was will der Hölle Schrecken nun
22. Choral: Nun seid ihr wohl gerochen
23. Chor: Gloria in excelsis Deo
24. Duett: Gloria Patri et Filio
25. Chor: Sicut erat in principio

CD 7: Konzertante Oboenmusik des Barock - J. S. Bach, Hertel, Pisendel, Telemann, Vivaldi
01. 1. (ohne Satzbezeichnung)
02. 2. Larghetto
03. 3. Allegro ma non tanto
04. 1. Allegro
05. 2. Adagio non molto
06. 3. Allegro
07. 1. Siciliano
08. 2. Allegro
09. 3. Largo
10. 4. Vivace
11. 1. (ohne Satzbezeichnung)
12. 2. Grave
13. 3. Allegro
14. (keine Angaben)
15. 1. Allegro
16. 2. Arioso
17. 3. Allegro

CD 8: Miserere, Salve Regina, Te Deum - Johann Adolf Hesse
01. Miserere mei Deus
02. Tibi soli peccavi
03. Ecce enim
04. Libera me
05. Quoniam si voluisses
06. Benigne fac
07. Gloria Patri
08. Sicut erat - Amen
09. Salve Regina
10. Ad te clamamus
11. Eja ergo
12. Et Jesum
13. Te Deum laudamus
14. Te per orbem
15. Judex ergo
16. Aeterna fac
17. Salvum fac
18. Et rege eos
19. Dignare Domine
20. In te Domine speravi

CD 9: Bach anders - Konzerte von Johann Sebastian Bach
01. 1. Allegro moderato
02. 2. Grave
03. 3. Alla breve
04. 1. Allegro
05. 2. Larghetto
06. 3. Allegro ma non tanto
07. 1. Allegro moderato
08. 2. Grave
09. 3. Alla breve
10. 1. Tempo giusto
11. 2. Adagio
12. 3. Vivace

CD 10: Orchestersuiten - Johann Sebastian Bach
01. 1. Ouverture
02. 2. Courante
03. 3. Gavotte 1 - Gavotte 2
04. 4. Forlane
05. 5. Menuet 1 - Menuet 2
06. 6. Bourrée 1 - Bourrée 2
07. 7. Passepied 1 - Passepied 2
08. 1. Ouverture
09. 2. Rondeau
10. 3. Sarabande
11. 4. Bourrée 1 - Bourrée 2
12. 5. Polonaise 1 - Polonaise 2
13. 6. Menuet
14. 7. Badinerie
15. 1. Ouverture
16. 2. Air
17. 3. Gavotte 1 - Gavotte 2
18. 4. Bourrée
19. 5. Gigue
20. 1. Ouverture
21. 2. Bourrée 1 - Bourrée 2
22. 3. Gavotte
23. 4. Menuet 1 - Menuet 2
24. 5. Réjouissance

CD 11: Solokantaten - Johann Sebastian Bach
CD 12: Konzerte & Kantaten - Johann Sebastian Bach
CD 13: Kantaten, Arien & Motetten - J. S. Bach, C. Ph. E. Bach, W. F. Bach, J. C. Bach
CD 14 - 15: Brandenburgische Konzerte - Johann Sebastian Bach
CD 16 - 17: Johannes-Passion - Johann Sebastian Bach
CD 18: Concerti per l'Orchestra di Dresda - Fasch, Graun, Heinichen, Telemann, Vivaldi
CD 19: Sinfonia e Concerti - Pisendel, Telemann
CD 20: Konzerte für den kursächsischen Hof - Antonio Vivaldi
CD 21: Concerti a diversi concertanti - Quantz, Telemann, Vivaldi, Zelenka
CD 22: Capriccios & Psalmen - Jan Dismas Zelenka
CD 23: Missa Dei Patris - Jan Dismas Zelenka
CD24: Das Corno da caccia - Baer, Fasch, Neruda, Röllig, Zelenka
CD 25: Violinkonzerte des Barock - Graun, Pisendel, Telemann, Vivaldi


CD1
Exact Audio Copy V1.1 from 23. June 2015

EAC extraction logfile from 9. April 2018, 16:29

Johann Adolf Hasse; Thüringischer Akademischer Singkreis, Ludwig Güttler / Messe g-moll (1783)

Used drive : PLEXTOR DVDR PX-760A Adapter: 1 ID: 1

Read mode : Secure
Utilize accurate stream : Yes
Defeat audio cache : Yes
Make use of C2 pointers : No

Read offset correction : 30
Overread into Lead-In and Lead-Out : No
Fill up missing offset samples with silence : Yes
Delete leading and trailing silent blocks : No
Null samples used in CRC calculations : Yes
Used interface : Native Win32 interface for Win NT & 2000

Used output format : User Defined Encoder
Selected bitrate : 1024 kBit/s
Quality : High
Add ID3 tag : No
Command line compressor : C:\Program Files (x86)\FLAC\flac.exe
Additional command line options : -5 -V -T "ARTIST=%artist%" -T "TITLE=%title%" -T "ALBUM=%albumtitle%" -T "DATE=%year%" -T "TRACKNUMBER=%tracknr%" -T "GENRE=%genre%" -T "COMMENT=[oStereo.ru]" %source%


TOC of the extracted CD

Track | Start | Length | Start sector | End sector
––––––––––––––––––––––––––––-
1 | 0:00.33 | 2:58.15 | 33 | 13397
2 | 2:58.48 | 4:31.30 | 13398 | 33752
3 | 7:30.03 | 1:54.67 | 33753 | 42369
4 | 9:24.70 | 3:31.43 | 42370 | 58237
5 | 12:56.38 | 1:53.27 | 58238 | 66739
6 | 14:49.65 | 2:22.08 | 66740 | 77397
7 | 17:11.73 | 4:09.05 | 77398 | 96077
8 | 21:21.03 | 2:41.32 | 96078 | 108184
9 | 24:02.35 | 7:57.50 | 108185 | 144009
10 | 32:00.10 | 2:10.58 | 144010 | 153817
11 | 34:10.68 | 2:50.37 | 153818 | 166604
12 | 37:01.30 | 2:23.60 | 166605 | 177389
13 | 39:25.15 | 1:04.18 | 177390 | 182207
14 | 40:29.33 | 2:29.07 | 182208 | 193389
15 | 42:58.40 | 3:05.13 | 193390 | 207277
16 | 46:03.53 | 5:30.37 | 207278 | 232064
17 | 51:34.15 | 1:14.68 | 232065 | 237682
18 | 52:49.08 | 3:36.27 | 237683 | 253909
19 | 56:25.35 | 1:03.73 | 253910 | 258707
20 | 57:29.33 | 5:04.00 | 258708 | 281507


Range status and errors

Selected range

Filename D:\Ludwig Guttler Edition - CD01 - 2015 - Berlin.wav

Peak level 94.7 %
Extraction speed 1.2 X
Range quality 100.0 %
Copy CRC E9ABEBBB
Copy OK

No errors occurred


AccurateRip summary

Track 1 accurately ripped (confidence 10) [255C578A] (AR v2)
Track 2 accurately ripped (confidence 10) [BFF51CAA] (AR v2)
Track 3 accurately ripped (confidence 10) [E159C6EC] (AR v2)
Track 4 accurately ripped (confidence 10) [6BF9E907] (AR v2)
Track 5 accurately ripped (confidence 10) [C2068613] (AR v2)
Track 6 accurately ripped (confidence 10) [2D80BBF4] (AR v2)
Track 7 accurately ripped (confidence 10) [0FAF9F4E] (AR v2)
Track 8 accurately ripped (confidence 10) [19D8CFD0] (AR v2)
Track 9 accurately ripped (confidence 10) [F3FA92FB] (AR v2)
Track 10 accurately ripped (confidence 10) [F7C6F243] (AR v2)
Track 11 accurately ripped (confidence 10) [1032CDE9] (AR v2)
Track 12 accurately ripped (confidence 10) [2531E7EE] (AR v2)
Track 13 accurately ripped (confidence 10) [60876013] (AR v2)
Track 14 accurately ripped (confidence 10) [2108F812] (AR v2)
Track 15 accurately ripped (confidence 10) [1E826139] (AR v2)
Track 16 accurately ripped (confidence 10) [0F892B32] (AR v2)
Track 17 accurately ripped (confidence 10) [17F1D441] (AR v2)
Track 18 accurately ripped (confidence 10) [5EF3367E] (AR v2)
Track 19 accurately ripped (confidence 10) [8F2A1EFF] (AR v2)
Track 20 accurately ripped (confidence 10) [DE759CA0] (AR v2)

All tracks accurately ripped

End of status report

==== Log checksum E1FA2D6309149189654D444525DC2F61E57CCE0466EA24943E5425EAD4FED442 ====


CD2
Exact Audio Copy V1.1 from 23. June 2015

EAC extraction logfile from 9. April 2018, 17:27

Various / Kursächsische Kirchenmusik

Used drive : PLEXTOR DVDR PX-760A Adapter: 1 ID: 1

Read mode : Secure
Utilize accurate stream : Yes
Defeat audio cache : Yes
Make use of C2 pointers : No

Read offset correction : 30
Overread into Lead-In and Lead-Out : No
Fill up missing offset samples with silence : Yes
Delete leading and trailing silent blocks : No
Null samples used in CRC calculations : Yes
Used interface : Native Win32 interface for Win NT & 2000

Used output format : User Defined Encoder
Selected bitrate : 1024 kBit/s
Quality : High
Add ID3 tag : No
Command line compressor : C:\Program Files (x86)\FLAC\flac.exe
Additional command line options : -5 -V -T "ARTIST=%artist%" -T "TITLE=%title%" -T "ALBUM=%albumtitle%" -T "DATE=%year%" -T "TRACKNUMBER=%tracknr%" -T "GENRE=%genre%" -T "COMMENT=[oStereo.ru]" %source%


TOC of the extracted CD

Track | Start | Length | Start sector | End sector
––––––––––––––––––––––––––––-
1 | 0:00.32 | 3:10.58 | 32 | 14339
2 | 3:11.15 | 3:37.72 | 14340 | 30686
3 | 6:49.12 | 1:54.08 | 30687 | 39244
4 | 8:43.20 | 1:05.32 | 39245 | 44151
5 | 9:48.52 | 4:29.08 | 44152 | 64334
6 | 14:17.60 | 1:52.52 | 64335 | 72786
7 | 16:10.37 | 0:57.08 | 72787 | 77069
8 | 17:07.45 | 0:20.45 | 77070 | 78614
9 | 17:28.15 | 2:23.55 | 78615 | 89394
10 | 19:51.70 | 0:39.25 | 89395 | 92344
11 | 20:31.20 | 2:29.20 | 92345 | 103539
12 | 23:00.40 | 2:29.37 | 103540 | 114751
13 | 25:30.02 | 0:33.43 | 114752 | 117269
14 | 26:03.45 | 1:06.62 | 117270 | 122281
15 | 27:10.32 | 1:38.13 | 122282 | 129644
16 | 28:48.45 | 1:01.27 | 129645 | 134246
17 | 29:49.72 | 2:50.68 | 134247 | 147064
18 | 32:40.65 | 1:07.57 | 147065 | 152146
19 | 33:48.47 | 3:19.23 | 152147 | 167094
20 | 37:07.70 | 2:53.70 | 167095 | 180139
21 | 40:01.65 | 2:30.60 | 180140 | 191449
22 | 42:32.50 | 4:46.15 | 191450 | 212914
23 | 47:18.65 | 1:06.55 | 212915 | 217919
24 | 48:25.45 | 3:25.30 | 217920 | 233324
25 | 51:51.00 | 3:51.42 | 233325 | 250691


Range status and errors

Selected range

Filename D:\Ludwig Guttler Edition - CD02 - 2015 - Berlin.wav

Peak level 94.1 %
Extraction speed 1.2 X
Range quality 99.9 %
Copy CRC 7C7295F2
Copy OK

No errors occurred


AccurateRip summary

Track 1 accurately ripped (confidence 3) [35F7A85C] (AR v2)
Track 2 accurately ripped (confidence 3) [51BAAFE4] (AR v2)
Track 3 accurately ripped (confidence 3) [A2D0BE54] (AR v2)
Track 4 accurately ripped (confidence 3) [BF245162] (AR v2)
Track 5 accurately ripped (confidence 3) [8E6735FC] (AR v2)
Track 6 accurately ripped (confidence 3) [8E0AF656] (AR v2)
Track 7 accurately ripped (confidence 3) [60AE3D53] (AR v2)
Track 8 accurately ripped (confidence 3) [AF23C94D] (AR v2)
Track 9 accurately ripped (confidence 3) [CC84FB61] (AR v2)
Track 10 accurately ripped (confidence 3) [EFF6E89C] (AR v2)
Track 11 accurately ripped (confidence 3) [C448F632] (AR v2)
Track 12 accurately ripped (confidence 3) [FD4DA9FA] (AR v2)
Track 13 accurately ripped (confidence 3) [1F358E95] (AR v2)
Track 14 accurately ripped (confidence 3) [9834F74D] (AR v2)
Track 15 accurately ripped (confidence 3) [E8D6B0B5] (AR v2)
Track 16 accurately ripped (confidence 3) [3006D099] (AR v2)
Track 17 accurately ripped (confidence 3) [FD019570] (AR v2)
Track 18 accurately ripped (confidence 3) [A7031B19] (AR v2)
Track 19 accurately ripped (confidence 3) [D4404D4E] (AR v2)
Track 20 accurately ripped (confidence 3) [7EE56D25] (AR v2)
Track 21 accurately ripped (confidence 3) [61388C59] (AR v2)
Track 22 accurately ripped (confidence 3) [7BEDBD4F] (AR v2)
Track 23 accurately ripped (confidence 3) [DE41EF45] (AR v2)
Track 24 accurately ripped (confidence 3) [95D1BAEE] (AR v2)
Track 25 accurately ripped (confidence 3) [DFECAC44] (AR v2)

All tracks accurately ripped

End of status report

==== Log checksum C9F05030D162F7F9559D9CB50438FD18AF619327FF5C18F7D61CDA79BCF6B90C ====


CD3
Exact Audio Copy V1.1 from 23. June 2015

EAC extraction logfile from 9. April 2018, 18:23

Ludwig Guttler / Ludwig Guttler and the Posthorn

Used drive : PLEXTOR DVDR PX-760A Adapter: 1 ID: 1

Read mode : Secure
Utilize accurate stream : Yes
Defeat audio cache : Yes
Make use of C2 pointers : No

Read offset correction : 30
Overread into Lead-In and Lead-Out : No
Fill up missing offset samples with silence : Yes
Delete leading and trailing silent blocks : No
Null samples used in CRC calculations : Yes
Used interface : Native Win32 interface for Win NT & 2000

Used output format : User Defined Encoder
Selected bitrate : 1024 kBit/s
Quality : High
Add ID3 tag : No
Command line compressor : C:\Program Files (x86)\FLAC\flac.exe
Additional command line options : -5 -V -T "ARTIST=%artist%" -T "TITLE=%title%" -T "ALBUM=%albumtitle%" -T "DATE=%year%" -T "TRACKNUMBER=%tracknr%" -T "GENRE=%genre%" -T "COMMENT=[oStereo.ru]" %source%


TOC of the extracted CD

Track | Start | Length | Start sector | End sector
––––––––––––––––––––––––––––-
1 | 0:00.00 | 3:35.10 | 0 | 16134
2 | 3:35.10 | 2:34.25 | 16135 | 27709
3 | 6:09.35 | 2:05.72 | 27710 | 37156
4 | 8:15.32 | 2:13.38 | 37157 | 47169
5 | 10:28.70 | 1:10.15 | 47170 | 52434
6 | 11:39.10 | 1:50.20 | 52435 | 60704
7 | 13:29.30 | 2:19.37 | 60705 | 71166
8 | 15:48.67 | 2:57.03 | 71167 | 84444
9 | 18:45.70 | 0:57.52 | 84445 | 88771
10 | 19:43.47 | 3:05.10 | 88772 | 102656
11 | 22:48.57 | 1:48.40 | 102657 | 110796
12 | 24:37.22 | 2:42.25 | 110797 | 122971
13 | 27:19.47 | 3:12.10 | 122972 | 137381
14 | 30:31.57 | 4:07.48 | 137382 | 155954
15 | 34:39.30 | 2:24.17 | 155955 | 166771
16 | 37:03.47 | 2:12.13 | 166772 | 176684
17 | 39:15.60 | 2:13.52 | 176685 | 186711
18 | 41:29.37 | 1:26.08 | 186712 | 193169
19 | 42:55.45 | 1:34.55 | 193170 | 200274
20 | 44:30.25 | 1:09.17 | 200275 | 205466
21 | 45:39.42 | 1:14.48 | 205467 | 211064
22 | 46:54.15 | 0:58.55 | 211065 | 215469
23 | 47:52.70 | 1:31.15 | 215470 | 222309
24 | 49:24.10 | 1:06.17 | 222310 | 227276
25 | 50:30.27 | 0:49.13 | 227277 | 230964
26 | 51:19.40 | 2:37.60 | 230965 | 242799
27 | 53:57.25 | 1:46.20 | 242800 | 250769
28 | 55:43.45 | 2:44.70 | 250770 | 263139
29 | 58:28.40 | 1:43.35 | 263140 | 270899


Range status and errors

Selected range

Filename D:\Ludwig Guttler Edition - CD03 - 2015 - Berlin.wav

Peak level 98.5 %
Extraction speed 1.2 X
Range quality 100.0 %
Copy CRC C278D840
Copy OK

No errors occurred


AccurateRip summary

Track 1 accurately ripped (confidence 2) [6375A3D7] (AR v2)
Track 2 accurately ripped (confidence 2) [E8A2E5A2] (AR v2)
Track 3 accurately ripped (confidence 2) [7EBAF8B6] (AR v2)
Track 4 accurately ripped (confidence 2) [44C5A3B7] (AR v2)
Track 5 accurately ripped (confidence 2) [5BAB9A9E] (AR v2)
Track 6 accurately ripped (confidence 2) [7A6F0AB4] (AR v2)
Track 7 accurately ripped (confidence 2) [353DA6A1] (AR v2)
Track 8 accurately ripped (confidence 2) [9D3ACAFD] (AR v2)
Track 9 accurately ripped (confidence 2) [1C6EA8B8] (AR v2)
Track 10 accurately ripped (confidence 2) [08A32265] (AR v2)
Track 11 accurately ripped (confidence 2) [2F510515] (AR v2)
Track 12 accurately ripped (confidence 2) [381AE33B] (AR v2)
Track 13 accurately ripped (confidence 2) [4BD3A9C9] (AR v2)
Track 14 accurately ripped (confidence 2) [E8C4FAF6] (AR v2)
Track 15 accurately ripped (confidence 2) [5020016E] (AR v2)
Track 16 accurately ripped (confidence 2) [EE50320D] (AR v2)
Track 17 accurately ripped (confidence 2) [D3CB8E1C] (AR v2)
Track 18 accurately ripped (confidence 2) [441B2C06] (AR v2)
Track 19 accurately ripped (confidence 2) [6E3303F1] (AR v2)
Track 20 accurately ripped (confidence 2) [533B9743] (AR v2)
Track 21 accurately ripped (confidence 2) [AE94609C] (AR v2)
Track 22 accurately ripped (confidence 2) [9D837E69] (AR v2)
Track 23 accurately ripped (confidence 2) [31C27ADB] (AR v2)
Track 24 accurately ripped (confidence 2) [35BE364D] (AR v2)
Track 25 accurately ripped (confidence 2) [BCAB98E4] (AR v2)
Track 26 accurately ripped (confidence 2) [51DC5EAC] (AR v2)
Track 27 accurately ripped (confidence 2) [A3A30248] (AR v2)
Track 28 accurately ripped (confidence 2) [10F9C001] (AR v2)
Track 29 accurately ripped (confidence 2) [C84575AF] (AR v2)

All tracks accurately ripped

End of status report

==== Log checksum AA2B9561C4E86DC6EFB5214BFB4951EA9B90B71E9C99DB3EA4D7CCD2DAFC3464 ====


CD4
Exact Audio Copy V1.1 from 23. June 2015

EAC extraction logfile from 9. April 2018, 19:25

Gьttler Virtuosi Saxoniae concentus vocalis. wien / J. S. Bach - Weihnachtsoratorium

Used drive : PLEXTOR DVDR PX-760A Adapter: 1 ID: 1

Read mode : Secure
Utilize accurate stream : Yes
Defeat audio cache : Yes
Make use of C2 pointers : No

Read offset correction : 30
Overread into Lead-In and Lead-Out : No
Fill up missing offset samples with silence : Yes
Delete leading and trailing silent blocks : No
Null samples used in CRC calculations : Yes
Used interface : Native Win32 interface for Win NT & 2000

Used output format : User Defined Encoder
Selected bitrate : 1024 kBit/s
Quality : High
Add ID3 tag : No
Command line compressor : C:\Program Files (x86)\FLAC\flac.exe
Additional command line options : -5 -V -T "ARTIST=%artist%" -T "TITLE=%title%" -T "ALBUM=%albumtitle%" -T "DATE=%year%" -T "TRACKNUMBER=%tracknr%" -T "GENRE=%genre%" -T "COMMENT=[oStereo.ru]" %source%


TOC of the extracted CD

Track | Start | Length | Start sector | End sector
––––––––––––––––––––––––––––-
1 | 0:00.00 | 7:25.35 | 0 | 33409
2 | 7:25.35 | 1:24.35 | 33410 | 39744
3 | 8:49.70 | 0:54.69 | 39745 | 43863
4 | 9:44.64 | 5:41.01 | 43864 | 69439
5 | 15:25.65 | 1:31.47 | 69440 | 76311
6 | 16:57.37 | 0:23.45 | 76312 | 78081
7 | 17:21.07 | 3:10.73 | 78082 | 92404
8 | 20:32.05 | 5:12.62 | 92405 | 115866
9 | 25:44.67 | 1:31.70 | 115867 | 122761
10 | 27:16.62 | 5:55.58 | 122762 | 149444
11 | 33:12.45 | 0:47.47 | 149445 | 153016
12 | 34:00.17 | 1:09.65 | 153017 | 158256
13 | 35:10.07 | 0:43.38 | 158257 | 161519
14 | 35:53.45 | 0:56.55 | 161520 | 165774
15 | 36:50.25 | 3:49.09 | 165775 | 182958
16 | 40:39.34 | 0:26.33 | 182959 | 184941
17 | 41:05.67 | 0:50.68 | 184942 | 188759
18 | 41:56.60 | 1:05.20 | 188760 | 193654
19 | 43:02.05 | 9:50.20 | 193655 | 237924
20 | 52:52.25 | 0:14.25 | 237925 | 238999
21 | 53:06.50 | 2:35.72 | 239000 | 250696
22 | 55:42.47 | 0:23.60 | 250697 | 252481
23 | 56:06.32 | 1:19.25 | 252482 | 258431


Range status and errors

Selected range

Filename D:\Ludwig Guttler Edition - CD04 - 2015 - Berlin.wav

Peak level 97.6 %
Extraction speed 1.2 X
Range quality 100.0 %
Copy CRC 59A6DC18
Copy OK

No errors occurred


AccurateRip summary

Track 1 accurately ripped (confidence 2) [FD1BB184] (AR v2)
Track 2 accurately ripped (confidence 2) [188C7D62] (AR v2)
Track 3 accurately ripped (confidence 2) [2D319A9D] (AR v2)
Track 4 accurately ripped (confidence 2) [8286FC1C] (AR v2)
Track 5 accurately ripped (confidence 2) [5D63B992] (AR v2)
Track 6 accurately ripped (confidence 2) [F9F20A40] (AR v2)
Track 7 accurately ripped (confidence 2) [3196FDF7] (AR v2)
Track 8 accurately ripped (confidence 2) [9E708063] (AR v2)
Track 9 accurately ripped (confidence 2) [1B6C630F] (AR v2)
Track 10 accurately ripped (confidence 2) [922CD6DF] (AR v2)
Track 11 accurately ripped (confidence 2) [AC274FE3] (AR v2)
Track 12 accurately ripped (confidence 2) [4CF47A22] (AR v2)
Track 13 accurately ripped (confidence 2) [2A011721] (AR v2)
Track 14 accurately ripped (confidence 2) [64C3609E] (AR v2)
Track 15 accurately ripped (confidence 2) [70115CD4] (AR v2)
Track 16 accurately ripped (confidence 2) [99986E8C] (AR v2)
Track 17 accurately ripped (confidence 2) [023A1C68] (AR v2)
Track 18 accurately ripped (confidence 2) [23E199AD] (AR v2)
Track 19 accurately ripped (confidence 2) [E9BE58C1] (AR v2)
Track 20 accurately ripped (confidence 2) [ECE3329A] (AR v2)
Track 21 accurately ripped (confidence 2) [29AACB9F] (AR v2)
Track 22 accurately ripped (confidence 2) [411BFFC1] (AR v2)
Track 23 accurately ripped (confidence 2) [F0AC08B7] (AR v2)

All tracks accurately ripped

End of status report

==== Log checksum 4B2EC2DBC5AF12929F91ACFBA01F523FFF956664EB0481B68EC1277F66865F47 ====


CD5
Exact Audio Copy V1.1 from 23. June 2015

EAC extraction logfile from 9. April 2018, 20:22

Johann Sebastian Bach; Ludwig Güttler, Christiane Oelze, Annette Markert, Hans Peter Blochwitz, Oliver Widmer, Concentus Vocalis Vienna, Virtuosi Saxoniae / Weihnachtsoratorium

Used drive : PLEXTOR DVDR PX-760A Adapter: 1 ID: 1

Read mode : Secure
Utilize accurate stream : Yes
Defeat audio cache : Yes
Make use of C2 pointers : No

Read offset correction : 30
Overread into Lead-In and Lead-Out : No
Fill up missing offset samples with silence : Yes
Delete leading and trailing silent blocks : No
Null samples used in CRC calculations : Yes
Used interface : Native Win32 interface for Win NT & 2000

Used output format : User Defined Encoder
Selected bitrate : 1024 kBit/s
Quality : High
Add ID3 tag : No
Command line compressor : C:\Program Files (x86)\FLAC\flac.exe
Additional command line options : -5 -V -T "ARTIST=%artist%" -T "TITLE=%title%" -T "ALBUM=%albumtitle%" -T "DATE=%year%" -T "TRACKNUMBER=%tracknr%" -T "GENRE=%genre%" -T "COMMENT=[oStereo.ru]" %source%


TOC of the extracted CD

Track | Start | Length | Start sector | End sector
––––––––––––––––––––––––––––-
1 | 0:00.00 | 1:56.17 | 0 | 8716
2 | 1:56.17 | 0:08.08 | 8717 | 9324
3 | 2:04.25 | 0:43.45 | 9325 | 12594
4 | 2:47.70 | 0:47.70 | 12595 | 16189
5 | 3:35.65 | 0:49.70 | 16190 | 19934
6 | 4:25.60 | 8:07.25 | 19935 | 56484
7 | 12:33.10 | 1:25.05 | 56485 | 62864
8 | 13:58.15 | 6:02.22 | 62865 | 90036
9 | 20:00.37 | 0:27.35 | 90037 | 92096
10 | 20:27.72 | 1:02.03 | 92097 | 96749
11 | 21:30.00 | 0:28.30 | 96750 | 98879
12 | 21:58.30 | 0:48.57 | 98880 | 102536
13 | 22:47.12 | 2:04.38 | 102537 | 111874
14 | 24:51.50 | 5:33.72 | 111875 | 136921
15 | 30:25.47 | 0:36.23 | 136922 | 139644
16 | 31:01.70 | 2:53.37 | 139645 | 152656
17 | 33:55.32 | 5:48.18 | 152657 | 178774
18 | 39:43.50 | 1:45.07 | 178775 | 186656
19 | 41:28.57 | 5:18.43 | 186657 | 210549
20 | 46:47.25 | 1:53.55 | 210550 | 219079


Range status and errors

Selected range

Filename D:\Ludwig Guttler Edition - CD05 - 2015 - Berlin.wav

Peak level 97.2 %
Extraction speed 1.2 X
Range quality 100.0 %
Copy CRC C598DC73
Copy OK

No errors occurred


AccurateRip summary

Track 1 accurately ripped (confidence 2) [CB0F734C] (AR v2)
Track 2 accurately ripped (confidence 2) [8D911DF3] (AR v2)
Track 3 accurately ripped (confidence 2) [7254E3FE] (AR v2)
Track 4 accurately ripped (confidence 2) [6C6EC2B7] (AR v2)
Track 5 accurately ripped (confidence 2) [E6C8AC5E] (AR v2)
Track 6 accurately ripped (confidence 2) [B18A8CE6] (AR v2)
Track 7 accurately ripped (confidence 2) [67605E28] (AR v2)
Track 8 accurately ripped (confidence 2) [0F50DF4F] (AR v2)
Track 9 accurately ripped (confidence 2) [F49420F7] (AR v2)
Track 10 accurately ripped (confidence 2) [295F1179] (AR v2)
Track 11 accurately ripped (confidence 2) [0206F4BB] (AR v2)
Track 12 accurately ripped (confidence 2) [3904421E] (AR v2)
Track 13 accurately ripped (confidence 2) [28B4EC13] (AR v2)
Track 14 accurately ripped (confidence 2) [E49CCB99] (AR v2)
Track 15 accurately ripped (confidence 2) [496A2E94] (AR v2)
Track 16 accurately ripped (confidence 2) [F9ACE390] (AR v2)
Track 17 accurately ripped (confidence 2) [99AF2FAB] (AR v2)
Track 18 accurately ripped (confidence 2) [833BAFAA] (AR v2)
Track 19 accurately ripped (confidence 2) [1550559B] (AR v2)
Track 20 accurately ripped (confidence 2) [7A769E77] (AR v2)

All tracks accurately ripped

End of status report

==== Log checksum CEB5A07F8A60C80DBB538CB8A83DF598BED25C59EB35853CF2621E8DC838ADC3 ====


CD6
Exact Audio Copy V1.1 from 23. June 2015

EAC extraction logfile from 9. April 2018, 21:22

J. S. Bach - Christiane Oelze · Annette Markert · Hans Peter Blochwitz · Oliver Widmer · Concentus Vocalis Wien · Virtuosi Saxoniae · Ludwig Güttler , / Weihnachtsoratorium · Christmas Oratorio · Oratorio De Noël / Gloria In Excelsis Deo BWV 191

Used drive : PLEXTOR DVDR PX-760A Adapter: 1 ID: 1

Read mode : Secure
Utilize accurate stream : Yes
Defeat audio cache : Yes
Make use of C2 pointers : No

Read offset correction : 30
Overread into Lead-In and Lead-Out : No
Fill up missing offset samples with silence : Yes
Delete leading and trailing silent blocks : No
Null samples used in CRC calculations : Yes
Used interface : Native Win32 interface for Win NT & 2000

Used output format : User Defined Encoder
Selected bitrate : 1024 kBit/s
Quality : High
Add ID3 tag : No
Command line compressor : C:\Program Files (x86)\FLAC\flac.exe
Additional command line options : -5 -V -T "ARTIST=%artist%" -T "TITLE=%title%" -T "ALBUM=%albumtitle%" -T "DATE=%year%" -T "TRACKNUMBER=%tracknr%" -T "GENRE=%genre%" -T "COMMENT=[oStereo.ru]" %source%


TOC of the extracted CD

Track | Start | Length | Start sector | End sector
––––––––––––––––––––––––––––-
1 | 0:00.00 | 6:36.02 | 0 | 29701
2 | 6:36.02 | 0:25.33 | 29702 | 31609
3 | 7:01.35 | 2:13.25 | 31610 | 41609
4 | 9:14.60 | 0:54.27 | 41610 | 45686
5 | 10:09.12 | 4:52.25 | 45687 | 67611
6 | 15:01.37 | 0:13.15 | 67612 | 68601
7 | 15:14.52 | 0:34.13 | 68602 | 71164
8 | 15:48.65 | 1:24.12 | 71165 | 77476
9 | 17:13.02 | 5:25.48 | 77477 | 101899
10 | 22:38.50 | 0:31.37 | 101900 | 104261
11 | 23:10.12 | 1:03.55 | 104262 | 109041
12 | 24:13.67 | 4:54.48 | 109042 | 131139
13 | 29:08.40 | 0:50.10 | 131140 | 134899
14 | 29:58.50 | 0:49.17 | 134900 | 138591
15 | 30:47.67 | 3:53.08 | 138592 | 156074
16 | 34:41.00 | 1:22.15 | 156075 | 162239
17 | 36:03.15 | 1:10.05 | 162240 | 167494
18 | 37:13.20 | 0:25.12 | 167495 | 169381
19 | 37:38.32 | 1:45.53 | 169382 | 177309
20 | 39:24.10 | 4:21.05 | 177310 | 196889
21 | 43:45.15 | 0:45.17 | 196890 | 200281
22 | 44:30.32 | 3:09.20 | 200282 | 214476
23 | 47:39.52 | 7:08.65 | 214477 | 246641
24 | 54:48.42 | 5:17.33 | 246642 | 270449
25 | 60:06.00 | 4:25.65 | 270450 | 290389


Range status and errors

Selected range

Filename D:\Ludwig Guttler Edition - CD06 - 2015 - Berlin.wav

Peak level 96.9 %
Extraction speed 1.2 X
Range quality 100.0 %
Copy CRC 46A97B79
Copy OK

No errors occurred


AccurateRip summary

Track 1 accurately ripped (confidence 2) [F3CF425C] (AR v2)
Track 2 accurately ripped (confidence 2) [C6221E84] (AR v2)
Track 3 accurately ripped (confidence 2) [C4F49981] (AR v2)
Track 4 accurately ripped (confidence 2) [3FB8566F] (AR v2)
Track 5 accurately ripped (confidence 2) [CA15BFFA] (AR v2)
Track 6 accurately ripped (confidence 2) [3189D508] (AR v2)
Track 7 accurately ripped (confidence 2) [FD5D1330] (AR v2)
Track 8 accurately ripped (confidence 2) [977D3C97] (AR v2)
Track 9 accurately ripped (confidence 2) [59D6E89B] (AR v2)
Track 10 accurately ripped (confidence 2) [88C9C5B1] (AR v2)
Track 11 accurately ripped (confidence 2) [AEE1B79A] (AR v2)
Track 12 accurately ripped (confidence 2) [9A56C1DC] (AR v2)
Track 13 accurately ripped (confidence 2) [FEFF8038] (AR v2)
Track 14 accurately ripped (confidence 2) [01F17A8C] (AR v2)
Track 15 accurately ripped (confidence 2) [FC0208D5] (AR v2)
Track 16 accurately ripped (confidence 2) [F0F087D0] (AR v2)
Track 17 accurately ripped (confidence 2) [9AC2F87F] (AR v2)
Track 18 accurately ripped (confidence 2) [D17DFA92] (AR v2)
Track 19 accurately ripped (confidence 2) [D97AF938] (AR v2)
Track 20 accurately ripped (confidence 2) [42A3E0C1] (AR v2)
Track 21 accurately ripped (confidence 2) [5A68BA2E] (AR v2)
Track 22 accurately ripped (confidence 2) [548B35CE] (AR v2)
Track 23 accurately ripped (confidence 2) [527737B2] (AR v2)
Track 24 accurately ripped (confidence 2) [86716841] (AR v2)
Track 25 accurately ripped (confidence 2) [8EEE37EC] (AR v2)

All tracks accurately ripped

End of status report

==== Log checksum 487D14D0B383E820D821929967150F4CAE7F91FAB8FA9C0E4D82E60C9B4961BF ====


CD7
Exact Audio Copy V1.1 from 23. June 2015

EAC extraction logfile from 10. April 2018, 10:32

Various / Konzertante Barockmusik für Oboe

Used drive : PLEXTOR DVDR PX-760A Adapter: 1 ID: 1

Read mode : Secure
Utilize accurate stream : Yes
Defeat audio cache : Yes
Make use of C2 pointers : No

Read offset correction : 30
Overread into Lead-In and Lead-Out : No
Fill up missing offset samples with silence : Yes
Delete leading and trailing silent blocks : No
Null samples used in CRC calculations : Yes
Used interface : Native Win32 interface for Win NT & 2000

Used output format : User Defined Encoder
Selected bitrate : 1024 kBit/s
Quality : High
Add ID3 tag : No
Command line compressor : C:\Program Files (x86)\FLAC\flac.exe
Additional command line options : -5 -V -T "ARTIST=%artist%" -T "TITLE=%title%" -T "ALBUM=%albumtitle%" -T "DATE=%year%" -T "TRACKNUMBER=%tracknr%" -T "GENRE=%genre%" -T "COMMENT=[oStereo.ru]" %source%


TOC of the extracted CD

Track | Start | Length | Start sector | End sector
––––––––––––––––––––––––––––-
1 | 0:00.00 | 4:23.70 | 0 | 19794
2 | 4:23.70 | 4:56.33 | 19795 | 42027
3 | 9:20.28 | 4:48.20 | 42028 | 63647
4 | 14:08.48 | 4:31.65 | 63648 | 84037
5 | 18:40.38 | 2:13.17 | 84038 | 94029
6 | 20:53.55 | 2:55.73 | 94030 | 107227
7 | 23:49.53 | 2:33.15 | 107228 | 118717
8 | 26:22.68 | 2:54.40 | 118718 | 131807
9 | 29:17.33 | 2:37.27 | 131808 | 143609
10 | 31:54.60 | 4:29.23 | 143610 | 163807
11 | 36:24.08 | 3:38.30 | 163808 | 180187
12 | 40:02.38 | 2:09.40 | 180188 | 189902
13 | 42:12.03 | 2:53.20 | 189903 | 202897
14 | 45:05.23 | 6:21.20 | 202898 | 231492
15 | 51:26.43 | 4:10.05 | 231493 | 250247
16 | 55:36.48 | 5:05.05 | 250248 | 273127
17 | 60:41.53 | 3:45.00 | 273128 | 290002


Range status and errors

Selected range

Filename D:\Ludwig Guttler Edition - CD07 - 2015 - Berlin.wav

Peak level 96.7 %
Extraction speed 1.2 X
Range quality 100.0 %
Copy CRC B7CCB19F
Copy OK

No errors occurred


AccurateRip summary

Track 1 accurately ripped (confidence 2) [E29E4BD6] (AR v2)
Track 2 accurately ripped (confidence 2) [D496D5C4] (AR v2)
Track 3 accurately ripped (confidence 2) [14FE9055] (AR v2)
Track 4 accurately ripped (confidence 2) [705BF794] (AR v2)
Track 5 accurately ripped (confidence 2) [C38815A4] (AR v2)
Track 6 accurately ripped (confidence 2) [20095529] (AR v2)
Track 7 accurately ripped (confidence 2) [28C1EDE6] (AR v2)
Track 8 accurately ripped (confidence 2) [32C5941A] (AR v2)
Track 9 accurately ripped (confidence 2) [132061DB] (AR v2)
Track 10 accurately ripped (confidence 2) [10FCD88A] (AR v2)
Track 11 accurately ripped (confidence 2) [BE6F01D7] (AR v2)
Track 12 accurately ripped (confidence 2) [D64EFE0B] (AR v2)
Track 13 accurately ripped (confidence 2) [D39DE106] (AR v2)
Track 14 accurately ripped (confidence 2) [864FE7CD] (AR v2)
Track 15 accurately ripped (confidence 2) [75B9D7C3] (AR v2)
Track 16 accurately ripped (confidence 2) [85118422] (AR v2)
Track 17 accurately ripped (confidence 2) [D2470BF1] (AR v2)

All tracks accurately ripped

End of status report

==== Log checksum E297D8CA84BDDD9F9FEB02D3A32DA7FB05A2CB639F10AAC92B94289BF75ABF6A ====


all 25 log foles included…

Ludwig Guttler Edition (2015) (25CDs Box Set)


Thanks to the original ripper.

**Follow My Music Blog**