Subcategories

Luther Allison - Blue Streak (1995)

Posted By: Designol
Luther Allison - Blue Streak (1995)

Luther Allison - Blue Streak (1995)
EAC | FLAC | Image (Cue&Log) ~ 417 Mb (incl 5%) | Mp3 (CBR320) ~ 181 Mb (incl 5%) | Scans included
Chicago Blues, Modern Electric Blues | Label: Alligator | # ALCD 4834 | Time: 00:53:32

A follow-up to his previous Soul Fixin' Man (which uses the same personnel and may be from the same sessions), bluesman guitarist/singer Luther Allison is in top form throughout this well-rounded set. Allison wrote (or co-wrote with guitarist James Solberg) all but one of the dozen songs, and these range from heated blues struts to blues ballads. Recommended to fans of lowdown, intense Chicago blues.

Review by Scott Yanow, Allmusic.com

Luther Allison - Blue Streak (1995)



Tracklist:

01. All The King's Horses (05:37)
02. What Have I Done Wrong? (04:48)
03. Big City (05:23)
04. Move From The 'Hood (03:42)
05. What's Going On In My Home? (04:07)
06. I Believe In You (04:36)
07. Cherry Red Wine (04:21)
08. Walking Papers (04:28)
09. Think With Your Heart (04:57)
10. You Don't Know (02:47)
11. Should I Wait? (05:04)
12. Midnight Creeper (03:37)


Exact Audio Copy V1.0 beta 4 from 7. December 2014

Отчёт EAC об извлечении, выполненном 28. февраля 2015, 10:28

Luther Allison / Blue Streak

Дисковод: SONY CD-RW CRX230ED Adapter: 1 ID: 0

Режим чтения : Достоверность
Использование точного потока : Да
Отключение кэша аудио : Да
Использование указателей C2 : Нет

Коррекция смещения при чтении : 6
Способность читать области Lead-in и Lead-out : Нет
Заполнение пропущенных сэмплов тишиной : Да
Удаление блоков с тишиной в начале и конце : Нет
При вычислениях CRC использовались нулевые сэмплы : Да
Интерфейс : Встроенный Win32-интерфейс для Win NT/2000

Выходной формат : Внутренние WAV-операции
Формат сэмплов : 44.100 Гц; 16 бит; стерео


TOC извлечённого CD

Трек | Старт | Длительность | Начальный сектор | Конечный сектор
––––––––––––––––––––––––––––––––––-
1 | 0:00.00 | 5:37.10 | 0 | 25284
2 | 5:37.10 | 4:48.32 | 25285 | 46916
3 | 10:25.42 | 5:23.63 | 46917 | 71204
4 | 15:49.30 | 3:42.20 | 71205 | 87874
5 | 19:31.50 | 4:07.00 | 87875 | 106399
6 | 23:38.50 | 4:36.42 | 106400 | 127141
7 | 28:15.17 | 4:21.43 | 127142 | 146759
8 | 32:36.60 | 4:28.55 | 146760 | 166914
9 | 37:05.40 | 4:57.15 | 166915 | 189204
10 | 42:02.55 | 2:47.65 | 189205 | 201794
11 | 44:50.45 | 5:04.45 | 201795 | 224639
12 | 49:55.15 | 3:37.15 | 224640 | 240929


Характеристики диапазона извлечения и сообщения об ошибках

Выбранный диапазон

Имя файла F:\MusicCD\Torrent\Luther Allison\Luther Allison - Blue Streak\Luther Allison - Blue Streak.wav

Пиковый уровень 100.0 %
Скорость извлечения 7.5 X
Качество диапазона 100.0 %
CRC теста D10DDC98
CRC копии D10DDC98
Копирование… OK

Ошибок не произошло


AccurateRip: сводка

Трек 1 : извлечено точно (доверие 26) [0E7FF544] (AR v2)
Трек 2 : извлечено точно (доверие 26) [DF0B4E88] (AR v2)
Трек 3 : извлечено точно (доверие 26) [E604C66D] (AR v2)
Трек 4 : извлечено точно (доверие 26) [5326EAC1] (AR v2)
Трек 5 : извлечено точно (доверие 26) [C5163486] (AR v2)
Трек 6 : извлечено точно (доверие 26) [C29F404D] (AR v2)
Трек 7 : извлечено точно (доверие 26) [C066AB37] (AR v2)
Трек 8 : извлечено точно (доверие 26) [F47EC87F] (AR v2)
Трек 9 : извлечено точно (доверие 26) [0E972461] (AR v2)
Трек 10 : извлечено точно (доверие 26) [7C591DAD] (AR v2)
Трек 11 : извлечено точно (доверие 26) [90C88DEB] (AR v2)
Трек 12 : извлечено точно (доверие 26) [FC29011B] (AR v2)

Все треки извлечены точно

Конец отчёта

–– CUETools DB Plugin V2.1.4

[CTDB TOCID: YUmpsMAd9rG2SEmkWKKS18sdZWg-] found
Submit result: already submitted
Track | CTDB Status
1 | (18/18) Accurately ripped
2 | (18/18) Accurately ripped
3 | (18/18) Accurately ripped
4 | (18/18) Accurately ripped
5 | (18/18) Accurately ripped
6 | (18/18) Accurately ripped
7 | (18/18) Accurately ripped
8 | (18/18) Accurately ripped
9 | (18/18) Accurately ripped
10 | (18/18) Accurately ripped
11 | (18/18) Accurately ripped
12 | (18/18) Accurately ripped


==== Контрольная сумма отчёта C80A697208351F256681AF1CE20CB0ECE4D2E790115CF6C3BA1CA1471A182BFD ====

foobar2000 1.2 / Dynamic Range Meter 1.1.1
log date: 2016-07-26 17:32:49

––––––––––––––––––––––––––––––––––––––––
Analyzed: Luther Allison / Blue Streak
––––––––––––––––––––––––––––––––––––––––

DR Peak RMS Duration Track
––––––––––––––––––––––––––––––––––––––––
DR11 -0.04 dB -11.80 dB 5:37 01-All The King's Horses
DR13 -0.32 dB -15.16 dB 4:48 02-What Have I Done Wrong?
DR12 -0.09 dB -14.78 dB 5:24 03-Big City
DR10 -0.14 dB -11.50 dB 3:42 04-Move From The 'Hood
DR12 -0.15 dB -13.94 dB 4:07 05-What's Going On In My Home?
DR12 -0.15 dB -13.11 dB 4:37 06-I Believe In You
DR10 0.00 dB -11.02 dB 4:22 07-Cherry Red Wine
DR10 -0.04 dB -12.01 dB 4:29 08-Walking Papers
DR14 -0.12 dB -15.72 dB 4:57 09-Think With Your Heart
DR10 0.00 dB -11.44 dB 2:48 10-You Don't Know
DR12 -0.13 dB -14.01 dB 5:05 11-Should I Wait?
DR12 -0.13 dB -14.31 dB 3:37 12-Midnight Creeper
––––––––––––––––––––––––––––––––––––––––

Number of tracks: 12
Official DR value: DR12

Samplerate: 44100 Hz
Channels: 2
Bits per sample: 16
Bitrate: 907 kbps
Codec: FLAC
================================================================================

Luther Allison - Blue Streak (1995)

Luther Allison - Blue Streak (1995)