Luther Allison - Here I Come (1985) [Reissue 2000]

Posted By: Andi_Deris
Luther Allison - Here I Come (1985) [Reissue 2000]

Luther Allison - Here I Come (1985) [Reissue 2000]
EAC Rip | FLAC: Image+Cue+Log | 389 Mb | MP3 CBR 320 kbps | 152 Mb | Scans | Time: 49:52
Encore! | 49333-2
Blues, Chicago Blues, Modern Electric Blues

BLUES ROCK / RARE! Extraordinary singer and musician. Superb album recorded in France. Luther Allison enjoys the respect of loyal blues fans around the world that admire his fusion of Chicago blues with funk, rock and his soul-drenched vocals.

The Worm and the Bird




The Worm and the Bird


Track Listing

01. Here I Come (04:08)
02. Vision (03:53)
03. Midnight Creeper (03:44)
04. I Just Can't Turn You A-Loose (02:54)
05. A Change Must Come (05:07)
06. Too Many Women (03:58)
07. Guitar Slingin' (04:00)
08. An Old Sweet Song (04:49)
09. You're My Woman (04:09)
10. I Think I Need Some Help (03:50)
11. Glass Trap (05:27)
12. Overseas Boogie (03:49)

Produced by Michael Carras
Digitally mastered by Christian Orsini and Frédéric Marin

Musicians

• Luther Allison: vocals, guitars
• Michael Carras: keyboards
• "Fast Frank" Rabaste: guitars, slide guitar, lead guitar (#2)
• Zox - bass
• J. Mattes: drums, percussion

Exact Audio Copy V1.0 beta 4 from 7. December 2014

Отчёт EAC об извлечении, выполненном 28. февраля 2015, 11:56

Luther Allison / Here I Come

Дисковод: SONY CD-RW CRX230ED Adapter: 1 ID: 0

Режим чтения : Достоверность
Использование точного потока : Да
Отключение кэша аудио : Да
Использование указателей C2 : Нет

Коррекция смещения при чтении : 6
Способность читать области Lead-in и Lead-out : Нет
Заполнение пропущенных сэмплов тишиной : Да
Удаление блоков с тишиной в начале и конце : Нет
При вычислениях CRC использовались нулевые сэмплы : Да
Интерфейс : Встроенный Win32-интерфейс для Win NT/2000

Выходной формат : Внутренние WAV-операции
Формат сэмплов : 44.100 Гц; 16 бит; стерео


TOC извлечённого CD

Трек | Старт | Длительность | Начальный сектор | Конечный сектор
––––––––––––––––––––––––––––––––––-
1 | 0:00.33 | 4:08.15 | 33 | 18647
2 | 4:08.48 | 3:53.27 | 18648 | 36149
3 | 8:02.00 | 3:43.73 | 36150 | 52947
4 | 11:45.73 | 2:54.50 | 52948 | 66047
5 | 14:40.48 | 5:07.02 | 66048 | 89074
6 | 19:47.50 | 3:58.68 | 89075 | 106992
7 | 23:46.43 | 4:00.12 | 106993 | 125004
8 | 27:46.55 | 4:48.73 | 125005 | 146677
9 | 32:35.53 | 4:09.67 | 146678 | 165419
10 | 36:45.45 | 3:50.03 | 165420 | 182672
11 | 40:35.48 | 5:27.07 | 182673 | 207204
12 | 46:02.55 | 3:49.05 | 207205 | 224384


Характеристики диапазона извлечения и сообщения об ошибках

Выбранный диапазон

Имя файла F:\MusicCD\Luther Allison\Luther Allison - Here I Come\Luther Allison - Here I Come.wav

Пиковый уровень 100.0 %
Скорость извлечения 7.2 X
Качество диапазона 100.0 %
CRC теста EC32B58E
CRC копии EC32B58E
Копирование… OK

Ошибок не произошло


AccurateRip: сводка

Трек 1 : извлечено точно (доверие 3) [E7A5F5E1] (AR v1)
Трек 2 : извлечено точно (доверие 3) [B07EF308] (AR v1)
Трек 3 : извлечено точно (доверие 3) [37EBCDC6] (AR v1)
Трек 4 : извлечено точно (доверие 3) [6BA24997] (AR v1)
Трек 5 : извлечено точно (доверие 3) [8BDB682A] (AR v1)
Трек 6 : извлечено точно (доверие 3) [42C10AC4] (AR v1)
Трек 7 : извлечено точно (доверие 3) [8908C538] (AR v1)
Трек 8 : извлечено точно (доверие 3) [84D457CA] (AR v1)
Трек 9 : извлечено точно (доверие 3) [A53E5438] (AR v1)
Трек 10 : извлечено точно (доверие 3) [318DD895] (AR v1)
Трек 11 : извлечено точно (доверие 3) [6F5CB994] (AR v1)
Трек 12 : извлечено точно (доверие 3) [977F4C2C] (AR v1)

Все треки извлечены точно

Конец отчёта

–– CUETools DB Plugin V2.1.4

[CTDB TOCID: mnQK4daxowsHeCUrJTo5iV6tw7I-] found
Submit result: mnQK4daxowsHeCUrJTo5iV6tw7I- has been confirmed
Track | CTDB Status
1 | (1/1) Accurately ripped
2 | (1/1) Accurately ripped
3 | (1/1) Accurately ripped
4 | (1/1) Accurately ripped
5 | (1/1) Accurately ripped
6 | (1/1) Accurately ripped
7 | (1/1) Accurately ripped
8 | (1/1) Accurately ripped
9 | (1/1) Accurately ripped
10 | (1/1) Accurately ripped
11 | (1/1) Accurately ripped
12 | (1/1) Accurately ripped


==== Контрольная сумма отчёта 01BBAF179157B7B35CBB0B03C40ECE3006D97ABD53DC8EDD4E0CD0A68BC16FC3 ====


Many thanks to the original uploader: squirr