Subcategories
Tags
Language
Tags

Lynn Hilary - Take Me With You (2008) *PROPER*

Posted By: popsakov
Lynn Hilary - Take Me With You (2008) *PROPER*

Lynn Hilary - Take Me With You (2008)
EAC Rip | WavPack (Img) + Cue + Log ~ 251 Mb | MP3 CBR320 ~ 108 Mb
Full Scans ~ 105 Mb | 00:44:01 | RAR 5% Recovery
Folk, Celtic | EMI / Manhattan Records #50999 6 98017 2 3

Singer Lynn Hilary is a member of the multi-Platinum supergroup Celtic Woman, but she’s already stretching her wings as a solo artist with TAKE ME WITH YOU, her debut. A classically-trained soprano from Dublin, Hilary co-wrote nearly all the songs with Irish-born, Nashville-based producer Don Mescall, also ncluding one traditional tune sung in Gaelic. The arrangements are mostly piano-and guitar-driven with embellishment by strings, with some jazz influences here and there as well. With her soothing, mellifluous voice, Hilary is off to a good start as a solo performer.

~ All Music

***************

Track List:

01. Melody Of Life [0:03:52.01]
02. Swimming In The Barrow [0:03:12.20]
03. Erin Beo [0:04:04.33]
04. Sunset Of Gold (with Don Mescall) [0:05:20.13]
05. Carolina Rua [0:02:52.16]
06. Annie Watches [0:02:52.10]
07. What Makes The Sunset? [0:02:30.73]
08. Take Me With You [0:03:36.39]
09. Shona Mara [0:04:18.12]
10. Slán Le Maigh [0:03:15.55]
11. Road To Glory [0:04:40.16]
12. Angel Doves [0:03:25.73]

Exact Audio Copy V1.3 from 2. September 2016

EAC extraction logfile from 3. March 2017, 19:34

Lynn Hilary / Take Me With You

Used drive : HL-DT-STDVDRAM GH24NSC0 Adapter: 1 ID: 0

Read mode : Secure
Utilize accurate stream : Yes
Defeat audio cache : Yes
Make use of C2 pointers : No

Read offset correction : 6
Overread into Lead-In and Lead-Out : No
Fill up missing offset samples with silence : Yes
Delete leading and trailing silent blocks : No
Null samples used in CRC calculations : Yes
Used interface : Native Win32 interface for Win NT & 2000

Used output format : Internal WAV Routines
Sample format : 44.100 Hz; 16 Bit; Stereo


TOC of the extracted CD

Track | Start | Length | Start sector | End sector
––––––––––––––––––––––––––––-
1 | 0:00.00 | 3:52.01 | 0 | 17400
2 | 3:52.01 | 3:12.20 | 17401 | 31820
3 | 7:04.21 | 4:04.33 | 31821 | 50153
4 | 11:08.54 | 5:20.13 | 50154 | 74166
5 | 16:28.67 | 2:52.16 | 74167 | 87082
6 | 19:21.08 | 2:52.10 | 87083 | 99992
7 | 22:13.18 | 2:30.73 | 99993 | 111315
8 | 24:44.16 | 3:36.39 | 111316 | 127554
9 | 28:20.55 | 4:18.12 | 127555 | 146916
10 | 32:38.67 | 3:15.55 | 146917 | 161596
11 | 35:54.47 | 4:40.16 | 161597 | 182612
12 | 40:34.63 | 3:25.73 | 182613 | 198060


Range status and errors

Selected range

Filename C:\Music CD\Lynn Hilary - Take Me With You.wav

Peak level 97.7 %
Extraction speed 7.2 X
Range quality 100.0 %
Test CRC 8540245F
Copy CRC 8540245F
Copy OK

No errors occurred


AccurateRip summary

Track 1 accurately ripped (confidence 5) [EAE2E720] (AR v2)
Track 2 accurately ripped (confidence 5) [B313DB66] (AR v2)
Track 3 accurately ripped (confidence 5) [52600EE3] (AR v2)
Track 4 accurately ripped (confidence 5) [2AB6C174] (AR v2)
Track 5 accurately ripped (confidence 5) [42E41B6E] (AR v2)
Track 6 accurately ripped (confidence 5) [330F6642] (AR v2)
Track 7 accurately ripped (confidence 5) [DC00B2FA] (AR v2)
Track 8 accurately ripped (confidence 5) [68DB9369] (AR v2)
Track 9 accurately ripped (confidence 5) [34EC3C83] (AR v2)
Track 10 accurately ripped (confidence 5) [39DFEEE6] (AR v2)
Track 11 accurately ripped (confidence 5) [FD7B41A6] (AR v2)
Track 12 accurately ripped (confidence 5) [7D519307] (AR v2)

All tracks accurately ripped

End of status report

–– CUETools DB Plugin V2.1.6

[CTDB TOCID: q90qMigXSiW8CzUc0nF3DAQWaBk-] found
Submit result: q90qMigXSiW8CzUc0nF3DAQWaBk- has been confirmed
Track | CTDB Status
1 | (12/12) Accurately ripped
2 | (12/12) Accurately ripped
3 | (12/12) Accurately ripped
4 | (12/12) Accurately ripped
5 | (12/12) Accurately ripped
6 | (12/12) Accurately ripped
7 | (12/12) Accurately ripped
8 | (12/12) Accurately ripped
9 | (12/12) Accurately ripped
10 | (12/12) Accurately ripped
11 | (12/12) Accurately ripped
12 | (12/12) Accurately ripped


==== Log checksum 88206740B51708D09355F531AD492D46095B8CB7091F1C636B442935D7DA1DF7 ====

[CUETools log; Date: 18.04.2021 13:29:11; Version: 2.1.6]
[CTDB TOCID: q90qMigXSiW8CzUc0nF3DAQWaBk-] found.
Track | CTDB Status
1 | (28/28) Accurately ripped
2 | (28/28) Accurately ripped
3 | (28/28) Accurately ripped
4 | (28/28) Accurately ripped
5 | (28/28) Accurately ripped
6 | (28/28) Accurately ripped
7 | (28/28) Accurately ripped
8 | (28/28) Accurately ripped
9 | (28/28) Accurately ripped
10 | (28/28) Accurately ripped
11 | (28/28) Accurately ripped
12 | (28/28) Accurately ripped
[AccurateRip ID: 0013a9e6-00b6bb97-970a500c] found.
Track [ CRC | V2 ] Status
01 [26432a69|eae2e720] (00+06/16) Accurately ripped
02 [a223d1a9|b313db66] (00+06/16) Accurately ripped
03 [ac1bc1dd|52600ee3] (00+06/16) Accurately ripped
04 [41ac0793|2ab6c174] (00+06/16) Accurately ripped
05 [1fce3707|42e41b6e] (00+06/16) Accurately ripped
06 [f8b61f3f|330f6642] (00+06/16) Accurately ripped
07 [4c70b28c|dc00b2fa] (00+06/16) Accurately ripped
08 [cac2ba73|68db9369] (00+06/16) Accurately ripped
09 [f832a4e7|34ec3c83] (00+06/16) Accurately ripped
10 [51613933|39dfeee6] (00+06/16) Accurately ripped
11 [16fd2804|fd7b41a6] (00+06/16) Accurately ripped
12 [c95d1bb1|7d519307] (00+06/16) Accurately ripped
Offsetted by 12:
01 [13ce1572] (00/16) No match (V2 was not tested)
02 [51cc8863] (00/16) No match (V2 was not tested)
03 [5fa97c7d] (00/16) No match (V2 was not tested)
04 [be232f5b] (00/16) No match (V2 was not tested)
05 [4a7d1dc0] (00/16) No match (V2 was not tested)
06 [b886bd54] (00/16) No match (V2 was not tested)
07 [db41a5ee] (00/16) No match (V2 was not tested)
08 [95ed93d5] (00/16) No match (V2 was not tested)
09 [d0580c3b] (00/16) No match (V2 was not tested)
10 [27229cba] (00/16) No match (V2 was not tested)
11 [e7be2b98] (00/16) No match (V2 was not tested)
12 [0c59b522] (00/16) No match (V2 was not tested)

Track Peak [ CRC32 ] [W/O NULL] [ LOG ]
– 97,7 [8540245F] [8D263BC5] CRC32
01 97,7 [0B3828A2] [A56227FA]
02 97,7 [01DCAE1A] [FF5E7020]
03 97,7 [FFD38C10] [FA20BF7F]
04 97,7 [8DC502E0] [51B39103]
05 97,7 [37E93DA4] [A8D362B5]
06 97,7 [B33BDC9C] [9B77A23F]
07 97,7 [FB14B530] [F16A76EC]
08 97,7 [C2AF3FF4] [9B1C33AF]
09 97,7 [3DB7634F] [E1308B1F]
10 97,7 [1AB4A048] [CF378C57]
11 97,7 [BDAD375C] [3FD0DF44]
12 97,7 [15FA26D8] [F28123E7]

All thanks go to the original ripper(s) …

>>> My Blog <<<

DOWNLOAD: