VA - Mojo presents James Brown's Funky Summer (Mojo Magazine August 2006) (2006) **[RE-UP]**

Posted By: TestTickles
VA - Mojo presents James Brown's Funky Summer (Mojo Magazine August 2006) (2006) **[RE-UP]**

VA - Mojo presents James Brown's Funky Summer (Mojo Magazine August 2006) (2006)
EAC Rip | FLAC with CUE and log | scans | 366 mb
MP3 CBR 320kbps | RAR | 168 mb
Genre: R&B, soul, funk, hip-hop, rap

Mojo presents James Brown's Funky Summer is a compilation CD released in 2006 as found within the August 2006 issue of Mojo magazine. It features various songs from the James Brown family as well as a rap song from American rapper Braille.

VA - Mojo presents James Brown's Funky Summer (Mojo Magazine August 2006) (2006) **[RE-UP]**

01. James Brown - Gut Bucket
02. Maceo And All The Kings Men - Funky Women
03. Vicki Anderson - If You Don't Give Me What I Want
04. Lyn Collins - You Can't Love Me If You Don't Respect Me
05. James Brown - Get On The Good Foot
06. Fred Wesley & The Horny Horns - Between Two Sheets
07. Bootsy Collins - What So Never The Dance
08. James Brown - Get Up, Get Into It, Get Involved
09. Bobby Byrd - I Know You Got Soul
10. Tammi Terrell - What A Good Man He Is
11. Soul Survivors - Please Please Please
12. Albert King - Cold Sweat
13. Roy Brown - Love Don't Love Nobody
14. The 5 Royales - Think
15. Braille - Antenna

As it says in the booklet, An exclusive 15-track compilation featuring James Brown, his friends, his heroes, and his protégés, and that's just what this is.

"Gut Bucket" is a brand new song, scheduled for release on JB's forthcoming album next year.

Braille is a rapper from Portland, Oregon, whose music is said to be "approved" by JB himself. His placement on the CD is due to the fact that both now share a label, a nice tie-in all around.

EAC extraction logfile from 9. August 2006, 16:51 for CD
Various Artists / Mojo presents James Brown's Funky Summer

Used drive : LITE-ON DVDRW SOHW-1633S Adapter: 0 ID: 0
Read mode : Secure with NO C2, accurate stream, disable cache
Read offset correction : 12
Overread into Lead-In and Lead-Out : No

Used output format : Internal WAV Routines
44.100 Hz; 16 Bit; Stereo

Other options :
Fill up missing offset samples with silence : Yes
Delete leading and trailing silent blocks : No
Installed external ASPI interface


Track 1
Filename D:\FLAC\VA - Mojo presents James Brown's Funky Summer (Mojo Magazine August 2006) (2006) [FLAC]\01 - James Brown - Gut Bucket.wav

Pre-gap length 0:00:02.00

Peak level 61.6 %
Track quality 100.0 %
Test CRC B4FDDDED
Copy CRC B4FDDDED
Copy OK

Track 2
Filename D:\FLAC\VA - Mojo presents James Brown's Funky Summer (Mojo Magazine August 2006) (2006) [FLAC]\02 - Maceo And All The Kings Men - Funky Women.wav

Pre-gap length 0:00:00.04

Peak level 76.8 %
Track quality 100.0 %
Test CRC 983AC534
Copy CRC 983AC534
Copy OK

Track 3
Filename D:\FLAC\VA - Mojo presents James Brown's Funky Summer (Mojo Magazine August 2006) (2006) [FLAC]\03 - Vicki Anderson - If You Don't Give Me What I Want.wav

Pre-gap length 0:00:00.06

Peak level 60.9 %
Track quality 100.0 %
Test CRC 3A6AF89B
Copy CRC 3A6AF89B
Copy OK

Track 4
Filename D:\FLAC\VA - Mojo presents James Brown's Funky Summer (Mojo Magazine August 2006) (2006) [FLAC]\04 - Lyn Collins - You Can't Love Me If You Don't Respect Me.wav

Pre-gap length 0:00:00.01

Peak level 58.3 %
Track quality 100.0 %
Test CRC 4F3B313D
Copy CRC 4F3B313D
Copy OK

Track 5
Filename D:\FLAC\VA - Mojo presents James Brown's Funky Summer (Mojo Magazine August 2006) (2006) [FLAC]\05 - James Brown - Get On The Good Foot.wav

Pre-gap length 0:00:00.05

Peak level 76.7 %
Track quality 100.0 %
Test CRC 43CF4C05
Copy CRC 43CF4C05
Copy OK

Track 6
Filename D:\FLAC\VA - Mojo presents James Brown's Funky Summer (Mojo Magazine August 2006) (2006) [FLAC]\06 - Fred Wesley & The Horny Horns - Between Two Sheets.wav

Pre-gap length 0:00:00.04

Peak level 61.6 %
Track quality 100.0 %
Test CRC CCC993DF
Copy CRC CCC993DF
Copy OK

Track 7
Filename D:\FLAC\VA - Mojo presents James Brown's Funky Summer (Mojo Magazine August 2006) (2006) [FLAC]\07 - Bootsy Collins - What So Never The Dance.wav

Pre-gap length 0:00:00.01

Peak level 61.9 %
Track quality 99.9 %
Test CRC 1A43C1C6
Copy CRC 1A43C1C6
Copy OK

Track 8
Filename D:\FLAC\VA - Mojo presents James Brown's Funky Summer (Mojo Magazine August 2006) (2006) [FLAC]\08 - James Brown - Get Up, Get Into It, Get Involved.wav

Pre-gap length 0:00:00.01

Peak level 100.0 %
Track quality 100.0 %
Test CRC C265517F
Copy CRC C265517F
Copy OK

Track 9
Filename D:\FLAC\VA - Mojo presents James Brown's Funky Summer (Mojo Magazine August 2006) (2006) [FLAC]\09 - Bobby Byrd - I Know You Got Soul.wav

Pre-gap length 0:00:00.02

Peak level 95.5 %
Track quality 100.0 %
Test CRC B30D8D43
Copy CRC B30D8D43
Copy OK

Track 10
Filename D:\FLAC\VA - Mojo presents James Brown's Funky Summer (Mojo Magazine August 2006) (2006) [FLAC]\10 - Tammi Terrell - What A Good Man He Is.wav

Pre-gap length 0:00:00.01

Peak level 84.2 %
Track quality 100.0 %
Test CRC BE599AD1
Copy CRC BE599AD1
Copy OK

Track 11
Filename D:\FLAC\VA - Mojo presents James Brown's Funky Summer (Mojo Magazine August 2006) (2006) [FLAC]\11 - Soul Survivors - Please Please Please.wav

Pre-gap length 0:00:00.01

Peak level 91.2 %
Track quality 100.0 %
Test CRC 279A99FB
Copy CRC 279A99FB
Copy OK

Track 12
Filename D:\FLAC\VA - Mojo presents James Brown's Funky Summer (Mojo Magazine August 2006) (2006) [FLAC]\12 - Albert King - Cold Sweat.wav

Pre-gap length 0:00:00.01

Peak level 85.8 %
Track quality 100.0 %
Test CRC 454AC9FE
Copy CRC 454AC9FE
Copy OK

Track 13
Filename D:\FLAC\VA - Mojo presents James Brown's Funky Summer (Mojo Magazine August 2006) (2006) [FLAC]\13 - Roy Brown - Love Don't Love Nobody.wav

Pre-gap length 0:00:00.01

Peak level 100.0 %
Track quality 100.0 %
Test CRC 0977B865
Copy CRC 0977B865
Copy OK

Track 14
Filename D:\FLAC\VA - Mojo presents James Brown's Funky Summer (Mojo Magazine August 2006) (2006) [FLAC]\14 - The 5 Royales - Think.wav

Pre-gap length 0:00:00.01

Peak level 96.1 %
Track quality 100.0 %
Test CRC 7A192B8B
Copy CRC 7A192B8B
Copy OK

Track 15
Filename D:\FLAC\VA - Mojo presents James Brown's Funky Summer (Mojo Magazine August 2006) (2006) [FLAC]\15 - Braille - Antenna.wav

Pre-gap length 0:00:00.01

Peak level 39.8 %
Track quality 100.0 %
Test CRC 49A46156
Copy CRC 49A46156
Copy OK

No errors occured


End of status report


VA - Mojo presents James Brown's Funky Summer (Mojo Magazine August 2006) (2006) **[RE-UP]**