Subcategories
Tags
Language
Tags

Monatik - Звучит (Sounds) (2016)

Posted By: TestTickles
Monatik - Звучит (Sounds) (2016)

Monatik - Звучит (Sounds) (2016)
EAC Rip | FLAC with CUE and LOG | scans | 279 mb
MP3 CBR 320 kbps | RAR | 99 mb
Genre: modern pop, Europop

Звучит (Sounds) is the 2016 album by Ukranian singer Monatik, born Дмитро Сергійович Монатик. This is taken from the original self-released CD, which means it was made specifically for the fans but a later pressing would be released properly.

01. Мудрые Деревья (4:44)
02. Кружит (3:18)
03. Тише (4:04)
04. Музыкально-Танцевальная Терапия (0:34)
05. Пока Ты На Танцполе (0:48)
06. Мокрая (3:56)
07. Путь (4:25)
08. УВЛИУВТ (Упали В Любовь И Ударились В Танцы) (4:02)
09. Каждый Из Нас (0:40)
10. Ещё Один (3:28)
11. Засияем (0:32)
12. Сейчас (3:43)
13. Вот Наше Время! (0:49)
14. Выходной (3:01)
15. Ты… (1:50)
16. Вечность (4:12)

Track 3 featuring Анна Седокова
Track 6 featuring Quest Pistols Show

Exact Audio Copy V1.3 from 2. September 2016

Отчёт EAC об извлечении, выполненном 13. апрель 2017, 9:50

Monatik / Звучит (Sounds)

Дисковод: TSSTcorpCDDVDW SN-208BB Adapter: 1 ID: 0

Режим чтения : Достоверность
Использование точного потока : Да
Отключение кэша аудио : Да
Использование указателей C2 : Нет

Коррекция смещения при чтении : 6
Способность читать области Lead-in и Lead-out : Нет
Заполнение пропущенных сэмплов тишиной : Да
Удаление блоков с тишиной в начале и конце : Нет
При вычислениях CRC использовались нулевые сэмплы : Да
Интерфейс : Встроенный Win32-интерфейс для Win NT/2000

Выходной формат : Внутренние WAV-операции
Формат сэмплов : 44.100 Гц; 16 бит; стерео


TOC извлечённого CD

Трек | Старт | Длительность | Начальный сектор | Конечный сектор
––––––––––––––––––––––––––––––––––-
1 | 0:00.00 | 4:44.15 | 0 | 21314
2 | 4:44.15 | 3:17.67 | 21315 | 36156
3 | 8:02.07 | 4:03.68 | 36157 | 54449
4 | 12:06.00 | 0:33.33 | 54450 | 56957
5 | 12:39.33 | 0:47.55 | 56958 | 60537
6 | 13:27.13 | 3:56.01 | 60538 | 78238
7 | 17:23.14 | 4:24.43 | 78239 | 98081
8 | 21:47.57 | 4:02.07 | 98082 | 116238
9 | 25:49.64 | 0:40.29 | 116239 | 119267
10 | 26:30.18 | 3:28.11 | 119268 | 134878
11 | 29:58.29 | 0:31.58 | 134879 | 137261
12 | 30:30.12 | 3:42.39 | 137262 | 153950
13 | 34:12.51 | 0:48.54 | 153951 | 157604
14 | 35:01.30 | 3:00.33 | 157605 | 171137
15 | 38:01.63 | 1:50.33 | 171138 | 179420
16 | 39:52.21 | 4:11.65 | 179421 | 198310


Характеристики диапазона извлечения и сообщения об ошибках

Выбранный диапазон

Имя файла C:\cuntfist\FLAC\Monatik - Звучит (Sounds) (2016) [FLAC]\Monatik - Звучит.wav

Пиковый уровень 99.9 %
Скорость извлечения 3.0 X
Качество диапазона 100.0 %
CRC теста 1A6F640D
CRC копии 1A6F640D
Копирование… OK

Ошибок не произошло


AccurateRip: сводка

Трек 1 отсутствует в базе данных
Трек 2 отсутствует в базе данных
Трек 3 отсутствует в базе данных
Трек 4 отсутствует в базе данных
Трек 5 отсутствует в базе данных
Трек 6 отсутствует в базе данных
Трек 7 отсутствует в базе данных
Трек 8 отсутствует в базе данных
Трек 9 отсутствует в базе данных
Трек 10 отсутствует в базе данных
Трек 11 отсутствует в базе данных
Трек 12 отсутствует в базе данных
Трек 13 отсутствует в базе данных
Трек 14 отсутствует в базе данных
Трек 15 отсутствует в базе данных
Трек 16 отсутствует в базе данных

Ни одного трека нет в базе AccurateRip

Конец отчёта

–– CUETools DB Plugin V2.1.6

[CTDB TOCID: CIi_N4VboRnHyyE9I0ZgYqqBG1Y-] disk not present in database
Submit result: CIi_N4VboRnHyyE9I0ZgYqqBG1Y- has been uploaded


==== Контрольная сумма отчёта 2A6BCB87AEC2CB477C66CA325C085E90A52D4D3463535495970D1F0DC4334EED ====


Monatik - Звучит (Sounds) (2016)


Thank you to the original uploader.