Subcategories

VA - Morning Of The Earth (30th Anniversary Edition) (1972) {2002 Warner Music Australia} **[RE-UP]**

Posted By: TestTickles
VA - Morning Of The Earth (30th Anniversary Edition) (1972) {2002 Warner Music Australia} **[RE-UP]**

VA - Morning Of The Earth (30th Anniversary Edition) (1972) {2002 Warner Music Australia}
EAC Rip | FLAC with CUE and log | scans | 547 mb
MP3 CBR 320kbps | RAR | 225 mb
Genre: soundtrack, classic rock, folk rock, country rock, prog rock, pop rock

Morning Of The Earth is the soundtrack to the 1971 surf documentary directed by Albert Falzon. Originally released by Warner Bros. in Australia, this is a 30th anniversary CD released in 2002. According to the sticker on the front, this is the first time the complete soundtrack has been made available. In other words, original vinyl pressings only featured a select handful of the music, others remained in the 1972 surf film. Two of the songs that were not on the original soundtrack sound as if they were pulled from the film itself, but the rest of it sounds great. It's surf music 1970's style, a mixture of California-influenced rock and acoustic music. The title theme track was done by G. Wayne Thomas, who also did the Crystal Voyager soundtrack.

Morning of the Earth is arguably the first surf movie that went beyond waves and into something of a (wordless) meditation on life based on surfing. The film is a product of it's time (very early '70's - first years of shortboard transition) and is full of back-to-the-country hippy vibes as well as some beautifully filmed surfing on Australian, Hawaian and Bali waves. The soundtrack is therefore a mixed bag of cutesy Australasian country folk (G Wayne Thomas), psychedelic prog rock (Taman Shud), and seriously wonderful Acid Rock from New Zealand's forgotten Ticket. Their tracks Awake and Dream Chant are worth the price alone. Like the film the soundtrack is a bit of a time machine back to a by-gone era. The soundtrack is for the nostalgic or those wanting a good compilation of early 70's Australasian psych-folk stuff. The film is still one of the all-time classic surf movies too so check it out.

VA - Morning Of The Earth (30th Anniversary Edition) (1972) {2002 Warner Music Australia} **[RE-UP]**

01. G. Wayne Thomas - Morning Of The Earth
02. Terry Hannagan - I'll Be Alright
03. Tamam Shud - First Things First
04. Brian Cadd - Sure Feels Good
05. Ticket - Awake
06. G. Wayne Thomas - Getting Back
07. G. Wayne Thomas - Open Up Your Heart
08. Ticket - Dream Chant
09. John J. Francis - Simple Ben
10. Tamam Shud - Bali Waters
11. Brian Cadd - Making It On Your Own
12. Peter Howe - Ullawatu
13. G. Wayne Thomas - Day Comes
14. Tamam Shud - Sea The Swells
15. Peter Howe - I'm Alive
16. Brian Cadd - Come With Me

EAC extraction logfile from 26. July 2006, 5:49 for CD
Various / Morning Of The Earth (30th Anniversary Edition)

Used drive : LITE-ON DVDRW SOHW-1633S Adapter: 0 ID: 0
Read mode : Secure with NO C2, accurate stream, disable cache
Read offset correction : 12
Overread into Lead-In and Lead-Out : No

Used output format : Internal WAV Routines
44.100 Hz; 16 Bit; Stereo

Other options :
Fill up missing offset samples with silence : Yes
Delete leading and trailing silent blocks : No
Installed external ASPI interface


Track 1
Filename D:\FLAC\VA - Morning Of The Earth (30th Anniversary Edition) (1972) [FLAC] {2002 Warner Music Australia}\01 - G. Wayne Thomas - Morning Of The Earth.wav

Pre-gap length 0:00:02.00

Peak level 100.0 %
Track quality 100.0 %
Test CRC 8D5C08C1
Copy CRC 8D5C08C1
Copy OK

Track 2
Filename D:\FLAC\VA - Morning Of The Earth (30th Anniversary Edition) (1972) [FLAC] {2002 Warner Music Australia}\02 - Terry Hannagan - I'll Be Alright.wav

Pre-gap length 0:00:01.82

Peak level 77.1 %
Track quality 100.0 %
Test CRC FC1D59D9
Copy CRC FC1D59D9
Copy OK

Track 3
Filename D:\FLAC\VA - Morning Of The Earth (30th Anniversary Edition) (1972) [FLAC] {2002 Warner Music Australia}\03 - Tamam Shud - First Things First.wav

Pre-gap length 0:00:01.37

Peak level 100.0 %
Track quality 100.0 %
Test CRC 49C39B82
Copy CRC 49C39B82
Copy OK

Track 4
Filename D:\FLAC\VA - Morning Of The Earth (30th Anniversary Edition) (1972) [FLAC] {2002 Warner Music Australia}\04 - Brian Cadd - Sure Feels Good.wav

Pre-gap length 0:00:02.10

Peak level 94.4 %
Track quality 100.0 %
Test CRC 13EF35FA
Copy CRC 13EF35FA
Copy OK

Track 5
Filename D:\FLAC\VA - Morning Of The Earth (30th Anniversary Edition) (1972) [FLAC] {2002 Warner Music Australia}\05 - Ticket - Awake.wav

Pre-gap length 0:00:02.82

Peak level 70.7 %
Track quality 100.0 %
Test CRC CE864261
Copy CRC CE864261
Copy OK

Track 6
Filename D:\FLAC\VA - Morning Of The Earth (30th Anniversary Edition) (1972) [FLAC] {2002 Warner Music Australia}\06 - G. Wayne Thomas - Getting Back.wav

Peak level 100.0 %
Track quality 100.0 %
Test CRC 1FD14B3E
Copy CRC 1FD14B3E
Copy OK

Track 7
Filename D:\FLAC\VA - Morning Of The Earth (30th Anniversary Edition) (1972) [FLAC] {2002 Warner Music Australia}\07 - G. Wayne Thomas - Open Up Your Heart.wav

Peak level 100.0 %
Track quality 100.0 %
Test CRC 7A8A8DCD
Copy CRC 7A8A8DCD
Copy OK

Track 8
Filename D:\FLAC\VA - Morning Of The Earth (30th Anniversary Edition) (1972) [FLAC] {2002 Warner Music Australia}\08 - Ticket - Dream Chant.wav

Pre-gap length 0:00:01.66

Peak level 89.1 %
Track quality 100.0 %
Test CRC 9F29311D
Copy CRC 9F29311D
Copy OK

Track 9
Filename D:\FLAC\VA - Morning Of The Earth (30th Anniversary Edition) (1972) [FLAC] {2002 Warner Music Australia}\09 - John J. Francis - Simple Ben.wav

Pre-gap length 0:00:01.33

Peak level 100.0 %
Track quality 100.0 %
Test CRC 423428D3
Copy CRC 423428D3
Copy OK

Track 10
Filename D:\FLAC\VA - Morning Of The Earth (30th Anniversary Edition) (1972) [FLAC] {2002 Warner Music Australia}\10 - Tamam Shud - Bali Waters.wav

Pre-gap length 0:00:02.17

Peak level 98.7 %
Track quality 100.0 %
Test CRC FDE8E180
Copy CRC FDE8E180
Copy OK

Track 11
Filename D:\FLAC\VA - Morning Of The Earth (30th Anniversary Edition) (1972) [FLAC] {2002 Warner Music Australia}\11 - Brian Cadd - Making It On Your Own.wav

Pre-gap length 0:00:03.17

Peak level 100.0 %
Track quality 99.9 %
Test CRC 61C54B96
Copy CRC 61C54B96
Copy OK

Track 12
Filename D:\FLAC\VA - Morning Of The Earth (30th Anniversary Edition) (1972) [FLAC] {2002 Warner Music Australia}\12 - Peter Howe - Ullawatu.wav

Peak level 82.0 %
Track quality 100.0 %
Test CRC 16290641
Copy CRC 16290641
Copy OK

Track 13
Filename D:\FLAC\VA - Morning Of The Earth (30th Anniversary Edition) (1972) [FLAC] {2002 Warner Music Australia}\13 - G. Wayne Thomas - Day Comes.wav

Peak level 91.3 %
Track quality 100.0 %
Test CRC 71ED5F77
Copy CRC 71ED5F77
Copy OK

Track 14
Filename D:\FLAC\VA - Morning Of The Earth (30th Anniversary Edition) (1972) [FLAC] {2002 Warner Music Australia}\14 - Tamam Shud - Sea The Swells.wav

Pre-gap length 0:00:01.80

Peak level 100.0 %
Track quality 100.0 %
Test CRC 5416BE15
Copy CRC 5416BE15
Copy OK

Track 15
Filename D:\FLAC\VA - Morning Of The Earth (30th Anniversary Edition) (1972) [FLAC] {2002 Warner Music Australia}\15 - Peter Howe - I'm Alive.wav

Pre-gap length 0:00:01.16

Peak level 99.0 %
Track quality 100.0 %
Test CRC 47E5DA56
Copy CRC 47E5DA56
Copy OK

Track 16
Filename D:\FLAC\VA - Morning Of The Earth (30th Anniversary Edition) (1972) [FLAC] {2002 Warner Music Australia}\16 - Brian Cadd - Come With Me.wav

Pre-gap length 0:00:01.90

Peak level 100.0 %
Track quality 100.0 %
Test CRC 45AFD5E8
Copy CRC 45AFD5E8
Copy OK

No errors occured


End of status report


VA - Morning Of The Earth (30th Anniversary Edition) (1972) {2002 Warner Music Australia} **[RE-UP]**