Subcategories

Meredith Monk - Dolmen Music (1981) {ECM New Series} **[RE-UP]**

Posted By: TestTickles
Meredith Monk - Dolmen Music (1981) {ECM New Series} **[RE-UP]**

Meredith Monk - Dolmen Music (1981) {ECM New Series}
EAC Rip | FLAC with CUE and log | scans | 246mb
MP3 CBR 320kbps | RAR | 128mb
Genre: modern classical, avant-garde

Dolmen Music is the 1981 album by modern classical artist and composer Meredith Monk. This was her fourth album, her first for the ECM label, and released under the label's ECM New Series. The album is known to some audiences as a sample source in DJ Shadow's "Midnight In A Perfect World".

Meredith Monk - Dolmen Music (1981) {ECM New Series} **[RE-UP]**

1. Gotham Lullaby (4:15)
2. Travelling (6:15)
3. The Tale (2:47)
4. Biography (9:24)
5. Dolmen Music (23:39)
a) Overture And Men's Conclave
b) Wa-Ohs
c) Rain
d) Pine Tree Lullaby
e) Calls
f) Conclusion


EAC extraction logfile from 22. July 2006, 6:28 for CD
Meredith Monk / Dolmen Music

Used drive : LITE-ON DVDRW SOHW-1633S Adapter: 0 ID: 0
Read mode : Secure with NO C2, accurate stream, disable cache
Read offset correction : 12
Overread into Lead-In and Lead-Out : No

Used output format : Internal WAV Routines
44.100 Hz; 16 Bit; Stereo

Other options :
Fill up missing offset samples with silence : Yes
Delete leading and trailing silent blocks : No
Installed external ASPI interface


Track 1
Filename D:\FLAC\Meredith Monk - Dolmen Music (1981) [FLAC] {ECM New Series}\01 - Gotham Lullaby.wav

Pre-gap length 0:00:02.44

Peak level 87.0 %
Track quality 99.9 %
Test CRC 679587DD
Copy CRC 679587DD
Copy OK

Track 2
Filename D:\FLAC\Meredith Monk - Dolmen Music (1981) [FLAC] {ECM New Series}\02 - Travelling.wav

Pre-gap length 0:00:04.00

Peak level 84.3 %
Track quality 100.0 %
Test CRC 8B014A89
Copy CRC 8B014A89
Copy OK

Track 3
Filename D:\FLAC\Meredith Monk - Dolmen Music (1981) [FLAC] {ECM New Series}\03 - The Tale.wav

Pre-gap length 0:00:02.50

Peak level 83.2 %
Track quality 99.9 %
Test CRC F1D6A5EC
Copy CRC F1D6A5EC
Copy OK

Track 4
Filename D:\FLAC\Meredith Monk - Dolmen Music (1981) [FLAC] {ECM New Series}\04 - Biography.wav

Pre-gap length 0:00:04.00

Peak level 76.3 %
Track quality 100.0 %
Test CRC 87884F8E
Copy CRC 87884F8E
Copy OK

Track 5
Filename D:\FLAC\Meredith Monk - Dolmen Music (1981) [FLAC] {ECM New Series}\05 - Dolmen Music.wav

Pre-gap length 0:00:08.00

Peak level 92.0 %
Track quality 100.0 %
Test CRC E027CC99
Copy CRC E027CC99
Copy OK

No errors occured


End of status report


Meredith Monk - Dolmen Music (1981) {ECM New Series} **[RE-UP]**


Check out other titles in my blog.