Subcategories

Max Barskih - Туманы (Mists) (2016)

Posted By: TestTickles
Max Barskih - Туманы (Mists) (2016)

Max Barskih - Туманы (Mists) (2016)
EAC Rip | FLAC with CUE and LOG | scans | 413 mb
MP3 CBR 320 kbps | RAR | 173 mb
Genre: Europop, dance pop

Туманы, translated as Mists, is the 2016 compact disc by Russian Europop sensation Max Barskih. This project was self-released, which means it was made for the fans before he was signed by a label.

Max Barskih - Туманы (Mists) (2016)

01. Туманы (3:26)
02. Попрошу (3:36)
03. Пьяная Луна (3:19)
04. Неверная (3:46)
05. Слёзы-Вода (3:49)
06. Февраль (3:27)
07. Я Люблю Тебя (3:55)
08. Последний Летний День (4:00)
09. Подруга-Ночь (3:27)
10. Займёмся Любовью (3:46)
11. Хочу Танцевать (3:34)
12. HLOP, HLOP, HLOP (4:06)

Андрей Степанов-saxophone (track 8)

Exact Audio Copy V1.0 beta 6 from 9. April 2015

Отчёт EAC об извлечении, выполненном 13. июнь 2017, 5:38

Max Barskih / Туманы (Mists)

Дисковод: ASUS DRW-1814BLT Adapter: 1 ID: 0

Режим чтения : Достоверность
Использование точного потока : Да
Отключение кэша аудио : Да
Использование указателей C2 : Нет

Коррекция смещения при чтении : 6
Способность читать области Lead-in и Lead-out : Нет
Заполнение пропущенных сэмплов тишиной : Да
Удаление блоков с тишиной в начале и конце : Нет
При вычислениях CRC использовались нулевые сэмплы : Да
Интерфейс : Встроенный Win32-интерфейс для Win NT/2000

Выходной формат : Пользовательский кодировщик
Выбранный битрейт : 128 kBit/s
Качество : Высокий
Добавление ID3-тега : Нет
Утилита сжатия : C:\Program Files (x86)\Exact Audio Copy\Flac\flac.exe
Дополнительные параметры : -V -8 %source%


TOC извлечённого CD

Трек | Старт | Длительность | Начальный сектор | Конечный сектор
––––––––––––––––––––––––––––––––––-
1 | 0:00.00 | 3:28.18 | 0 | 15617
2 | 3:28.18 | 3:38.40 | 15618 | 32007
3 | 7:06.58 | 3:21.62 | 32008 | 47144
4 | 10:28.45 | 3:48.62 | 47145 | 64306
5 | 14:17.32 | 3:51.42 | 64307 | 81673
6 | 18:08.74 | 3:29.59 | 81674 | 97407
7 | 21:38.58 | 3:57.69 | 97408 | 115251
8 | 25:36.52 | 4:02.03 | 115252 | 133404
9 | 29:38.55 | 3:29.27 | 133405 | 149106
10 | 33:08.07 | 3:48.27 | 149107 | 166233
11 | 36:56.34 | 3:36.18 | 166234 | 182451
12 | 40:32.52 | 4:06.09 | 182452 | 200910


Характеристики диапазона извлечения и сообщения об ошибках

Выбранный диапазон

Имя файла C:\cuntfist\FLAC\Max Barskih - Туманы (Mists) (2016) [FLAC]\Max Barskih - Туманы (Mists).wav

Пиковый уровень 99.9 %
Скорость извлечения 8.1 X
Качество диапазона 100.0 %
CRC теста F2A8F3B8
CRC копии F2A8F3B8
Копирование… OK

Ошибок не произошло


AccurateRip: сводка

Трек 1 отсутствует в базе данных
Трек 2 отсутствует в базе данных
Трек 3 отсутствует в базе данных
Трек 4 отсутствует в базе данных
Трек 5 отсутствует в базе данных
Трек 6 отсутствует в базе данных
Трек 7 отсутствует в базе данных
Трек 8 отсутствует в базе данных
Трек 9 отсутствует в базе данных
Трек 10 отсутствует в базе данных
Трек 11 отсутствует в базе данных
Трек 12 отсутствует в базе данных

Ни одного трека нет в базе AccurateRip

Конец отчёта

==== Контрольная сумма отчёта 8B3E6239548173508D72E8083E42D40B582A9056943EB11D7750EDE28B29EF0B ====


Max Barskih - Туманы (Mists) (2016)


Thank you to the original uploader.