Subcategories

Mushroom with Eddie Gale - Joint Happening (2007) {Hyena}

Posted By: TestTickles
Mushroom with Eddie Gale - Joint Happening (2007) {Hyena}

Mushroom with Eddie Gale - Joint Happening (2007) {Hyena}
EAC Rip | FLAC with CUE and log | scans | 434 mb
MP3 CBR 320kbps | RAR | 156 mb
Genre: jazz

Joint Happening is a 2007 album by the groupo Mushroom, who bring in trumpeter Eddie Gale to help them out. This was released on the Hyena label.

Mushroom with Eddie Gale - Joint Happening (2007) {Hyena}

1. Peace (7:39)
2. I Don't Need To Fight, To Prove I'm Right, I Don't Need To Be Forgiven (9:30)
3. I Was Torn Down At The Dance Place, Shaved Head At The Organ (18:11)
4. Border Crossing (8:01)
5. Selling Oakland By The Pound (3:20)
6. Our Love (8:03)
7. The Spirit (15:23)

Eddie Gale-trumpet
Pat Thomas-drums, congas (track 1)
Ned Doherty-bass
Matt Henry Gunitz-Mellotron flutes & cello (track 1), Rhodes (tracks 1, 2 & 6), Clavinet (track 1), acoustic upright piano (songs 3, 5 & 7), Hammond C-3 (track 6), Minimoog (tracks 2 & 4), Yamaha Electone (tracks 3 & 7), Korg MS-10 synthesizer (track 7)

Tim Plowman-guitar (tracks 1, 2, 4 & 6)
David Brandt-vibraphone, congas, djembe, percussion (tracks 1, 2, 4 & 6)
Eric Person-guitar, flute, saxophone (tracks 3, 5 & 7)
Dave Mihaly-marimba, percussives, admirable restraint (tracks 3, 5 & 7)

Production supervisor: Pat Thomas
Production assistance: Matt Cunitz
Editing & mastering by Wally Sound

EAC extraction logfile from 25. June 2017, 21:41 for CD
Mushroom with Eddie Gale / Joint Happening

Used drive : TSSTcorpDVD+-RW TS-H653B Adapter: 2 ID: 0
Read mode : Secure with NO C2, accurate stream, disable cache
Read offset correction : 6
Overread into Lead-In and Lead-Out : No

Used output format : Internal WAV Routines
44.100 Hz; 16 Bit; Stereo

Other options :
Fill up missing offset samples with silence : Yes
Delete leading and trailing silent blocks : No
Native Win32 interface for Win NT & 2000


Track 1
Filename C:\Documents and Settings\Desktop\FLAC's\08\Mushroom with Eddie Gale - Joint Happening (2007) [FLAC] {Hyena}\01 - Peace.wav

Pre-gap length 0:00:02.00

Peak level 99.9 %
Track quality 100.0 %
Test CRC A26EFB0C
Copy CRC A26EFB0C
Copy OK

Track 2
Filename C:\Documents and Settings\Desktop\FLAC's\08\Mushroom with Eddie Gale - Joint Happening (2007) [FLAC] {Hyena}\02 - I Don't Need To Fight, To Prove I'm Right - I Don't Need To Be Forgiven.wav

Peak level 99.9 %
Track quality 100.0 %
Test CRC F6AFD840
Copy CRC F6AFD840
Copy OK

Track 3
Filename C:\Documents and Settings\Desktop\FLAC's\08\Mushroom with Eddie Gale - Joint Happening (2007) [FLAC] {Hyena}\03 - I Was Torn Down At The Dance Place-Shaved Head At The Organ.wav

Peak level 96.6 %
Track quality 99.9 %
Test CRC EA5A469B
Copy CRC EA5A469B
Copy OK

Track 4
Filename C:\Documents and Settings\Desktop\FLAC's\08\Mushroom with Eddie Gale - Joint Happening (2007) [FLAC] {Hyena}\04 - Border Crossing.wav

Peak level 99.9 %
Track quality 99.9 %
Test CRC A099394A
Copy CRC A099394A
Copy OK

Track 5
Filename C:\Documents and Settings\Desktop\FLAC's\08\Mushroom with Eddie Gale - Joint Happening (2007) [FLAC] {Hyena}\05 - Selling Oakland By The Pound.wav

Peak level 96.6 %
Track quality 100.0 %
Test CRC 24BBDB8B
Copy CRC 24BBDB8B
Copy OK

Track 6
Filename C:\Documents and Settings\Desktop\FLAC's\08\Mushroom with Eddie Gale - Joint Happening (2007) [FLAC] {Hyena}\06 - Our Love.wav

Peak level 99.9 %
Track quality 100.0 %
Test CRC FE9005B9
Copy CRC FE9005B9
Copy OK

Track 7
Filename C:\Documents and Settings\Desktop\FLAC's\08\Mushroom with Eddie Gale - Joint Happening (2007) [FLAC] {Hyena}\07 - The Spirit.wav

Peak level 100.0 %
Track quality 100.0 %
Test CRC 416DACA1
Copy CRC 416DACA1
Copy OK

No errors occured


End of status report


Mushroom with Eddie Gale - Joint Happening (2007) {Hyena}