Subcategories

Madonna - Confessions On A Dance Floor (2005)

Posted By: v3122
Madonna - Confessions On A Dance Floor (2005)

Madonna - Confessions On A Dance Floor (2005)
EAC | Flac(Image) + Cue + Log & MP3 CBR 320Kbps
2006 | Warner Music Japan, WPZR-30184-5 | ~ 435 or 133 Mb | Scans(png) -> 906 Mb
Pop / Electronic / Dance

Given the cold shoulder Madonna's 2003 album American Life received by critics and audiences alike – it may have gone platinum, but apart from the Bond theme “Die Another Day,” released in advance of the album, it generated no new Top Ten singles (in fact, its title track barely cracked the Top 40) – it's hard not to read its 2005 follow-up, Confessions on a Dance Floor, as a back-to-basics move of sorts: after a stumble, she's returning to her roots, namely the discos and clubs where she launched her career in the early '80s. It's not just that she's returning to dance music – in a way, she's been making hardcore dance albums ever since 1998's Ray of Light, her first full-on flirtation with electronica – but that she's revamping and updating disco on Confessions instead of pursuing a bolder direction. While it's true to a certain extent that contemporary dance music is still recycling and reinventing these songs – besides, anything '80s is in vogue in 2005 – coming from Madonna, it sounds like a retreat, an inadvertent apology that she's no longer on the cutting edge, or at least an admission that she's inching ever closer to 50. And no matter how she may disguise it beneath glistening layers of synths, or by sequencing the album as a nonstop party, Confessions on a Dance Floor is the first album where Madonna seems like a veteran musician. Not only is there a sense of conscious craft to the album, in how the sounds and the songs segue together, but in how it explicitly references the past – both her own and club music in the larger sense – the music seems disassociated from the present; Madonna is reworking familiar territory, not pushing forward, in a manner not dissimilar to how her former opening act the Beastie Boys returned to old-school rap on their defiantly old-fashioned 2004 album To the 5 Boroughs.
But where the Beasties are buoyed by their camaraderie, Madonna has always been a stubborn individual, working well with collaborators but always, without question, existing on her own terms, and this obstinate nature is calcifying slightly into isolation on Confessions. There's no emotional hook in the music, either in its icy surface or in the lyrics, and the hard-headed intention to deliver a hardcore dance album means that this feels cold and calculated, never warm or infectious. Of course, Madonna has always been calculated in her career, often to great effect, and this calculation does pay some dividends here. Taken on a purely sonic level, Confessions on a Dance Floor does its job: with the assistance of co-producer Stuart Price (Bloodshy & Avant produce two tracks, Mirwais produces one, while another was originally produced by Anders Bagge and Peer Astrom), she not only maintains the mood, but keeps the music moving nicely, never letting one track linger any longer than necessary. This is shimmering music falling just short of sexy, yet it's alluring enough on the surface to make for a perfect soundtrack for pitch-black nights. That's what the album was designed to do, and it works well on that level. It works well as a whole, but as a collection of individual tracks it falls apart, since there is a distinct lack of melodic or lyrical hooks. But Confessions wasn't intended to be pop music – as the title makes clear, it was made for the dance clubs or, in other words, Madonna's core audience, who will surely be pleased by this sleek slice of style. But the fact that she's making music just for her core audience, not for the mass audience that she's had for 20 years, is yet another indication that Madge is slyly, slowly settling into her new status as a veteran (or perhaps as a survivor), and while she succeeds rather handsomely on those modest terms, it's more than a little odd to hear Madonna scaling back her ambition and settling for less rather than hungering for more.

by Stephen Thomas Erlewine, allmusic
Madonna - Confessions On A Dance Floor (2005)


Madonna - Confessions On A Dance Floor (2005):

Madonna - Confessions On A Dance Floor (2005)

Tracklist:

01. Hung Up [0:05:36.23]
02. Get Together [0:05:30.38]
03. Sorry [0:04:43.20]
04. Future Lovers [0:04:51.21]
05. I Love New York [0:04:11.47]
06. Let It Will Be [0:04:18.39]
07. Forbidden Love [0:04:22.16]
08. Jump [0:03:46.33]
09. How High [0:04:40.04]
10. Isaac [0:06:03.44]
11. Push [0:03:57.02]
12. Like It Or Not [0:04:31.69]

Exact Audio Copy V1.3 from 2. September 2016

EAC extraction logfile from 25. December 2016, 0:03

Madonna / Confessions On A Dance Floor

Used drive : PLEXTOR DVDR PX-810SA Adapter: 1 ID: 0

Read mode : Secure
Utilize accurate stream : Yes
Defeat audio cache : Yes
Make use of C2 pointers : No

Read offset correction : 48
Overread into Lead-In and Lead-Out : No
Fill up missing offset samples with silence : Yes
Delete leading and trailing silent blocks : No
Null samples used in CRC calculations : Yes
Used interface : Installed external ASPI interface

Used output format : User Defined Encoder
Selected bitrate : 1024 kBit/s
Quality : High
Add ID3 tag : No
Command line compressor : C:\Program Files (x86)\Exact Audio Copy\Flac\flac.exe
Additional command line options : -8 -V -T "Date=%year%" -T "Genre=%genre%" -T "COMMENT=ripped by bvstudio®" %source%


TOC of the extracted CD

Track | Start | Length | Start sector | End sector
––––––––––––––––––––––––––––-
1 | 0:00.00 | 5:36.23 | 0 | 25222
2 | 5:36.23 | 5:30.38 | 25223 | 50010
3 | 11:06.61 | 4:43.20 | 50011 | 71255
4 | 15:50.06 | 4:51.21 | 71256 | 93101
5 | 20:41.27 | 4:11.47 | 93102 | 111973
6 | 24:52.74 | 4:18.39 | 111974 | 131362
7 | 29:11.38 | 4:22.16 | 131363 | 151028
8 | 33:33.54 | 3:46.33 | 151029 | 168011
9 | 37:20.12 | 4:40.04 | 168012 | 189015
10 | 42:00.16 | 6:03.44 | 189016 | 216284
11 | 48:03.60 | 3:57.02 | 216285 | 234061
12 | 52:00.62 | 4:31.69 | 234062 | 254455


Range status and errors

Selected range

Filename F:\Madonna - Discography\2005 - Confessions On A Dance Floor (2005 - Warner Bros. Records Inc. • Warner Music Japan Inc. - Japan - WPZR-30184-5)\Madonna - Confessions On A Dance Floor.wav

Peak level 100.0 %
Extraction speed 7.1 X
Range quality 99.9 %
Test CRC 7758F6ED
Copy CRC 7758F6ED
Copy OK

No errors occurred


AccurateRip summary

Track 1 accurately ripped (confidence 200) [3523175A] (AR v2)
Track 2 accurately ripped (confidence 200) [D89F8176] (AR v2)
Track 3 accurately ripped (confidence 200) [B3A3B975] (AR v2)
Track 4 accurately ripped (confidence 200) [B8C0B94D] (AR v2)
Track 5 accurately ripped (confidence 200) [1035F77A] (AR v2)
Track 6 accurately ripped (confidence 200) [83E0DF12] (AR v2)
Track 7 accurately ripped (confidence 200) [F3A40C63] (AR v2)
Track 8 accurately ripped (confidence 200) [6E8E1688] (AR v2)
Track 9 accurately ripped (confidence 200) [31B4DED4] (AR v2)
Track 10 accurately ripped (confidence 200) [897513C7] (AR v2)
Track 11 accurately ripped (confidence 200) [963268AD] (AR v2)
Track 12 accurately ripped (confidence 200) [06F52DE3] (AR v2)

All tracks accurately ripped

End of status report

–– CUETools DB Plugin V2.1.6

[CTDB TOCID: 7iuETG9ufhzRvhksB_bNWfCFCC8-] found
Submit result: 7iuETG9ufhzRvhksB_bNWfCFCC8- has been confirmed
Track | CTDB Status
1 | (1814/1847) Accurately ripped, or (2/1847) differs in 209 samples @00:16:46, or (6/1847) differs in 11 samples @00:07:55,05:15:35
2 | (1832/1847) Accurately ripped
3 | (1833/1847) Accurately ripped
4 | (1830/1847) Accurately ripped
5 | (1836/1847) Accurately ripped
6 | (1836/1847) Accurately ripped
7 | (1836/1847) Accurately ripped
8 | (1830/1847) Accurately ripped
9 | (1835/1847) Accurately ripped
10 | (1825/1847) Accurately ripped
11 | (1822/1847) Accurately ripped
12 | (1825/1847) Accurately ripped


==== Log checksum 767BB635F3702C80F7CDCB988F87C3E20B3BFDA2B29F1D30EFB3E970FBC3DC0F ====

foobar2000 1.3.14 / Dynamic Range Meter 1.1.1
log date: 2016-12-26 15:02:06

––––––––––––––––––––––––––––––––––––––––
Analyzed: Madonna / Confessions On A Dance Floor
––––––––––––––––––––––––––––––––––––––––

DR Peak RMS Duration Track
––––––––––––––––––––––––––––––––––––––––
DR7 -0.06 dB -8.08 dB 5:36 01-Hung Up
DR6 -0.29 dB -7.36 dB 5:31 02-Get Together
DR5 -0.36 dB -7.34 dB 4:43 03-Sorry
DR5 -0.01 dB -8.21 dB 4:51 04-Future Lovers
DR6 -0.10 dB -7.69 dB 4:12 05-I Love New York
DR6 -0.10 dB -8.66 dB 4:19 06-Let It Will Be
DR7 -0.10 dB -9.40 dB 4:22 07-Forbidden Love
DR6 -0.10 dB -7.87 dB 3:46 08-Jump
DR6 -0.01 dB -8.87 dB 4:40 09-How High
DR6 0.00 dB -8.28 dB 6:04 10-Isaac
DR7 0.00 dB -8.22 dB 3:57 11-Push
DR6 0.00 dB -7.17 dB 4:32 12-Like It Or Not
––––––––––––––––––––––––––––––––––––––––

Number of tracks: 12
Official DR value: DR6

Samplerate: 44100 Hz
Channels: 2
Bits per sample: 16
Bitrate: 1044 kbps
Codec: FLAC

[CUETools log; Date: 02.02.2017 18:32:10; Version: 2.1.4]
[CTDB TOCID: 7iuETG9ufhzRvhksB_bNWfCFCC8-] found.
Track | CTDB Status
1 | (1886/1919) Accurately ripped, or (2/1919) differs in 209 samples @00:16:46, or (6/1919) differs in 11 samples @00:07:55,05:15:35
2 | (1903/1919) Accurately ripped
3 | (1904/1919) Accurately ripped
4 | (1901/1919) Accurately ripped
5 | (1907/1919) Accurately ripped
6 | (1907/1919) Accurately ripped
7 | (1906/1919) Accurately ripped
8 | (1901/1919) Accurately ripped
9 | (1905/1919) Accurately ripped
10 | (1896/1919) Accurately ripped
11 | (1893/1919) Accurately ripped
12 | (1895/1919) Accurately ripped
[AccurateRip ID: 0019e02d-00eec7c2-9c0d400c] found.
Track [ CRC | V2 ] Status
01 [f3f42219|3523175a] (200+200/1689) Accurately ripped
02 [4462daa6|d89f8176] (200+200/1695) Accurately ripped
03 [ba42ddab|b3a3b975] (200+200/1698) Accurately ripped
04 [5f38eade|b8c0b94d] (200+200/1692) Accurately ripped
05 [e1619ec3|1035f77a] (200+200/1689) Accurately ripped
06 [269bfe3c|83e0df12] (200+200/1688) Accurately ripped
07 [543e353e|f3a40c63] (200+200/1691) Accurately ripped
08 [7a159f20|6e8e1688] (200+200/1688) Accurately ripped
09 [e6596f08|31b4ded4] (200+200/1676) Accurately ripped
10 [f2e0e526|897513c7] (200+200/1685) Accurately ripped
11 [203d90b6|963268ad] (200+200/1684) Accurately ripped
12 [b1f45b8f|06f52de3] (200+200/1809) Accurately ripped
Offsetted by -1978:
01 [b6b1aca1] (016/1689) Accurately ripped
02 [f4bb24f1] (016/1695) Accurately ripped
03 [55657f3b] (016/1698) Accurately ripped
04 [e5b807bc] (015/1692) Accurately ripped
05 [9679e381] (015/1689) Accurately ripped
06 [5e5be251] (016/1688) Accurately ripped
07 [e0fad45c] (015/1691) Accurately ripped
08 [9a52b453] (016/1688) Accurately ripped
09 [b601c6be] (015/1676) Accurately ripped
10 [f25be37c] (015/1685) Accurately ripped
11 [fe3753c2] (015/1684) Accurately ripped
12 [0e911bf8] (014/1809) Accurately ripped
Offsetted by -1352:
01 [96bd0fbf] (002/1689) Accurately ripped
02 [012a757c] (002/1695) Accurately ripped
03 [87979bb1] (002/1698) Accurately ripped
04 [af26b3cb] (002/1692) Accurately ripped
05 [bd19f648] (002/1689) Accurately ripped
06 [16708b25] (002/1688) Accurately ripped
07 [ae28351e] (002/1691) Accurately ripped
08 [8224f4df] (002/1688) Accurately ripped
09 [f8890e16] (002/1676) Accurately ripped
10 [c8e332b2] (002/1685) Accurately ripped
11 [1175c53d] (002/1684) Accurately ripped
12 [4b1612f2] (002/1809) Accurately ripped
Offsetted by -1310:
01 [d97a6459] (002/1689) Accurately ripped
02 [71180775] (002/1695) Accurately ripped
03 [73865e12] (002/1698) Accurately ripped
04 [347aee62] (002/1692) Accurately ripped
05 [f0ef9d28] (002/1689) Accurately ripped
06 [d2937a4c] (002/1688) Accurately ripped
07 [1f6f195c] (002/1691) Accurately ripped
08 [468a25b0] (002/1688) Accurately ripped
09 [566c324d] (002/1676) Accurately ripped
10 [967f2f79] (002/1685) Accurately ripped
11 [4dee2a94] (002/1684) Accurately ripped
12 [ab0ace6a] (002/1809) Accurately ripped
Offsetted by -756:
01 [bccec7ce] (004/1689) Accurately ripped
02 [f5fc30fe] (004/1695) Accurately ripped
03 [1ecc1714] (004/1698) Accurately ripped
04 [aa0b9074] (004/1692) Accurately ripped
05 [ce1fbeba] (004/1689) Accurately ripped
06 [6f742fc0] (004/1688) Accurately ripped
07 [90b6b5db] (004/1691) Accurately ripped
08 [342c983d] (004/1688) Accurately ripped
09 [32f6d076] (004/1676) Accurately ripped
10 [70e2431f] (004/1685) Accurately ripped
11 [708171c2] (004/1684) Accurately ripped
12 [5b883087] (004/1809) Accurately ripped
Offsetted by -694:
01 [ab9268be] (002/1689) Accurately ripped
02 [758906ac] (002/1695) Accurately ripped
03 [9a71b839] (002/1698) Accurately ripped
04 [37679a9e] (002/1692) Accurately ripped
05 [4cfd6074] (002/1689) Accurately ripped
06 [e2925c2e] (002/1688) Accurately ripped
07 [39e91b3e] (002/1691) Accurately ripped
08 [40699a38] (002/1688) Accurately ripped
09 [807313f2] (002/1676) Accurately ripped
10 [ae8afadd] (002/1685) Accurately ripped
11 [cc649555] (002/1684) Accurately ripped
12 [a1aa1969] (002/1809) Accurately ripped
Offsetted by -676:
01 [562fa139] (002/1689) Accurately ripped
02 [54301552] (002/1695) Accurately ripped
03 [7e7521dc] (002/1698) Accurately ripped
04 [0aff9e4f] (002/1692) Accurately ripped
05 [7e952329] (002/1689) Accurately ripped
06 [5801d829] (002/1688) Accurately ripped
07 [c1d80a74] (002/1691) Accurately ripped
08 [e8b65ef6] (002/1688) Accurately ripped
09 [a46b6a62] (002/1676) Accurately ripped
10 [4d709cab] (002/1685) Accurately ripped
11 [9b9b5100] (002/1684) Accurately ripped
12 [df9ca9d5] (002/1809) Accurately ripped
Offsetted by -670:
01 [4183d1a1] (018/1689) Accurately ripped
02 [834b3e6f] (018/1695) Accurately ripped
03 [c25bb569] (017/1698) Accurately ripped
04 [b0330baa] (018/1692) Accurately ripped
05 [6bd882b1] (018/1689) Accurately ripped
06 [55dbc701] (018/1688) Accurately ripped
07 [7341d6b4] (018/1691) Accurately ripped
08 [49e576e8] (017/1688) Accurately ripped
09 [5af591bf] (017/1676) Accurately ripped
10 [e18fb686] (018/1685) Accurately ripped
11 [d46af229] (018/1684) Accurately ripped
12 [1023431f] (017/1809) Accurately ripped
Offsetted by -664:
01 [20c6f5fe] (200/1689) Accurately ripped
02 [a9a831e4] (200/1695) Accurately ripped
03 [8da7f626] (200/1698) Accurately ripped
04 [4f4eb15a] (200/1692) Accurately ripped
05 [20f8629c] (200/1689) Accurately ripped
06 [49ef3479] (200/1688) Accurately ripped
07 [e29b38bd] (200/1691) Accurately ripped
08 [e26eaaa9] (200/1688) Accurately ripped
09 [8b877da3] (200/1676) Accurately ripped
10 [75348bb0] (200/1685) Accurately ripped
11 [860eab3a] (200/1684) Accurately ripped
12 [16ab4ad2] (200/1809) Accurately ripped
Offsetted by -658:
01 [819a4f44] (022/1689) Accurately ripped
02 [7d568482] (022/1695) Accurately ripped
03 [d1f39552] (021/1698) Accurately ripped
04 [c6edda25] (021/1692) Accurately ripped
05 [e32da7da] (021/1689) Accurately ripped
06 [4d36e034] (021/1688) Accurately ripped
07 [912dabfc] (021/1691) Accurately ripped
08 [97745012] (020/1688) Accurately ripped
09 [8f1e4dbc] (020/1676) Accurately ripped
10 [01ee0613] (020/1685) Accurately ripped
11 [488fd19b] (020/1684) Accurately ripped
12 [d90058f7] (019/1809) Accurately ripped
Offsetted by -652:
01 [dcdf9247] (005/1689) Accurately ripped
02 [2687e20a] (005/1695) Accurately ripped
03 [fb4d27c9] (005/1698) Accurately ripped
04 [ae9a0665] (005/1692) Accurately ripped
05 [5fa06aec] (005/1689) Accurately ripped
06 [bd19e6f3] (004/1688) Accurately ripped
07 [0b024cf9] (005/1691) Accurately ripped
08 [3e4f899f] (004/1688) Accurately ripped
09 [f677b96b] (005/1676) Accurately ripped
10 [86b3ab5f] (005/1685) Accurately ripped
11 [70628254] (005/1684) Accurately ripped
12 [97102820] (005/1809) Accurately ripped
Offsetted by -646:
01 [a191792e] (081/1689) Accurately ripped
02 [cb4ae764] (079/1695) Accurately ripped
03 [bee8da6e] (080/1698) Accurately ripped
04 [409ab244] (080/1692) Accurately ripped
05 [10bacf43] (080/1689) Accurately ripped
06 [60d5a24c] (080/1688) Accurately ripped
07 [9e65214d] (080/1691) Accurately ripped
08 [8bffc236] (080/1688) Accurately ripped
09 [39f733d1] (081/1676) Accurately ripped
10 [751dddf5] (081/1685) Accurately ripped
11 [c91f61af] (080/1684) Accurately ripped
12 [130885af] (078/1809) Accurately ripped
Offsetted by -132:
01 [361e9c3d] (003/1689) Accurately ripped
02 [3e819fbf] (003/1695) Accurately ripped
03 [a3269870] (003/1698) Accurately ripped
04 [4962240e] (003/1692) Accurately ripped
05 [079ed4f2] (003/1689) Accurately ripped
06 [cb5d7fa4] (003/1688) Accurately ripped
07 [c0423730] (003/1691) Accurately ripped
08 [7bb81fa6] (003/1688) Accurately ripped
09 [8a298d3a] (003/1676) Accurately ripped
10 [8b0e11c2] (003/1685) Accurately ripped
11 [6f6516c9] (003/1684) Accurately ripped
12 [6ab02b1d] (002/1809) Accurately ripped
Offsetted by -119:
01 [4f5b3d28] (002/1689) Accurately ripped
02 [09becd6b] (002/1695) Accurately ripped
03 [803158fc] (002/1698) Accurately ripped
04 [1c912170] (002/1692) Accurately ripped
05 [cae45a3e] (002/1689) Accurately ripped
06 [3aff5511] (002/1688) Accurately ripped
07 [a8b0af52] (002/1691) Accurately ripped
08 [93ca17a0] (002/1688) Accurately ripped
09 [3e763b37] (002/1676) Accurately ripped
10 [5ab485b1] (002/1685) Accurately ripped
11 [6e893055] (002/1684) Accurately ripped
12 [ab53452c] (002/1809) Accurately ripped
Offsetted by -72:
01 [0c78321a] (005/1689) Accurately ripped
02 [69c9ab38] (004/1695) Accurately ripped
03 [fa223fd3] (004/1698) Accurately ripped
04 [bc11b658] (004/1692) Accurately ripped
05 [bcb28e6d] (004/1689) Accurately ripped
06 [a23bf8ff] (004/1688) Accurately ripped
07 [eddd583b] (004/1691) Accurately ripped
08 [f0c8d8cf] (003/1688) Accurately ripped
09 [8bab668e] (003/1676) Accurately ripped
10 [727363ad] (004/1685) Accurately ripped
11 [0cc8ffa5] (003/1684) Accurately ripped
12 [59875fdd] (003/1809) Accurately ripped
Offsetted by -66:
01 [f6f3ca70] (003/1689) Accurately ripped
02 [0be00595] (006/1695) Accurately ripped
03 [dde01552] (006/1698) Accurately ripped
04 [186f0bc0] (007/1692) Accurately ripped
05 [ec49e3de] (006/1689) Accurately ripped
06 [a38b8c72] (007/1688) Accurately ripped
07 [e2617714] (007/1691) Accurately ripped
08 [f4b7b979] (005/1688) Accurately ripped
09 [45d806cf] (005/1676) Accurately ripped
10 [29bf2631] (005/1685) Accurately ripped
11 [7520f1c5] (006/1684) Accurately ripped
12 [f7f02025] (004/1809) Accurately ripped
Offsetted by -24:
01 [71a84189] (003/1689) Accurately ripped
02 [eabc678f] (003/1695) Accurately ripped
03 [efca3129] (003/1698) Accurately ripped
04 [4c2c0a40] (003/1692) Accurately ripped
05 [1069cf75] (003/1689) Accurately ripped
06 [89da7c94] (003/1688) Accurately ripped
07 [a92cccfc] (003/1691) Accurately ripped
08 [b3e89171] (003/1688) Accurately ripped
09 [8314517c] (003/1676) Accurately ripped
10 [97781dd6] (003/1685) Accurately ripped
11 [e447219e] (003/1684) Accurately ripped
12 [778d5f65] (003/1809) Accurately ripped
Offsetted by -12:
01 [132b7ff2] (036/1689) Accurately ripped
02 [8927511c] (037/1695) Accurately ripped
03 [45658077] (037/1698) Accurately ripped
04 [bfc4b364] (037/1692) Accurately ripped
05 [ef0cc478] (036/1689) Accurately ripped
06 [c4f2fb05] (037/1688) Accurately ripped
07 [a1aa3832] (036/1691) Accurately ripped
08 [31d98bbb] (035/1688) Accurately ripped
09 [e29dae0c] (036/1676) Accurately ripped
10 [47b4081f] (036/1685) Accurately ripped
11 [79fe5df7] (036/1684) Accurately ripped
12 [5d596277] (024/1809) Accurately ripped
More than 16 offsets match!
Offsetted by -1426:
01 [19efd7ae] (000/1689) No match (V2 was not tested)
02 [d7b12d65] (002/1695) Accurately ripped
03 [3f04c184] (002/1698) Accurately ripped
04 [1c9c642c] (002/1692) Accurately ripped
05 [3955495c] (002/1689) Accurately ripped
06 [25635c25] (002/1688) Accurately ripped
07 [bc9eb3bd] (002/1691) Accurately ripped
08 [c7f30dc2] (002/1688) Accurately ripped
09 [a825cf40] (002/1676) Accurately ripped
10 [82d3aa18] (002/1685) Accurately ripped
11 [4ca0d49f] (002/1684) Accurately ripped
12 [7aade7bc] (002/1809) Accurately ripped
Offsetted by -1340:
01 [cec8a019] (000/1689) No match (V2 was not tested)
02 [e039e561] (000/1695) No match (V2 was not tested)
03 [7ce4abd4] (000/1698) No match (V2 was not tested)
04 [a35babfd] (000/1692) No match (V2 was not tested)
05 [d317c30f] (000/1689) No match (V2 was not tested)
06 [9ba5b892] (000/1688) No match (V2 was not tested)
07 [5f7dfc3a] (000/1691) No match (V2 was not tested)
08 [d3981182] (000/1688) No match (V2 was not tested)
09 [3a166794] (000/1676) No match (V2 was not tested)
10 [dbfca25b] (000/1685) No match (V2 was not tested)
11 [0079fb4d] (000/1684) No match (V2 was not tested)
12 [0dd08690] (000/1809) No match (V2 was not tested)
Offsetted by -1331:
01 [22b81420] (000/1689) No match (V2 was not tested)
02 [46f7e6e9] (000/1695) No match (V2 was not tested)
03 [cafeb1f4] (000/1698) No match (V2 was not tested)
04 [335ed9aa] (000/1692) No match (V2 was not tested)
05 [81d349f6] (000/1689) No match (V2 was not tested)
06 [8361e6b3] (000/1688) No match (V2 was not tested)
07 [819f8a27] (000/1691) No match (V2 was not tested)
08 [aec45de7] (000/1688) No match (V2 was not tested)
09 [111fcbd5] (000/1676) No match (V2 was not tested)
10 [343991eb] (000/1685) No match (V2 was not tested)
11 [c94c9942] (000/1684) No match (V2 was not tested)
12 [9bf1e5ed] (000/1809) No match (V2 was not tested)
Offsetted by -784:
01 [939d3003] (000/1689) No match (V2 was not tested)
02 [c20cac55] (002/1695) Accurately ripped
03 [5096b182] (002/1698) Accurately ripped
04 [b129e4fd] (002/1692) Accurately ripped
05 [7a61fa8a] (002/1689) Accurately ripped
06 [fb84a970] (002/1688) Accurately ripped
07 [edc56e21] (002/1691) Accurately ripped
08 [433db3f9] (002/1688) Accurately ripped
09 [179f59bd] (002/1676) Accurately ripped
10 [162e1902] (002/1685) Accurately ripped
11 [bef2bb71] (002/1684) Accurately ripped
12 [d32ea7b9] (002/1809) Accurately ripped
Offsetted by -760:
01 [ed8b8165] (000/1689) No match (V2 was not tested)
02 [a62f38bf] (000/1695) No match (V2 was not tested)
03 [fe60d582] (000/1698) No match (V2 was not tested)
04 [fb5f513c] (000/1692) No match (V2 was not tested)
05 [34df28a4] (000/1689) No match (V2 was not tested)
06 [f7a75d42] (000/1688) No match (V2 was not tested)
07 [b9e65002] (000/1691) No match (V2 was not tested)
08 [7d51378f] (000/1688) No match (V2 was not tested)
09 [780f1c9b] (000/1676) No match (V2 was not tested)
10 [b136e74f] (000/1685) No match (V2 was not tested)
11 [eb7dd682] (000/1684) No match (V2 was not tested)
12 [0f3c7857] (000/1809) No match (V2 was not tested)
Offsetted by -736:
01 [f98b3dbf] (000/1689) No match (V2 was not tested)
02 [a4c54e5f] (002/1695) Accurately ripped
03 [d005be3a] (002/1698) Accurately ripped
04 [b189f77a] (002/1692) Accurately ripped
05 [3494bf3f] (002/1689) Accurately ripped
06 [91711d33] (002/1688) Accurately ripped
07 [4690f2e4] (002/1691) Accurately ripped
08 [c9525cae] (002/1688) Accurately ripped
09 [206cfd8e] (002/1676) Accurately ripped
10 [f757762a] (002/1685) Accurately ripped
11 [13cbb09e] (002/1684) Accurately ripped
12 [d7f0b8ec] (002/1809) Accurately ripped
Offsetted by -730:
01 [e5d61f65] (000/1689) No match (V2 was not tested)
02 [1c0434da] (000/1695) No match (V2 was not tested)
03 [d06014f7] (000/1698) No match (V2 was not tested)
04 [96e2b31a] (000/1692) No match (V2 was not tested)
05 [5f920440] (000/1689) No match (V2 was not tested)
06 [a0b2a310] (000/1688) No match (V2 was not tested)
07 [8d8cd44e] (000/1691) No match (V2 was not tested)
08 [dd969f16] (000/1688) No match (V2 was not tested)
09 [9de9b58e] (000/1676) No match (V2 was not tested)
10 [36e73813] (000/1685) No match (V2 was not tested)
11 [261e6ca3] (000/1684) No match (V2 was not tested)
12 [d275ede6] (000/1809) No match (V2 was not tested)
Offsetted by -712:
01 [19e65320] (000/1689) No match (V2 was not tested)
02 [666b5641] (000/1695) No match (V2 was not tested)
03 [3fd6d472] (000/1698) No match (V2 was not tested)
04 [672ce2d0] (000/1692) No match (V2 was not tested)
05 [d8803ed6] (000/1689) No match (V2 was not tested)
06 [15615f41] (000/1688) No match (V2 was not tested)
07 [d56d8227] (000/1691) No match (V2 was not tested)
08 [2e290d5f] (000/1688) No match (V2 was not tested)
09 [df2b8b67] (000/1676) No match (V2 was not tested)
10 [0d953d6b] (000/1685) No match (V2 was not tested)
11 [29a65e3b] (000/1684) No match (V2 was not tested)
12 [5c36889b] (000/1809) No match (V2 was not tested)
Offsetted by -691:
01 [41c99f58] (000/1689) No match (V2 was not tested)
02 [991ad047] (000/1695) No match (V2 was not tested)
03 [32470656] (000/1698) No match (V2 was not tested)
04 [610ae1f1] (000/1692) No match (V2 was not tested)
05 [26e0dce9] (000/1689) No match (V2 was not tested)
06 [dcba6d9d] (000/1688) No match (V2 was not tested)
07 [4c267a2e] (000/1691) No match (V2 was not tested)
08 [6e683ab9] (000/1688) No match (V2 was not tested)
09 [86539752] (000/1676) No match (V2 was not tested)
10 [b1efc2a8] (000/1685) No match (V2 was not tested)
11 [dbcf9314] (000/1684) No match (V2 was not tested)
12 [7abe2cb8] (000/1809) No match (V2 was not tested)
Offsetted by -682:
01 [5abed285] (000/1689) No match (V2 was not tested)
02 [514607a0] (000/1695) No match (V2 was not tested)
03 [2650ba7a] (000/1698) No match (V2 was not tested)
04 [9374c9f4] (000/1692) No match (V2 was not tested)
05 [27eeb739] (000/1689) No match (V2 was not tested)
06 [2e40cbd0] (000/1688) No match (V2 was not tested)
07 [1e7d3e0a] (000/1691) No match (V2 was not tested)
08 [6b708558] (000/1688) No match (V2 was not tested)
09 [94a1baed] (000/1676) No match (V2 was not tested)
10 [8921ac6b] (000/1685) No match (V2 was not tested)
11 [b781f9e6] (000/1684) No match (V2 was not tested)
12 [94906ef6] (000/1809) No match (V2 was not tested)
Offsetted by -667:
01 [242b520b] (000/1689) No match (V2 was not tested)
02 [c23a8f43] (000/1695) No match (V2 was not tested)
03 [dbcb59b2] (002/1698) Accurately ripped
04 [82a3bb6e] (000/1692) No match (V2 was not tested)
05 [678e3a25] (002/1689) Accurately ripped
06 [f0e95341] (002/1688) Accurately ripped
07 [6dc1894a] (002/1691) Accurately ripped
08 [18903b9d] (002/1688) Accurately ripped
09 [3c13a954] (002/1676) Accurately ripped
10 [ad4884cc] (000/1685) No match (V2 was not tested)
11 [697a93a9] (000/1684) No match (V2 was not tested)
12 [9a7ac9a9] (000/1809) No match (V2 was not tested)
Offsetted by -264:
01 [61566564] (000/1689) No match (V2 was not tested)
02 [34bad3bc] (000/1695) No match (V2 was not tested)
03 [8bfe3a50] (000/1698) No match (V2 was not tested)
04 [2428e2c2] (000/1692) No match (V2 was not tested)
05 [409a28d2] (000/1689) No match (V2 was not tested)
06 [9c315aae] (000/1688) No match (V2 was not tested)
07 [80902c26] (000/1691) No match (V2 was not tested)
08 [636ff98e] (000/1688) No match (V2 was not tested)
09 [accfcba6] (000/1676) No match (V2 was not tested)
10 [552e5335] (000/1685) No match (V2 was not tested)
11 [363dfdbd] (000/1684) No match (V2 was not tested)
12 [f581b232] (000/1809) No match (V2 was not tested)
Offsetted by -126:
01 [eed6856b] (000/1689) No match (V2 was not tested)
02 [0682234a] (000/1695) No match (V2 was not tested)
03 [10698cf4] (000/1698) No match (V2 was not tested)
04 [c6c5d425] (000/1692) No match (V2 was not tested)
05 [aecfc49c] (000/1689) No match (V2 was not tested)
06 [e2db0923] (000/1688) No match (V2 was not tested)
07 [09912ee4] (000/1691) No match (V2 was not tested)
08 [ef157978] (000/1688) No match
09 [43870f76] (000/1676) No match
10 [1a04fdc9] (000/1685) No match (V2 was not tested)
11 [c643ab43] (000/1684) No match (V2 was not tested)
12 [8565d3e3] (000/1809) No match (V2 was not tested)
Offsetted by -120:
01 [f93dec86] (000/1689) No match (V2 was not tested)
02 [da6e0aa1] (000/1695) No match (V2 was not tested)
03 [5036ec36] (000/1698) No match (V2 was not tested)
04 [ec41c947] (000/1692) No match (V2 was not tested)
05 [43e33599] (000/1689) No match (V2 was not tested)
06 [d3aaeddd] (000/1688) No match (V2 was not tested)
07 [ad926041] (000/1691) No match (V2 was not tested)
08 [c161194f] (000/1688) No match (V2 was not tested)
09 [dffb760d] (000/1676) No match (V2 was not tested)
10 [7316e7cc] (000/1685) No match (V2 was not tested)
11 [4b90d902] (000/1684) No match (V2 was not tested)
12 [034f8863] (000/1809) No match (V2 was not tested)
Offsetted by -102:
01 [2ae8b5c4] (000/1689) No match (V2 was not tested)
02 [8c34b604] (000/1695) No match (V2 was not tested)
03 [169feea8] (000/1698) No match (V2 was not tested)
04 [35dda714] (000/1692) No match (V2 was not tested)
05 [6d34f65d] (000/1689) No match (V2 was not tested)
06 [44745e0f] (000/1688) No match (V2 was not tested)
07 [2bdf60ac] (000/1691) No match (V2 was not tested)
08 [a9f574bf] (000/1688) No match (V2 was not tested)
09 [bc13339a] (000/1676) No match (V2 was not tested)
10 [10ff7a03] (000/1685) No match (V2 was not tested)
11 [f3a09fe4] (000/1684) No match (V2 was not tested)
12 [4eaf3b62] (000/1809) No match (V2 was not tested)
Offsetted by -98:
01 [30055374] (000/1689) No match
02 [aab03963] (000/1695) No match (V2 was not tested)
03 [66605e56] (000/1698) No match
04 [3e5a13d3] (000/1692) No match
05 [6dd8bfe6] (000/1689) No match
06 [0d54eb92] (000/1688) No match
07 [44fdd4fe] (000/1691) No match
08 [13156eff] (000/1688) No match
09 [2cb721bb] (000/1676) No match
10 [69cab134] (000/1685) No match
11 [626d3d74] (000/1684) No match
12 [fa6407a6] (000/1809) No match
Offsetted by -36:
01 [9d026ef4] (000/1689) No match (V2 was not tested)
02 [ad129d31] (000/1695) No match (V2 was not tested)
03 [1618b65e] (000/1698) No match (V2 was not tested)
04 [9a9ef00e] (000/1692) No match (V2 was not tested)
05 [703e1e61] (000/1689) No match (V2 was not tested)
06 [2e6ceab1] (000/1688) No match (V2 was not tested)
07 [aefcbb92] (000/1691) No match (V2 was not tested)
08 [ac0c2ca1] (000/1688) No match (V2 was not tested)
09 [8d6849b0] (000/1676) No match (V2 was not tested)
10 [4833e9e7] (000/1685) No match (V2 was not tested)
11 [a5b0751e] (000/1684) No match (V2 was not tested)
12 [06a6ad59] (000/1809) No match (V2 was not tested)
More than 16 offsets match!

Track Peak [ CRC32 ] [W/O NULL] [ LOG ]
– 100,0 [7758F6ED] [1514F6F2] CRC32
01 99,3 [CC987BEF] [F38FF6D1]
02 96,7 [E89BB793] [58778193]
03 95,9 [539D3C3B] [70C0AE74]
04 99,9 [1A677186] [B7C6728A]
05 98,8 [6463D4EE] [0AA9E554]
06 98,8 [0B07A96D] [B94A118D]
07 98,8 [6CF0EDD3] [A72B1C8F]
08 98,8 [F6226C8C] [012AC7BB]
09 99,9 [172E60EC] [025E89F1]
10 100,0 [8207FE65] [81B7D6D6]
11 100,0 [6D8C6662] [01056E9F]
12 99,9 [5D0FA2FC] [CADB7D48]

Madonna - Confessions On A Dance Floor (2005)

All thanks go to bvstudio

Madonna in my Blog

Download Madonna - Confessions On A Dance Floor (2005):