Subcategories

Magdalena Malec, Christoph Urbanetz - Chamber Music of the Forqueray Family (2009)

Posted By: tirexiss
Magdalena Malec, Christoph Urbanetz - Chamber Music of the Forqueray Family (2009)

Magdalena Malec, Christoph Urbanetz - Chamber Music of the Forqueray Family (2009)
EAC | FLAC (tracks+.cue, log) | Covers Included | 01:46:27 | 676 MB
Genre: Classical | Label: Brilliant Classics | Catalog: 93802

This 2CD set aims to give the listener a good idea of the range of music composed by a remarkable musical dynasty, the Forqueray family. They were a family of organists, viol players and harpsichordists. They were every bit as remarkable as the other great musical dynasties, the Bendas, Stamitzs, Bachs, and the Strauss family. The most famous member of the Forqueray family (their Johann Sebastian) was Antoine, who was born in 1672, a virtuoso gambist. His output forms the backbone of the French repertoire for this instrument. None of his music was published during his lifetime, and his son Jean-Baptiste (born 1699), another viol player, devoted his time to publishing his father's works. Michel, born in 1681, and Nicolas-Gilles, born in 1703, were superb keyboard players. This set offers a rare chance to hear the music of all four composers, centred around characterful suites for harpsichord and viole da gamba but including songs.

Magdalena Malec, Christoph Urbanetz - Chamber Music of the Forqueray Family (2009)

Track List:

CD 1:
Michel Forqueray (1681-1757)
01. Prelude de Forcroy

Antoine Forqueray (1672-1745)
Harpsichord Suite No. 1 in D Minor
02. I. Allemande, La Laborde: Noblement et avec Sentiment
03. II. La Forqueray: Vivement et d'aplomb
04. III. La Cottin: Galamment sans lenteur
05. IV. La Bellemont: Avec Gout et sans lenteur
06. V. La Portugaise: Marque et d'aplomb
07. VI. La Couperin: Noblement et marque
08. Musette

Michel Forqueray
09. N'espere plus, jeune Lisette

Antoine Forqueray
Pieces de viole: Suite No. 2 in G Major
10. I. La Bouron
11. II. La Mandoline
12. III. La Du Beuil
13. IV. La Leclair
14. V. Chaconne, La Buisson

Exact Audio Copy V1.3 from 2. September 2016

EAC extraction logfile from 17. October 2017, 13:11

Malec, Urbanetz, Martinez, Elbers / The Forqueray Family - Chamber music [CD1]

Used drive : hp DVD-RAM UJ8D1 Adapter: 1 ID: 0

Read mode : Secure
Utilize accurate stream : Yes
Defeat audio cache : Yes
Make use of C2 pointers : No

Read offset correction : 6
Overread into Lead-In and Lead-Out : No
Fill up missing offset samples with silence : Yes
Delete leading and trailing silent blocks : No
Null samples used in CRC calculations : Yes
Used interface : Native Win32 interface for Win NT & 2000
Gap handling : Appended to previous track

Used output format : User Defined Encoder
Selected bitrate : 768 kBit/s
Quality : High
Add ID3 tag : No
Command line compressor : C:\Program Files (x86)\Exact Audio Copy\FLAC\FLAC.EXE
Additional command line options : -6 -V -T "ARTIST=%artist%" -T "TITLE=%title%" -T "ALBUM=%albumtitle%" -T "DATE=%year%" -T "TRACKNUMBER=%tracknr%" -T "GENRE=%genre%" -T "COMMENT=%comment%" -T "BAND=%albuminterpret%" -T "ALBUMARTIST=%albuminterpret%" -T "COMPOSER=%composer%" %haslyrics%–tag-from-file=LYRICS="%lyricsfile%"%haslyrics% -T "DISCNUMBER=%cdnumber%" -T "TOTALDISCS=%totalcds%" -T "TOTALTRACKS=%numtracks%" %hascover%–picture="%coverfile%"%hascover% %source% -o %dest%


TOC of the extracted CD

Track | Start | Length | Start sector | End sector
––––––––––––––––––––––––––––-
1 | 0:00.00 | 1:02.59 | 0 | 4708
2 | 1:02.59 | 4:46.17 | 4709 | 26175
3 | 5:49.01 | 3:20.60 | 26176 | 41235
4 | 9:09.61 | 3:08.00 | 41236 | 55335
5 | 12:17.61 | 3:19.17 | 55336 | 70277
6 | 15:37.03 | 3:33.32 | 70278 | 86284
7 | 19:10.35 | 3:41.54 | 86285 | 102913
8 | 22:52.14 | 3:26.13 | 102914 | 118376
9 | 26:18.27 | 1:49.50 | 118377 | 126601
10 | 28:08.02 | 3:09.33 | 126602 | 140809
11 | 31:17.35 | 3:24.25 | 140810 | 156134
12 | 34:41.60 | 4:23.02 | 156135 | 175861
13 | 39:04.62 | 2:42.55 | 175862 | 188066
14 | 41:47.42 | 5:11.09 | 188067 | 211400


Track 1

Filename C:\EAC\01 Prelude de Forcroy.wav

Pre-gap length 0:00:02.00

Peak level 50.8 %
Extraction speed 0.8 X
Track quality 100.0 %
Test CRC 9DD2B0B6
Copy CRC 9DD2B0B6
Accurately ripped (confidence 1) [76CD2F2C] (AR v1)
Copy OK

Track 2

Filename C:\EAC\02 Suite in d minor - La La Borde. Allemande.wav

Peak level 60.9 %
Extraction speed 1.2 X
Track quality 100.0 %
Test CRC 68F8E515
Copy CRC 68F8E515
Accurately ripped (confidence 1) [370CD277] (AR v1)
Copy OK

Track 3

Filename C:\EAC\03 Suite in d minor - La Forqueray.wav

Peak level 77.2 %
Extraction speed 1.3 X
Track quality 100.0 %
Test CRC 7B348D10
Copy CRC 7B348D10
Accurately ripped (confidence 1) [5F3D55ED] (AR v1)
Copy OK

Track 4

Filename C:\EAC\04 Suite in d minor - La Cottin.wav

Peak level 44.6 %
Extraction speed 1.4 X
Track quality 100.0 %
Test CRC 85F65A46
Copy CRC 85F65A46
Accurately ripped (confidence 1) [47C125F8] (AR v1)
Copy OK

Track 5

Filename C:\EAC\05 Suite in d minor - La Bellmont.wav

Peak level 52.5 %
Extraction speed 1.5 X
Track quality 100.0 %
Test CRC 21C94F90
Copy CRC 21C94F90
Accurately ripped (confidence 1) [ABDCC0B0] (AR v1)
Copy OK

Track 6

Filename C:\EAC\06 Suite in d minor - La Portugaise.wav

Peak level 75.2 %
Extraction speed 1.4 X
Track quality 99.9 %
Test CRC C8375F7E
Copy CRC C8375F7E
Accurately ripped (confidence 1) [52F361D5] (AR v1)
Copy OK

Track 7

Filename C:\EAC\07 Suite in d minor - La Couperin.wav

Peak level 63.7 %
Extraction speed 1.7 X
Track quality 100.0 %
Test CRC 166F2D71
Copy CRC 166F2D71
Accurately ripped (confidence 1) [E57683BF] (AR v1)
Copy OK

Track 8

Filename C:\EAC\08 Musette.wav

Peak level 74.5 %
Extraction speed 1.5 X
Track quality 99.9 %
Test CRC EA467927
Copy CRC EA467927
Accurately ripped (confidence 1) [97ACE57D] (AR v1)
Copy OK

Track 9

Filename C:\EAC\09 Musette - ''N'espere plus jeune Lisette''.wav

Peak level 97.6 %
Extraction speed 1.6 X
Track quality 100.0 %
Test CRC E9340461
Copy CRC E9340461
Accurately ripped (confidence 1) [9157439E] (AR v1)
Copy OK

Track 10

Filename C:\EAC\10 Suite in G major - La Bouron.wav

Peak level 94.1 %
Extraction speed 1.8 X
Track quality 100.0 %
Test CRC B0AD7B75
Copy CRC B0AD7B75
Accurately ripped (confidence 1) [67FC07F4] (AR v1)
Copy OK

Track 11

Filename C:\EAC\11 Suite in G major- La Mandoline.wav

Peak level 38.4 %
Extraction speed 1.9 X
Track quality 100.0 %
Test CRC C12417F1
Copy CRC C12417F1
Accurately ripped (confidence 1) [A948CCAB] (AR v1)
Copy OK

Track 12

Filename C:\EAC\12 Suite in G major - La du Breuil.wav

Peak level 75.6 %
Extraction speed 2.1 X
Track quality 100.0 %
Test CRC 64871D4F
Copy CRC 64871D4F
Accurately ripped (confidence 1) [592C944D] (AR v1)
Copy OK

Track 13

Filename C:\EAC\13 Suite in G major - La Leclair.wav

Peak level 59.7 %
Extraction speed 2.0 X
Track quality 100.0 %
Test CRC 79CF9AE7
Copy CRC 79CF9AE7
Accurately ripped (confidence 1) [6E37697B] (AR v1)
Copy OK

Track 14

Filename C:\EAC\14 Suite in G major - La Buisson. Chaconne.wav

Peak level 84.3 %
Extraction speed 2.1 X
Track quality 99.9 %
Test CRC E58A9346
Copy CRC E58A9346
Accurately ripped (confidence 1) [EBA04FC2] (AR v1)
Copy OK


All tracks accurately ripped

No errors occurred

End of status report

–– CUETools DB Plugin V2.1.6

[CTDB TOCID: in.WvOwPJTHaqtBgTvkMYWJxjvA-] found
Submit result: in.WvOwPJTHaqtBgTvkMYWJxjvA- has been confirmed
Track | CTDB Status
1 | (4/4) Accurately ripped
2 | (4/4) Accurately ripped
3 | (4/4) Accurately ripped
4 | (4/4) Accurately ripped
5 | (4/4) Accurately ripped
6 | (4/4) Accurately ripped
7 | (4/4) Accurately ripped
8 | (4/4) Accurately ripped
9 | (4/4) Accurately ripped
10 | (4/4) Accurately ripped
11 | (4/4) Accurately ripped
12 | (4/4) Accurately ripped
13 | (4/4) Accurately ripped
14 | (4/4) Accurately ripped


==== Log checksum 1271D7DBB31EED4A33EEC81A2A9F2127EFB59AA6DC098E24F6559C14EACA62C5 ====

[CUETools log; Date: 24.10.2017 12:02:40; Version: 2.1.5]
[CTDB TOCID: in.WvOwPJTHaqtBgTvkMYWJxjvA-] found.
Track | CTDB Status
1 | (5/5) Accurately ripped
2 | (5/5) Accurately ripped
3 | (5/5) Accurately ripped
4 | (5/5) Accurately ripped
5 | (5/5) Accurately ripped
6 | (5/5) Accurately ripped
7 | (5/5) Accurately ripped
8 | (5/5) Accurately ripped
9 | (5/5) Accurately ripped
10 | (5/5) Accurately ripped
11 | (5/5) Accurately ripped
12 | (5/5) Accurately ripped
13 | (5/5) Accurately ripped
14 | (5/5) Accurately ripped
[AccurateRip ID: 0016f3bc-00f789b8-c30b020e] found.
Track [ CRC | V2 ] Status
01 [76cd2f2c|7ac4abed] (1+0/1) Accurately ripped
02 [370cd277|a0f7c188] (1+0/1) Accurately ripped
03 [5f3d55ed|ddd37cb3] (1+0/1) Accurately ripped
04 [47c125f8|f546e2c4] (1+0/1) Accurately ripped
05 [abdcc0b0|6121cf19] (1+0/1) Accurately ripped
06 [52f361d5|e8374a49] (1+0/1) Accurately ripped
07 [e57683bf|2229097a] (1+0/1) Accurately ripped
08 [97ace57d|7b5507cb] (1+0/1) Accurately ripped
09 [9157439e|e2fe4187] (1+0/1) Accurately ripped
10 [67fc07f4|3f26f1fd] (1+0/1) Accurately ripped
11 [a948ccab|90c8e3ce] (1+0/1) Accurately ripped
12 [592c944d|e48211b3] (1+0/1) Accurately ripped
13 [6e37697b|61adf892] (1+0/1) Accurately ripped
14 [eba04fc2|54e3238b] (1+0/1) Accurately ripped

Track Peak [ CRC32 ] [W/O NULL] [ LOG ]
– 97,6 [6DC5BFB6] [08A6C4F0]
01 50,8 [9DD2B0B6] [D185CC8E] CRC32
02 60,9 [68F8E515] [4C20AAEC] CRC32
03 77,2 [7B348D10] [E8885B56] CRC32
04 44,6 [85F65A46] [030D5246] CRC32
05 52,5 [21C94F90] [D64CF3B0] CRC32
06 75,2 [C8375F7E] [C32BC319] CRC32
07 63,7 [166F2D71] [55F93796] CRC32
08 74,5 [EA467927] [8A3CD22E] CRC32
09 97,6 [E9340461] [BE7AB79C] CRC32
10 94,1 [B0AD7B75] [079E85D0] CRC32
11 38,4 [C12417F1] [E8C21E92] CRC32
12 75,6 [64871D4F] [D9B8E611] CRC32
13 59,7 [79CF9AE7] [1B37F407] CRC32
14 84,3 [E58A9346] [41C468A3] CRC32

CD 2:
Antoine Forqueray
01. Allemande

Antoine Forqueray / Jean-Baptiste Forqueray (1699-1782)
Pieces de viole: Suite No. 3 in D Major (excerpts)
02. IV. La Angrave: Tres vivement
03. V. La Du Vaucel
04. VII. Chaconne: La Morangis ou La Plissay

Antoine Forqueray
Harpsichord Suite No. 4 in G Minor (excerpts)
05. La Marella
06. III. Sarabande: La D' Aubonne
07. Le papillon et la Rose

Michel Forqueray
Pieces de viole: Suite No. 5 in C Minor
08. I. La Rameau: Majestueusement
09. II. La Guignon: Vivement et detache
10. III. La Leon, Sarabande: Tendrement
11. IV. La Boisson: Vivement, les pinces bien soutenus
12. V. La Montigni: Galamment sans lenteur
13. VI. La Sylva: Tres tendrement
14. VII. Jupiter: Moderement

Exact Audio Copy V1.3 from 2. September 2016

EAC extraction logfile from 17. October 2017, 14:25

Malec, Urbanetz, Martinez, Elbers / The Forqueray Family - Chamber music [CD2]

Used drive : hp DVD-RAM UJ8D1 Adapter: 1 ID: 0

Read mode : Secure
Utilize accurate stream : Yes
Defeat audio cache : Yes
Make use of C2 pointers : No

Read offset correction : 6
Overread into Lead-In and Lead-Out : No
Fill up missing offset samples with silence : Yes
Delete leading and trailing silent blocks : No
Null samples used in CRC calculations : Yes
Used interface : Native Win32 interface for Win NT & 2000
Gap handling : Appended to previous track

Used output format : User Defined Encoder
Selected bitrate : 768 kBit/s
Quality : High
Add ID3 tag : No
Command line compressor : C:\Program Files (x86)\Exact Audio Copy\FLAC\FLAC.EXE
Additional command line options : -6 -V -T "ARTIST=%artist%" -T "TITLE=%title%" -T "ALBUM=%albumtitle%" -T "DATE=%year%" -T "TRACKNUMBER=%tracknr%" -T "GENRE=%genre%" -T "COMMENT=%comment%" -T "BAND=%albuminterpret%" -T "ALBUMARTIST=%albuminterpret%" -T "COMPOSER=%composer%" %haslyrics%–tag-from-file=LYRICS="%lyricsfile%"%haslyrics% -T "DISCNUMBER=%cdnumber%" -T "TOTALDISCS=%totalcds%" -T "TOTALTRACKS=%numtracks%" %hascover%–picture="%coverfile%"%hascover% %source% -o %dest%


TOC of the extracted CD

Track | Start | Length | Start sector | End sector
––––––––––––––––––––––––––––-
1 | 0:00.00 | 2:34.63 | 0 | 11612
2 | 2:34.63 | 3:21.53 | 11613 | 26740
3 | 5:56.41 | 4:21.52 | 26741 | 46367
4 | 10:18.18 | 7:35.08 | 46368 | 80500
5 | 17:53.26 | 2:58.46 | 80501 | 93896
6 | 20:51.72 | 5:20.00 | 93897 | 117896
7 | 26:11.72 | 1:57.17 | 117897 | 126688
8 | 28:09.14 | 4:23.69 | 126689 | 146482
9 | 32:33.08 | 4:37.31 | 146483 | 167288
10 | 37:10.39 | 3:46.40 | 167289 | 184278
11 | 40:57.04 | 4:44.38 | 184279 | 205616
12 | 45:41.42 | 5:17.08 | 205617 | 229399
13 | 50:58.50 | 4:16.68 | 229400 | 248667
14 | 55:15.43 | 4:13.34 | 248668 | 267676


Track 1

Filename C:\EAC\01 Allemande.wav

Pre-gap length 0:00:02.00

Peak level 85.7 %
Extraction speed 1.1 X
Track quality 100.0 %
Test CRC 143C0864
Copy CRC 143C0864
Accurately ripped (confidence 1) [19319CE6] (AR v1)
Copy OK

Track 2

Filename C:\EAC\02 La Angrave.wav

Peak level 78.7 %
Extraction speed 1.2 X
Track quality 100.0 %
Test CRC 62761977
Copy CRC 62761977
Accurately ripped (confidence 1) [18CB692A] (AR v1)
Copy OK

Track 3

Filename C:\EAC\03 La du Vaucel.wav

Peak level 71.5 %
Extraction speed 1.4 X
Track quality 100.0 %
Test CRC 9CD49613
Copy CRC 9CD49613
Accurately ripped (confidence 1) [B415947E] (AR v1)
Copy OK

Track 4

Filename C:\EAC\04 La Morangis ou La Plissay - Chaconne.wav

Peak level 69.9 %
Extraction speed 1.6 X
Track quality 100.0 %
Test CRC FDCFC27C
Copy CRC FDCFC27C
Accurately ripped (confidence 1) [953669B1] (AR v1)
Copy OK

Track 5

Filename C:\EAC\05 La Marella.wav

Peak level 50.8 %
Extraction speed 1.4 X
Track quality 99.9 %
Test CRC CAAC2048
Copy CRC CAAC2048
Accurately ripped (confidence 1) [08323079] (AR v1)
Copy OK

Track 6

Filename C:\EAC\06 La d'Aubonne.wav

Peak level 37.0 %
Extraction speed 1.7 X
Track quality 99.9 %
Test CRC 7838D901
Copy CRC 7838D901
Accurately ripped (confidence 1) [571E0EFE] (AR v1)
Copy OK

Track 7

Filename C:\EAC\07 Le Papillon et La Rose.wav

Peak level 97.2 %
Extraction speed 1.6 X
Track quality 100.0 %
Test CRC E4024C00
Copy CRC E4024C00
Accurately ripped (confidence 1) [BEBB7FE0] (AR v1)
Copy OK

Track 8

Filename C:\EAC\08 Suite in c minor - La Rameau.wav

Peak level 92.6 %
Extraction speed 1.7 X
Track quality 99.9 %
Test CRC DB0FD910
Copy CRC DB0FD910
Accurately ripped (confidence 1) [8D603282] (AR v1)
Copy OK

Track 9

Filename C:\EAC\09 Suite in c minor - La Guignon.wav

Peak level 47.0 %
Extraction speed 2.0 X
Track quality 100.0 %
Test CRC 1DC478B7
Copy CRC 1DC478B7
Accurately ripped (confidence 1) [4E18EFC5] (AR v1)
Copy OK

Track 10

Filename C:\EAC\10 Suite in c minor - La Leon - Sarabande.wav

Peak level 71.9 %
Extraction speed 2.1 X
Track quality 100.0 %
Test CRC 0BCDC8A6
Copy CRC 0BCDC8A6
Accurately ripped (confidence 1) [57E87F4A] (AR v1)
Copy OK

Track 11

Filename C:\EAC\11 Suite in c minor - La Boisson.wav

Peak level 74.5 %
Extraction speed 2.0 X
Track quality 99.9 %
Test CRC 247749BA
Copy CRC 247749BA
Accurately ripped (confidence 1) [B98EE0F4] (AR v1)
Copy OK

Track 12

Filename C:\EAC\12 Suite in c minor - La Montigni.wav

Peak level 56.5 %
Extraction speed 2.3 X
Track quality 100.0 %
Test CRC 9F4B7D84
Copy CRC 9F4B7D84
Accurately ripped (confidence 1) [46FF3A6B] (AR v1)
Copy OK

Track 13

Filename C:\EAC\13 Suite in c minor - La Silva.wav

Peak level 84.2 %
Extraction speed 2.3 X
Track quality 100.0 %
Test CRC A392C36D
Copy CRC A392C36D
Accurately ripped (confidence 1) [B07BD018] (AR v1)
Copy OK

Track 14

Filename C:\EAC\14 Suite in c minor - Jupiter.wav

Peak level 90.2 %
Extraction speed 2.4 X
Track quality 100.0 %
Test CRC 669A19AB
Copy CRC 669A19AB
Accurately ripped (confidence 1) [13D50717] (AR v1)
Copy OK


All tracks accurately ripped

No errors occurred

End of status report

–– CUETools DB Plugin V2.1.6

[CTDB TOCID: 2JG8laTwc0E5OfQgy2VuvOO2UrQ-] found
Submit result: 2JG8laTwc0E5OfQgy2VuvOO2UrQ- has been confirmed
Track | CTDB Status
1 | (4/4) Accurately ripped
2 | (4/4) Accurately ripped
3 | (4/4) Accurately ripped
4 | (4/4) Accurately ripped
5 | (4/4) Accurately ripped
6 | (4/4) Accurately ripped
7 | (4/4) Accurately ripped
8 | (4/4) Accurately ripped
9 | (4/4) Accurately ripped
10 | (4/4) Accurately ripped
11 | (4/4) Accurately ripped
12 | (4/4) Accurately ripped
13 | (4/4) Accurately ripped
14 | (4/4) Accurately ripped


==== Log checksum B36CFBC1AD5D0D227325917CD744F3F8BCC499D2341411173B670467777F1E5C ====

[CUETools log; Date: 24.10.2017 12:03:11; Version: 2.1.5]
[CTDB TOCID: 2JG8laTwc0E5OfQgy2VuvOO2UrQ-] found.
Track | CTDB Status
1 | (5/5) Accurately ripped
2 | (5/5) Accurately ripped
3 | (5/5) Accurately ripped
4 | (5/5) Accurately ripped
5 | (5/5) Accurately ripped
6 | (5/5) Accurately ripped
7 | (5/5) Accurately ripped
8 | (5/5) Accurately ripped
9 | (5/5) Accurately ripped
10 | (5/5) Accurately ripped
11 | (5/5) Accurately ripped
12 | (5/5) Accurately ripped
13 | (5/5) Accurately ripped
14 | (5/5) Accurately ripped
[AccurateRip ID: 001dcd5f-014151e1-b70df10e] found.
Track [ CRC | V2 ] Status
01 [19319ce6|f1aad834] (1+0/1) Accurately ripped
02 [18cb692a|943077c0] (1+0/1) Accurately ripped
03 [b415947e|22732292] (1+0/1) Accurately ripped
04 [953669b1|0fe37b0a] (1+0/1) Accurately ripped
05 [08323079|2af44178] (1+0/1) Accurately ripped
06 [571e0efe|29f1599d] (1+0/1) Accurately ripped
07 [bebb7fe0|4f7a7c04] (1+0/1) Accurately ripped
08 [8d603282|edd5a766] (1+0/1) Accurately ripped
09 [4e18efc5|723e462a] (1+0/1) Accurately ripped
10 [57e87f4a|328a9c44] (1+0/1) Accurately ripped
11 [b98ee0f4|65488731] (1+0/1) Accurately ripped
12 [46ff3a6b|fab4c9e1] (1+0/1) Accurately ripped
13 [b07bd018|237edf34] (1+0/1) Accurately ripped
14 [13d50717|98a65f19] (1+0/1) Accurately ripped

Track Peak [ CRC32 ] [W/O NULL] [ LOG ]
– 97,2 [078EA8FE] [90ACA6D5]
01 85,7 [143C0864] [A534AFE0] CRC32
02 78,7 [62761977] [43A86695] CRC32
03 71,5 [9CD49613] [FFC7EAB5] CRC32
04 69,9 [FDCFC27C] [E5BF4226] CRC32
05 50,8 [CAAC2048] [97C58179] CRC32
06 37,0 [7838D901] [BC933378] CRC32
07 97,2 [E4024C00] [70153123] CRC32
08 92,6 [DB0FD910] [7F28B7E2] CRC32
09 47,0 [1DC478B7] [2315373F] CRC32
10 71,9 [0BCDC8A6] [00980FD6] CRC32
11 74,5 [247749BA] [46084DCE] CRC32
12 56,5 [9F4B7D84] [9E3DE28C] CRC32
13 84,2 [A392C36D] [8850C6A7] CRC32
14 90,2 [669A19AB] [201EF15F] CRC32

Performers:
Magdalena Malec - harpsichord
Christoph Urbanetz - viola da gamba

Thanks to the Original ripper (unknown)!

Download: