Subcategories

Maggini Quartet - Britten: String Quartets, Vol.2 (1999) (Repost)

Posted By: tirexiss
Maggini Quartet - Britten: String Quartets, Vol.2 (1999) (Repost)

Maggini Quartet - Britten: String Quartets, Vol.2 (1999)
EAC | FLAC (tracks+.cue, log) | Covers Included | 01:04:35 | 257 MB
Genre: Classical | Label: Naxos | Catalog: 8.554360

The Third String Quartet is one of Britten's last works before his untimely death and shows that the composer was still at the height of his powers. The music, inspired by the beauty of Venice, begins tentatively with a delicately wistful opening which contrasts with the passionate outburst that follows it. It is tempting to wonder if Britten had intimations of mortality when he wrote this work.
The performance by the Maggini Quartet is faultless and the quality of the recording proves that Naxos may be a budget label, but they are capable of providing full price standards. Highly recommended.

Maggini Quartet - Britten: String Quartets, Vol.2 (1999) (Repost)

Track List:

[01]-[04] Simple Symphony (String Quartet version)
[05]-[07] Quartettino (1930)
[08] Alla Marcia for String Quartet
[09]-[13] String Quartet No. 3 op. 94

Performers:
Maggini String Quartet

Exact Audio Copy V0.99 prebeta 5 from 4. May 2009

EAC extraction logfile from 24. June 2010, 7:36

Britten, B / String Quartets Vol. 2

Used drive : ASUS CRW-5232AS Adapter: 1 ID: 0

Read mode : Secure
Utilize accurate stream : Yes
Defeat audio cache : Yes
Make use of C2 pointers : No

Read offset correction : -1404
Overread into Lead-In and Lead-Out : Yes
Fill up missing offset samples with silence : Yes
Delete leading and trailing silent blocks : No
Null samples used in CRC calculations : Yes
Used interface : Native Win32 interface for Win NT & 2000
Gap handling : Appended to previous track

Used output format : User Defined Encoder
Selected bitrate : 768 kBit/s
Quality : High
Add ID3 tag : No
Command line compressor : C:\Program Files\Exact Audio Copy\FLAC\FLAC.EXE
Additional command line options : -V -8 -T "artist=%a" -T "title=%t" -T "album=%g" -T "date=%y" -T "tracknumber=%n" -T "genre=%m" %s


TOC of the extracted CD

Track | Start | Length | Start sector | End sector
––––––––––––––––––––––––––––-
1 | 0:00.00 | 3:18.00 | 0 | 14849
2 | 3:18.00 | 3:16.65 | 14850 | 29614
3 | 6:34.65 | 7:59.05 | 29615 | 65544
4 | 14:33.70 | 2:55.62 | 65545 | 78731
5 | 17:29.57 | 6:21.68 | 78732 | 107374
6 | 23:51.50 | 6:42.15 | 107375 | 137539
7 | 30:33.65 | 3:42.37 | 137540 | 154226
8 | 34:16.27 | 3:28.68 | 154227 | 169894
9 | 37:45.20 | 5:45.65 | 169895 | 195834
10 | 43:31.10 | 3:13.65 | 195835 | 210374
11 | 46:45.00 | 5:41.42 | 210375 | 235991
12 | 52:26.42 | 2:20.03 | 235992 | 246494
13 | 54:46.45 | 9:46.30 | 246495 | 290474


Track 1

Filename D:\EAC Ripps\Britten - String Quartets No 3, Simple Symphony, Quartettino, Alla Marcia\(01) Simple Symphony (1934) - 1 Boisterous Bourйe - Britten, B.wav

Pre-gap length 0:00:02.00

Peak level 98.9 %
Track quality 100.0 %
Test CRC 6F0ED25C
Copy CRC 6F0ED25C
Copy OK

Track 2

Filename D:\EAC Ripps\Britten - String Quartets No 3, Simple Symphony, Quartettino, Alla Marcia\(02) 2 Playful Pizzicato - Britten, B.wav

Pre-gap length 0:00:02.57

Peak level 99.6 %
Track quality 100.0 %
Test CRC DB4247C8
Copy CRC DB4247C8
Copy OK

Track 3

Filename D:\EAC Ripps\Britten - String Quartets No 3, Simple Symphony, Quartettino, Alla Marcia\(03) 3 Sentimental Saraband - Britten, B.wav

Pre-gap length 0:00:02.44

Peak level 99.0 %
Track quality 100.0 %
Test CRC 70E9E278
Copy CRC 70E9E278
Copy OK

Track 4

Filename D:\EAC Ripps\Britten - String Quartets No 3, Simple Symphony, Quartettino, Alla Marcia\(04) 4 Frolicsome Finale - Britten, B.wav

Pre-gap length 0:00:02.53

Peak level 99.0 %
Track quality 100.0 %
Test CRC 4FFD74A0
Copy CRC 4FFD74A0
Copy OK

Track 5

Filename D:\EAC Ripps\Britten - String Quartets No 3, Simple Symphony, Quartettino, Alla Marcia\(05) Quartettino (1930) - 1 Andante - Britten, B.wav

Pre-gap length 0:00:05.73

Peak level 65.7 %
Track quality 100.0 %
Test CRC 418340A8
Copy CRC 418340A8
Copy OK

Track 6

Filename D:\EAC Ripps\Britten - String Quartets No 3, Simple Symphony, Quartettino, Alla Marcia\(06) 2 Poco adagio ma con moto - Britten, B.wav

Peak level 47.5 %
Track quality 100.0 %
Test CRC F530F022
Copy CRC F530F022
Copy OK

Track 7

Filename D:\EAC Ripps\Britten - String Quartets No 3, Simple Symphony, Quartettino, Alla Marcia\(07) 3 Allegro molto vivace - Britten, B.wav

Peak level 66.2 %
Track quality 99.9 %
Test CRC 8AD18721
Copy CRC 8AD18721
Copy OK

Track 8

Filename D:\EAC Ripps\Britten - String Quartets No 3, Simple Symphony, Quartettino, Alla Marcia\(08) All Marcia (1933) - Britten, B.wav

Pre-gap length 0:00:10.69

Peak level 68.5 %
Track quality 100.0 %
Test CRC F2B789F6
Copy CRC F2B789F6
Copy OK

Track 9

Filename D:\EAC Ripps\Britten - String Quartets No 3, Simple Symphony, Quartettino, Alla Marcia\(09) String Quartet No. 3, Op. 94 (1975) - 1 Duets - With moderate movement - Britten, B.wav

Pre-gap length 0:00:10.66

Peak level 66.9 %
Track quality 100.0 %
Test CRC 00E5FA8E
Copy CRC 00E5FA8E
Copy OK

Track 10

Filename D:\EAC Ripps\Britten - String Quartets No 3, Simple Symphony, Quartettino, Alla Marcia\(10) 2 Ostinato - Very fast - Britten, B.wav

Peak level 98.0 %
Track quality 100.0 %
Test CRC AEDA746F
Copy CRC AEDA746F
Copy OK

Track 11

Filename D:\EAC Ripps\Britten - String Quartets No 3, Simple Symphony, Quartettino, Alla Marcia\(11) 3 Solo - Very calm - Britten, B.wav

Peak level 42.2 %
Track quality 100.0 %
Test CRC 56ACFF53
Copy CRC 56ACFF53
Copy OK

Track 12

Filename D:\EAC Ripps\Britten - String Quartets No 3, Simple Symphony, Quartettino, Alla Marcia\(12) 4 Burlesque - Fast - con fuoco - Britten, B.wav

Peak level 69.2 %
Track quality 100.0 %
Test CRC 2465137D
Copy CRC 2465137D
Copy OK

Track 13

Filename D:\EAC Ripps\Britten - String Quartets No 3, Simple Symphony, Quartettino, Alla Marcia\(13) 5 Recitative and Passacaglia (La serenissima) - Britten, B.wav

Peak level 70.7 %
Track quality 99.9 %
Test CRC 158846AC
Copy CRC 158846AC
Copy OK

No errors occurred

End of status report

[CUETools log; Date: 24.03.2018 19:11:46; Version: 2.1.5]
[CTDB TOCID: aj0trjSKeGj2CszWwacdW0sWsp0-] found.
Track | CTDB Status
1 | (37/38) Accurately ripped
2 | (38/38) Accurately ripped
3 | (36/38) Accurately ripped
4 | (37/38) Accurately ripped
5 | (37/38) Accurately ripped
6 | (37/38) Accurately ripped
7 | (38/38) Accurately ripped
8 | (38/38) Accurately ripped
9 | (37/38) Accurately ripped
10 | (37/38) Accurately ripped
11 | (37/38) Accurately ripped
12 | (35/38) Accurately ripped
13 | (36/38) Accurately ripped
[AccurateRip ID: 001d8e37-0129d907-af0f210d] found.
Track [ CRC | V2 ] Status
01 [e5b61513|c2331779] (00+00/32) No match
02 [498e34d5|459d74f8] (00+00/32) No match
03 [202d09ae|fc919d21] (00+00/32) No match
04 [4d45281e|0798a771] (00+00/32) No match
05 [d698cdd9|c98f350c] (00+00/32) No match
06 [33361664|8fffd9b4] (00+00/32) No match
07 [bad2e524|efec16cc] (00+00/32) No match
08 [afafcadc|57f84955] (00+00/32) No match
09 [18f8753f|0513617a] (00+00/32) No match
10 [639d26f3|ae48480f] (00+00/32) No match
11 [a665102a|65a55087] (00+00/32) No match
12 [a8e5f427|bff22206] (00+00/32) No match
13 [653b8d64|06ddef35] (00+00/32) No match
Offsetted by 822:
01 [acdc226e] (09/32) Accurately ripped
02 [7a7e0360] (09/32) Accurately ripped
03 [fc8fe90d] (09/32) Accurately ripped
04 [eab886f2] (09/32) Accurately ripped
05 [2188333e] (09/32) Accurately ripped
06 [d519cef5] (09/32) Accurately ripped
07 [0dbfcd7a] (09/32) Accurately ripped
08 [1f3978cb] (09/32) Accurately ripped
09 [c0e56e38] (09/32) Accurately ripped
10 [50c85ac0] (09/32) Accurately ripped
11 [2bedd705] (09/32) Accurately ripped
12 [3366c481] (09/32) Accurately ripped
13 [e3a1b721] (09/32) Accurately ripped
Offsetted by 792:
01 [9d6acac5] (00/32) No match (V2 was not tested)
02 [f681d851] (00/32) No match (V2 was not tested)
03 [35904bf0] (00/32) No match (V2 was not tested)
04 [40c67802] (00/32) No match (V2 was not tested)
05 [1a774401] (00/32) No match (V2 was not tested)
06 [8de8ca30] (00/32) No match (V2 was not tested)
07 [b2a99bac] (00/32) No match (V2 was not tested)
08 [c5fdd2f5] (00/32) No match (V2 was not tested)
09 [315226b7] (00/32) No match (V2 was not tested)
10 [2c0aeb13] (00/32) No match (V2 was not tested)
11 [dadbcc7a] (00/32) No match (V2 was not tested)
12 [4508a41f] (00/32) No match (V2 was not tested)
13 [ad30b803] (00/32) No match (V2 was not tested)
Offsetted by 1349:
01 [5d057f9b] (00/32) No match (V2 was not tested)
02 [9fdb3124] (00/32) No match (V2 was not tested)
03 [68c679a9] (00/32) No match (V2 was not tested)
04 [97dc7b5b] (00/32) No match (V2 was not tested)
05 [c889ec67] (00/32) No match (V2 was not tested)
06 [9bdb6b99] (00/32) No match (V2 was not tested)
07 [a08f0ac2] (00/32) No match (V2 was not tested)
08 [87820b3d] (00/32) No match (V2 was not tested)
09 [601d5ba3] (00/32) No match (V2 was not tested)
10 [ec67a6c7] (00/32) No match (V2 was not tested)
11 [4beb0b37] (00/32) No match (V2 was not tested)
12 [73a270ae] (00/32) No match (V2 was not tested)
13 [293de1fb] (00/32) No match (V2 was not tested)

Track Peak [ CRC32 ] [W/O NULL] [ LOG ]
– 99,6 [F2DCA83E] [7EC5BC0B]
01 98,9 [6F0ED25C] [58400E97] CRC32
02 99,6 [DB4247C8] [C4179893] CRC32
03 99,0 [70E9E278] [2A911F1F] CRC32
04 99,0 [4FFD74A0] [190D5877] CRC32
05 65,7 [418340A8] [85379949] CRC32
06 47,5 [F530F022] [7AF481A9] CRC32
07 66,2 [8AD18721] [F93A4D89] CRC32
08 68,5 [F2B789F6] [C07609B6] CRC32
09 66,9 [00E5FA8E] [63BB96C9] CRC32
10 98,0 [AEDA746F] [27CAEB87] CRC32
11 42,2 [56ACFF53] [FE5F47BA] CRC32
12 69,2 [2465137D] [EDE8EA5D] CRC32
13 70,7 [158846AC] [16876584] CRC32

Thanks to the Original ripper (unknown)!

Download: