Subcategories

Magnum - Marauder (1980) {1987, Reissue}

Posted By: popsakov
Magnum - Marauder (1980) {1987, Reissue}

Magnum - Marauder (1980) {1987, Reissue}
EAC Rip | FLAC (Tracks) + Cue + Log + m3u ~ 265 Mb | MP3 CBR320 ~ 117 Mb
Scans Included (JPG, 300 dpi) | RAR 5% Recovery
Hard Rock, Progressive Rock, AOR | Castle Communications #CLACD 124

Marauder is a live album by the English rock band Magnum. It was released in 1980 on Jet Records. Magnum recorded Marauder over one night at London's Marquee Club on 15 December 1979. It was an attempt by Jet Records to revive the success of the debut album Kingdom of Madness following the failure of Magnum II. The album was recorded on multi-track by former-Ten Years After bass player Leo Lyons, who had recorded Magnum II, and mixed by Chris Tsangarides.
~ Wiki

***************

Magnum - Marauder (1980) {1987, Reissue}

Magnum - Marauder (1980) {1987, Reissue}

Track List:

01. If I Could Live Forever [4:07]
02. The Battle [2:20]
03. Foolish Heart [3:08]
04. In The Beginning [7:57]
05. Reborn [6:00]
06. Changes [3:51]
07. So Cold The Night [4:32]
08. Lords Of Chaos [3:46]

Personnel:
Colin Lowe - Bass Guitar, Vocals
Chris Hart - Design
Kex Gorin - Drums, Percussion
Tony Clarkin - Guitar, Vocals
Richard Bailey - Keyboards, Vocals, Flute
Bob Catley - Lead Vocals

Exact Audio Copy V1.3 from 2. September 2016

EAC extraction logfile from 21. December 2017, 10:06

Magnum / Marauder

Used drive : HL-DT-STBDDVDRW CH10LS20 Adapter: 1 ID: 0

Read mode : Secure
Utilize accurate stream : Yes
Defeat audio cache : Yes
Make use of C2 pointers : No

Read offset correction : 667
Overread into Lead-In and Lead-Out : No
Fill up missing offset samples with silence : Yes
Delete leading and trailing silent blocks : No
Null samples used in CRC calculations : Yes
Used interface : Native Win32 interface for Win NT & 2000
Gap handling : Appended to previous track

Used output format : User Defined Encoder
Selected bitrate : 1024 kBit/s
Quality : High
Add ID3 tag : No
Command line compressor : C:\Program Files (x86)\Exact Audio Copy\FLAC\FLAC.EXE
Additional command line options : -6 -V -T "ARTIST=%artist%" -T "TITLE=%title%" -T "ALBUM=%albumtitle%" -T "DATE=%year%" -T "TRACKNUMBER=%tracknr%" -T "GENRE=%genre%" -T "COMMENT=%comment%" -T "BAND=%albuminterpret%" -T "ALBUMARTIST=%albuminterpret%" -T "COMPOSER=%composer%" %haslyrics%–tag-from-file=LYRICS="%lyricsfile%"%haslyrics% -T "DISCNUMBER=%cdnumber%" -T "TOTALDISCS=%totalcds%" -T "TOTALTRACKS=%numtracks%" %hascover%–picture="%coverfile%"%hascover% %source% -o %dest%


TOC of the extracted CD

Track | Start | Length | Start sector | End sector
––––––––––––––––––––––––––––-
1 | 0:00.33 | 4:08.45 | 33 | 18677
2 | 4:09.03 | 2:21.55 | 18678 | 29307
3 | 6:30.58 | 3:09.05 | 29308 | 43487
4 | 9:39.63 | 7:58.10 | 43488 | 79347
5 | 17:37.73 | 5:59.67 | 79348 | 106339
6 | 23:37.65 | 3:51.10 | 106340 | 123674
7 | 27:29.00 | 4:33.38 | 123675 | 144187
8 | 32:02.38 | 3:46.32 | 144188 | 161169


Track 1

Filename D:\ripeos\Magnum - Marauder FLAC\01. Magnum - If I Could Live Forever.wav

Pre-gap length 0:00:02.33

Peak level 75.4 %
Extraction speed 1.1 X
Track quality 100.0 %
Test CRC A4BFCD2A
Copy CRC A4BFCD2A
Accurately ripped (confidence 5) [9A3DE822] (AR v2)
Copy OK

Track 2

Filename D:\ripeos\Magnum - Marauder FLAC\02. Magnum - The Battle.wav

Pre-gap length 0:00:01.65

Peak level 86.0 %
Extraction speed 0.9 X
Track quality 99.9 %
Test CRC B0955DBC
Copy CRC B0955DBC
Accurately ripped (confidence 5) [F8A6499F] (AR v2)
Copy OK

Track 3

Filename D:\ripeos\Magnum - Marauder FLAC\03. Magnum - Foolish Heart.wav

Pre-gap length 0:00:01.37

Peak level 74.5 %
Extraction speed 1.2 X
Track quality 100.0 %
Test CRC 87EA0358
Copy CRC 87EA0358
Accurately ripped (confidence 5) [F4D37950] (AR v2)
Copy OK

Track 4

Filename D:\ripeos\Magnum - Marauder FLAC\04. Magnum - In The Beginning.wav

Pre-gap length 0:00:01.05

Peak level 84.6 %
Extraction speed 1.5 X
Track quality 100.0 %
Test CRC 5F5DE158
Copy CRC 5F5DE158
Accurately ripped (confidence 5) [B362CEC3] (AR v2)
Copy OK

Track 5

Filename D:\ripeos\Magnum - Marauder FLAC\05. Magnum - Reborn.wav

Pre-gap length 0:00:01.10

Peak level 90.6 %
Extraction speed 1.5 X
Track quality 99.9 %
Test CRC 2D32DFC0
Copy CRC 2D32DFC0
Accurately ripped (confidence 5) [083AC4FF] (AR v2)
Copy OK

Track 6

Filename D:\ripeos\Magnum - Marauder FLAC\06. Magnum - Changes.wav

Pre-gap length 0:00:00.02

Peak level 90.5 %
Extraction speed 1.7 X
Track quality 100.0 %
Test CRC 7BF948D8
Copy CRC 7BF948D8
Accurately ripped (confidence 5) [99087E41] (AR v2)
Copy OK

Track 7

Filename D:\ripeos\Magnum - Marauder FLAC\07. Magnum - So Cold The Night.wav

Pre-gap length 0:00:00.42

Peak level 82.4 %
Extraction speed 1.8 X
Track quality 100.0 %
Test CRC D07D72B7
Copy CRC D07D72B7
Accurately ripped (confidence 5) [83AD16C9] (AR v2)
Copy OK

Track 8

Filename D:\ripeos\Magnum - Marauder FLAC\08. Magnum - Lords Of Chaos.wav

Pre-gap length 0:00:01.13

Peak level 90.5 %
Extraction speed 1.6 X
Track quality 99.9 %
Test CRC 8C97F60E
Copy CRC 8C97F60E
Accurately ripped (confidence 5) [CD284504] (AR v2)
Copy OK


All tracks accurately ripped

No errors occurred

End of status report

–– CUETools DB Plugin V2.1.6

[CTDB TOCID: zPrRXmmNbSEDUqw0zdvKtNocddk-] found
Submit result: already submitted
Track | CTDB Status
1 | (8/8) Accurately ripped
2 | (8/8) Accurately ripped
3 | (8/8) Accurately ripped
4 | (8/8) Accurately ripped
5 | (8/8) Accurately ripped
6 | (8/8) Accurately ripped
7 | (8/8) Accurately ripped
8 | (8/8) Accurately ripped


==== Log checksum D3545A6804C2D7BCC58E61768469DDD865BB28B87A9580C632A3D557A8C471EA ====

foobar2000 1.3.16 / Dynamic Range Meter 1.1.1
log date: 2018-01-06 00:20:19

––––––––––––––––––––––––––––––––––––––––
Analyzed: Magnum / Marauder
––––––––––––––––––––––––––––––––––––––––

DR Peak RMS Duration Track
––––––––––––––––––––––––––––––––––––––––
DR11 -2.44 dB -16.45 dB 4:09 01-If I Could Live Forever
DR11 -1.30 dB -14.14 dB 2:22 02-The Battle
DR11 -2.56 dB -15.16 dB 3:09 03-Foolish Heart
DR11 -1.45 dB -14.55 dB 7:58 04-In The Beginning
DR12 -0.85 dB -14.85 dB 6:00 05-Reborn
DR10 -0.86 dB -13.32 dB 3:51 06-Changes
DR12 -1.68 dB -16.15 dB 4:34 07-So Cold The Night
DR11 -0.86 dB -14.19 dB 3:46 08-Lords Of Chaos
––––––––––––––––––––––––––––––––––––––––

Number of tracks: 8
Official DR value: DR11

Samplerate: 44100 Hz
Channels: 2
Bits per sample: 16
Bitrate: 910 kbps
Codec: FLAC
================================================================================

[CUETools log; Date: 06.01.2018 0:19:32; Version: 2.1.5]
Pregap length 00:00:33.
[CTDB TOCID: zPrRXmmNbSEDUqw0zdvKtNocddk-] found.
Track | CTDB Status
1 | (8/8) Accurately ripped
2 | (8/8) Accurately ripped
3 | (8/8) Accurately ripped
4 | (8/8) Accurately ripped
5 | (8/8) Accurately ripped
6 | (8/8) Accurately ripped
7 | (8/8) Accurately ripped
8 | (8/8) Accurately ripped
[AccurateRip ID: 000ac6b4-00494cdc-61086408] found.
Track [ CRC | V2 ] Status
01 [3b5cc781|9a3de822] (03+05/19) Accurately ripped
02 [eb68f89f|f8a6499f] (03+05/19) Accurately ripped
03 [35dacb11|f4d37950] (03+05/19) Accurately ripped
04 [adb2de17|b362cec3] (03+05/19) Accurately ripped
05 [60678eaf|083ac4ff] (03+05/19) Accurately ripped
06 [88e06d3d|99087e41] (03+05/19) Accurately ripped
07 [ea71646e|83ad16c9] (03+05/19) Accurately ripped
08 [b58b7949|cd284504] (03+05/19) Accurately ripped
Offsetted by -1789:
01 [baf38166] (06/19) Accurately ripped
02 [20908e1c] (06/19) Accurately ripped
03 [0994f9eb] (06/19) Accurately ripped
04 [9197cb04] (06/19) Accurately ripped
05 [f041ba29] (06/19) Accurately ripped
06 [526c605e] (06/19) Accurately ripped
07 [5b749719] (06/19) Accurately ripped
08 [2e72363a] (06/19) Accurately ripped
Offsetted by -1275:
01 [1513c154] (02/19) Accurately ripped
02 [9b3ceb1a] (02/19) Accurately ripped
03 [684be127] (02/19) Accurately ripped
04 [09b677a2] (02/19) Accurately ripped
05 [c15c1925] (02/19) Accurately ripped
06 [2c445eb4] (02/19) Accurately ripped
07 [a396df8b] (02/19) Accurately ripped
08 [fcd3e830] (02/19) Accurately ripped

Track Peak [ CRC32 ] [W/O NULL] [ LOG ]
– 90,6 [44545EF4] [778067DC]
01 75,4 [A4BFCD2A] [0BA2AC4F] CRC32
02 86,0 [B0955DBC] [7D8349A7] CRC32
03 74,5 [87EA0358] [26780942] CRC32
04 84,6 [5F5DE158] [4F9B6577] CRC32
05 90,6 [2D32DFC0] [B487CE87] CRC32
06 90,5 [7BF948D8] [4B896F77] CRC32
07 82,4 [D07D72B7] [EA70C2E8] CRC32
08 90,5 [8C97F60E] [8175BA9C] CRC32

Magnum - Marauder (1980) {1987, Reissue}

All thanks go to rigodon

>>> Magnum in my Blog <<<

Download from icerbox.com: