Subcategories

Magnum - The Gathering (2010) {5CD Box Set} Restored

Posted By: popsakov
Magnum - The Gathering (2010) {5CD Box Set} Restored

Magnum - The Gathering (2010)
5CD | EAC Rip | FLAC (Img) + Cue + Log ~ 2,69 Gb | MP3 CBR320 ~ 937 Mb
Scans: PNG, 300 dpi ~ 572 Mb or JPG, 300 dpi ~ 118 Mb | 5% Recovery
Hard Rock, Progressive Rock, Melodic Rock | Sanctuary Records / Universal Music #5329907

The Gathering is the first-ever complete cross-career celebration of the U.K.’s much adored melodic rockers musical canon. From the very first demo’s recorded in 1974 right up to the last album, Into The Valley Of The Moonking released in 2009, The Gathering captures every era of Magnum’s life and work over 5 classic discs. Included in the chronology are previously unreleased live tracks; rare demos; hard-to-find single B-Sides featuring extended and alternative versions. Disc 5 of the set is a complete vintage live performance previously unreleased on CD and taken from the Wings Of Heaven tour recorded at the Hammersmith Odeon, London in March 1988. Accompanying the set is a sumptuous 60-page booklet which includes a ‘no stone left un-turned’ ten thousand word story of Magnum written by the Classic Rock magazine news editor, Dave Ling. The booklet also features an extensive pictorial history of the band with many previously unseen photographs and a ‘collectors spotting’ array of rare images of memorabilia and catalogue record releases. Also featured is a complete Magnum discography and Personnel list. Finally, The Gathering is wrapped in an exclusive artwork piece from Magnum’s long-standing contributing fantasy artist, Rodney Matthews.
The Gathering is the definitive Magnum release and a must-have item among the band’s loyal and devoted fan-base.
Magnum - The Gathering (2010) {5CD Box Set} Restored

Magnum are an English rock band from Birmingham. Formed as a four piece by Tony Clarkin (guitar, songwriter), Bob Catley (vocals), Kex Gorin (drums) and Bob Doyle (bass) in order to appear as the resident band at The Rum Runner night club in Birmingham. Magnum have undergone several changes in personnel over the years; however, the core of Catley and Clarkin remain.

Magnum's most notable success during their early years was Chase the Dragon in 1982, which reached #17 in the UK Albums Chart, and included several songs that would be mainstays of the band's live set, notably "Soldier of The Line", "Sacred Hour" and "The Spirit".

Their breakthrough came in 1985 with the album On a Storyteller's Night, which featured the single "Just Like an Arrow". This success continued in the following years with the Roger Taylor produced Vigilante in 1986, the Top 5 album Wings of Heaven in 1988, which featured three Top 40 singles, and the Keith Olsen produced Goodnight L.A. which reached #9 in the UK Album Chart in 1990.

In 1995, Clarkin announced Magnum's split; he later formed another band, with Catley and Al Barrow called Hard Rain. Magnum reformed in 2001 and have released a further eight studio albums since then. Their album Escape from the Shadow Garden was released in March 2014 and their most recent album, Sacred Blood "Divine" Lies, in February 2016.
~ Wiki
Magnum - The Gathering (2010) {5CD Box Set} Restored

Magnum - The Gathering (2010) {5CD Box Set} Restored


***************

Track List CD1:

01. Stormbringer [03:31]
02. Find The Time (Kingdom Of Madness Session Outtake) [03:05]
03. In The Beginning [07:54]
04. Baby Rock Me [04:08]
05. Universe [03:45]
06. Invasion [03:24]
07. Kingdom Of Madness (Alternative Version) [03:57]
08. Great Adventure [04:54]
09. Changes (7'' Single Remix) [04:12]
10. The Battle [02:11]
11. All Of My Life [04:43]
12. If I Could Live Forever (Live) [04:07]
13. Foolish Heart (Live) [03:10]
14. Lords Of Chaos (Live) [03:47]
15. The Lights Burned Out (Chase The Dragon Session Outtake) [04:07]
16. Soldier Of The Line [04:16]
17. On The Edge Of The World [04:23]
18. The Spirit [04:19]
19. The Teacher [03:24]

Exact Audio Copy V0.99 prebeta 5 from 4. May 2009

Отчёт EAC об извлечении, выполненном 30. декабря 2010, 0:04

Magnum / The Gathering CD1

Дисковод: HL-DT-STDVDRAM GSA-H60N Adapter: 2 ID: 0

Режим чтения : Достоверность
Использование точного потока : Да
Отключение кэша аудио : Да
Использование указателей C2 : Нет

Коррекция смещения при чтении : 667
Способность читать области Lead-in и Lead-out : Нет
Заполнение пропущенных сэмплов тишиной : Да
Удаление блоков с тишиной в начале и конце : Нет
При вычислениях CRC использовались нулевые сэмплы : Да
Интерфейс : Встроенный Win32-интерфейс для Win NT/2000

Выходной формат : Внутренние WAV-операции
Формат сэмплов : 44.100 Гц; 16 бит; стерео


TOC извлечённого CD

Трек | Старт | Длительность | Начальный сектор | Конечный сектор
––––––––––––––––––––––––––––––––––-
1 | 0:00.00 | 3:33.02 | 0 | 15976
2 | 3:33.02 | 3:05.46 | 15977 | 29897
3 | 6:38.48 | 7:53.69 | 29898 | 65441
4 | 14:32.42 | 4:05.45 | 65442 | 83861
5 | 18:38.12 | 3:47.15 | 83862 | 100901
6 | 22:25.27 | 3:24.22 | 100902 | 116223
7 | 25:49.49 | 3:57.15 | 116224 | 134013
8 | 29:46.64 | 4:53.39 | 134014 | 156027
9 | 34:40.28 | 4:12.12 | 156028 | 174939
10 | 38:52.40 | 2:11.08 | 174940 | 184772
11 | 41:03.48 | 4:42.72 | 184773 | 205994
12 | 45:46.45 | 4:07.13 | 205995 | 224532
13 | 49:53.58 | 3:09.37 | 224533 | 238744
14 | 53:03.20 | 3:47.44 | 238745 | 255813
15 | 56:50.64 | 4:06.12 | 255814 | 274275
16 | 60:57.01 | 4:16.51 | 274276 | 293526
17 | 65:13.52 | 4:22.31 | 293527 | 313207
18 | 69:36.08 | 4:19.02 | 313208 | 332634
19 | 73:55.10 | 3:22.04 | 332635 | 347788


Характеристики диапазона извлечения и сообщения об ошибках

Выбранный диапазон

Имя файла C:\Documents and Settings\Администратор\Рабочий стол\Lossless Galaxy Rip by ALLexxess\2010 The Gathering (5CD Box Set Universal Music)\CD1\Magnum - The Gathering CD1.wav

Пиковый уровень 96.6 %
Качество диапазона 100.0 %
CRC теста 5F7641A9
CRC копии 5F7641A9
Копирование… OK

Ошибок не произошло


AccurateRip: сводка

Трек 1 нет в базе данных
Трек 2 нет в базе данных
Трек 3 нет в базе данных
Трек 4 нет в базе данных
Трек 5 нет в базе данных
Трек 6 нет в базе данных
Трек 7 нет в базе данных
Трек 8 нет в базе данных
Трек 9 нет в базе данных
Трек 10 нет в базе данных
Трек 11 нет в базе данных
Трек 12 нет в базе данных
Трек 13 нет в базе данных
Трек 14 нет в базе данных
Трек 15 нет в базе данных
Трек 16 нет в базе данных
Трек 17 нет в базе данных
Трек 18 нет в базе данных
Трек 19 нет в базе данных

Ни одного трека нет в базе AccurateRip

Конец отчёта

foobar2000 1.2.6 / Dynamic Range Meter 1.1.1
log date: 2016-07-12 14:32:22

––––––––––––––––––––––––––––––––––––––––
Analyzed: Magnum / The Gathering CD1
––––––––––––––––––––––––––––––––––––––––

DR Peak RMS Duration Track
––––––––––––––––––––––––––––––––––––––––
DR7 -3.08 dB -11.36 dB 3:33 01-Stormbringer
DR6 -1.28 dB -9.02 dB 3:06 02-Find The Time (Kingdom Of Madness Session Outtake)
DR9 -0.30 dB -10.59 dB 7:54 03-In The Beginning
DR9 -0.30 dB -10.48 dB 4:06 04-Baby Rock Me
DR9 -0.30 dB -11.35 dB 3:47 05-Universe
DR8 -0.30 dB -9.86 dB 3:24 06-Invasion
DR7 -0.30 dB -8.79 dB 3:57 07-Kingdom Of Madness (Alternative Version)
DR10 -0.98 dB -12.66 dB 4:54 08-Great Adventure
DR8 -0.78 dB -10.30 dB 4:12 09-Changes (7'' Single Remix)
DR8 -1.88 dB -11.20 dB 2:11 10-The Battle
DR9 -0.58 dB -12.29 dB 4:43 11-All Of My Life
DR8 -0.30 dB -10.53 dB 4:07 12-If I Could Live Forever (Live)
DR9 -0.30 dB -10.42 dB 3:09 13-Foolish Heart (Live)
DR8 -0.30 dB -9.73 dB 3:48 14-Lords Of Chaos (Live)
DR6 -1.12 dB -11.37 dB 4:06 15-The Lights Burned Out (Chase The Dragon Session Outtake)
DR8 -1.20 dB -11.36 dB 4:17 16-Soldier Of The Line
DR8 -1.23 dB -11.31 dB 4:22 17-On The Edge Of The World
DR8 -1.20 dB -11.56 dB 4:19 18-The Spirit
DR8 -1.20 dB -10.85 dB 3:22 19-The Teacher
––––––––––––––––––––––––––––––––––––––––

Number of tracks: 19
Official DR value: DR8

Samplerate: 44100 Hz
Channels: 2
Bits per sample: 16
Bitrate: 976 kbps
Codec: FLAC
================================================================================

[CUETools log; Date: 12.07.2016 14:32:25; Version: 2.1.5]
[CTDB TOCID: p0jVraXIIOr7Rh8piKfM9QyxpHA-] found.
Track | CTDB Status
1 | (7/7) Accurately ripped
2 | (7/7) Accurately ripped
3 | (7/7) Accurately ripped
4 | (7/7) Accurately ripped
5 | (7/7) Accurately ripped
6 | (7/7) Accurately ripped
7 | (7/7) Accurately ripped
8 | (7/7) Accurately ripped
9 | (7/7) Accurately ripped
10 | (7/7) Accurately ripped
11 | (7/7) Accurately ripped
12 | (7/7) Accurately ripped
13 | (7/7) Accurately ripped
14 | (7/7) Accurately ripped
15 | (7/7) Accurately ripped
16 | (7/7) Accurately ripped
17 | (7/7) Accurately ripped
18 | (7/7) Accurately ripped
19 | (7/7) Accurately ripped
[AccurateRip ID: 003625a6-02f0e7ef-1a121d13] found.
Track [ CRC | V2 ] Status
01 [93116a9c|8c299347] (03+07/10) Accurately ripped
02 [2cb3170b|a2840dfe] (03+07/10) Accurately ripped
03 [964f404e|9447cef8] (03+07/10) Accurately ripped
04 [778418b7|4b3c17f4] (03+07/10) Accurately ripped
05 [8e32b846|68f64988] (03+07/10) Accurately ripped
06 [cb3bac7a|ca4ef811] (03+07/10) Accurately ripped
07 [77c1b3c8|06491dcd] (03+07/10) Accurately ripped
08 [4efe1f7d|5804efe2] (03+07/10) Accurately ripped
09 [d7e6f8af|30b9cc50] (03+07/10) Accurately ripped
10 [4448a946|688c1f39] (03+07/10) Accurately ripped
11 [f4f0131b|d605d98a] (03+07/10) Accurately ripped
12 [7b92d8fb|bb091d2c] (03+07/10) Accurately ripped
13 [888c1f14|9e596659] (03+07/10) Accurately ripped
14 [43c53255|399101c9] (03+07/10) Accurately ripped
15 [5678ca8b|0f109ab3] (03+07/10) Accurately ripped
16 [4e347501|4db490cb] (03+07/10) Accurately ripped
17 [20d9eb7b|3ff8fa81] (03+07/10) Accurately ripped
18 [f22e8971|014a7bbf] (03+07/10) Accurately ripped
19 [f7bf1c3c|dadb146c] (03+07/10) Accurately ripped

Track Peak [ CRC32 ] [W/O NULL] [ LOG ]
– 96,6 [5F7641A9] [1EED9FF3] CRC32
01 70,1 [ED8F3CF3] [6BE7927E]
02 86,3 [754A9FFB] [154E62B5]
03 96,6 [79260CE9] [4BBE214B]
04 96,6 [B7B7312D] [D37EF0F9]
05 96,6 [5E9F969A] [FBD7F5E5]
06 96,6 [F3A4D23A] [5584D455]
07 96,6 [38B27C41] [D30CE52B]
08 89,3 [58625CA9] [2A7363EB]
09 91,4 [A522170B] [E468268D]
10 80,5 [11D9A146] [E13650D4]
11 93,5 [A2FCC016] [8F24F23C]
12 96,6 [A73362C9] [EFD3BFFD]
13 96,6 [8ECDA08C] [15159391]
14 96,6 [E33FCEA2] [18C08025]
15 87,9 [332213CF] [004C2BD8]
16 87,0 [4FA3CDDA] [BBBA7B85]
17 86,7 [800FC3AF] [7F10DE76]
18 87,0 [B84B33B0] [47214239]
19 87,0 [4D55E741] [6588222D]

Magnum - The Gathering (2010) {5CD Box Set} Restored

Magnum - The Gathering (2010) {5CD Box Set} Restored

***************

Track List CD2:

01. Back To Earth (7'' Single A-Side) [03:37]
02. Hold Back Your Love (7'' Single B-Side) [03:19]
03. Long Days, Black Nights (7' Single B-Side) [03:11]
04. True Fine Love (The Eleventh Hour! Session Outtake) [03:23]
05. The Word (Orchestral Version) [05:00]
06. The Prize [03:40]
07. Breakdown [04:01]
08. Vicious Companions [03:38]
09. One Night Of Passion [03:50]
10. Road To Paradise [01:49]
11. All England's Eyes (On A Storyteller's Night Demo) [06:32]
12. How Far Jerusalem? [06:27]
13. Just Like An Arrow [03:23]
14. On A Storyteller's Night [05:02]
15. Les Morts Dansant [05:47]
16. Lonely Night [03:50]
17. Need A Lot Of Love [04:43]
18. Midnight (You Won't Be Sleeping) (12'' Single Remix) [06:24]

Exact Audio Copy V0.99 prebeta 5 from 4. May 2009

Отчёт EAC об извлечении, выполненном 30. декабря 2010, 21:10

Magnum / The Gathering CD2

Дисковод: HL-DT-STDVDRAM GSA-H60N Adapter: 2 ID: 0

Режим чтения : Достоверность
Использование точного потока : Да
Отключение кэша аудио : Да
Использование указателей C2 : Нет

Коррекция смещения при чтении : 667
Способность читать области Lead-in и Lead-out : Нет
Заполнение пропущенных сэмплов тишиной : Да
Удаление блоков с тишиной в начале и конце : Нет
При вычислениях CRC использовались нулевые сэмплы : Да
Интерфейс : Встроенный Win32-интерфейс для Win NT/2000

Выходной формат : Внутренние WAV-операции
Формат сэмплов : 44.100 Гц; 16 бит; стерео


TOC извлечённого CD

Трек | Старт | Длительность | Начальный сектор | Конечный сектор
––––––––––––––––––––––––––––––––––-
1 | 0:00.00 | 3:39.04 | 0 | 16428
2 | 3:39.04 | 3:19.36 | 16429 | 31389
3 | 6:58.40 | 3:10.69 | 31390 | 45708
4 | 10:09.34 | 3:23.07 | 45709 | 60940
5 | 13:32.41 | 4:59.45 | 60941 | 83410
6 | 18:32.11 | 3:40.00 | 83411 | 99910
7 | 22:12.11 | 4:02.04 | 99911 | 118064
8 | 26:14.15 | 3:36.74 | 118065 | 134338
9 | 29:51.14 | 3:50.23 | 134339 | 151611
10 | 33:41.37 | 3:30.45 | 151612 | 167406
11 | 37:12.07 | 4:50.34 | 167407 | 189190
12 | 42:02.41 | 6:26.43 | 189191 | 218183
13 | 48:29.09 | 3:23.01 | 218184 | 233409
14 | 51:52.10 | 5:01.67 | 233410 | 256051
15 | 56:54.02 | 5:47.71 | 256052 | 282147
16 | 62:41.73 | 3:49.50 | 282148 | 299372
17 | 66:31.48 | 4:43.00 | 299373 | 320597
18 | 71:14.48 | 6:21.41 | 320598 | 349213


Характеристики диапазона извлечения и сообщения об ошибках

Выбранный диапазон

Имя файла C:\Documents and Settings\Администратор\Рабочий стол\Lossless Galaxy Rip by ALLexxess\2010 The Gathering (5CD Box Set Universal Music)\CD2\Magnum - The Gathering CD2.wav

Пиковый уровень 97.0 %
Качество диапазона 100.0 %
CRC теста 1324B447
CRC копии 1324B447
Копирование… OK

Ошибок не произошло


AccurateRip: сводка

Трек 1 нет в базе данных
Трек 2 нет в базе данных
Трек 3 нет в базе данных
Трек 4 нет в базе данных
Трек 5 нет в базе данных
Трек 6 нет в базе данных
Трек 7 нет в базе данных
Трек 8 нет в базе данных
Трек 9 нет в базе данных
Трек 10 нет в базе данных
Трек 11 нет в базе данных
Трек 12 нет в базе данных
Трек 13 нет в базе данных
Трек 14 нет в базе данных
Трек 15 нет в базе данных
Трек 16 нет в базе данных
Трек 17 нет в базе данных
Трек 18 нет в базе данных

Ни одного трека нет в базе AccurateRip

Конец отчёта

foobar2000 1.2.6 / Dynamic Range Meter 1.1.1
log date: 2016-07-12 14:33:16

––––––––––––––––––––––––––––––––––––––––
Analyzed: Magnum / The Gathering CD2
––––––––––––––––––––––––––––––––––––––––

DR Peak RMS Duration Track
––––––––––––––––––––––––––––––––––––––––
DR7 -0.76 dB -9.25 dB 3:39 01-Back To Earth (7'' Single A-Side)
DR8 -0.78 dB -10.61 dB 3:19 02-Hold Back Your Love (7'' Single B-Side)
DR7 -1.11 dB -9.55 dB 3:11 03-Long Days, Black Nights (7' Single B-Side)
DR7 -1.34 dB -9.65 dB 3:23 04-True Fine Love (The Eleventh Hour! Session Outtake)
DR7 -0.34 dB -9.58 dB 5:00 05-The Word (Orchestral Version)
DR7 -1.34 dB -9.89 dB 3:40 06-The Prize
DR7 -1.34 dB -10.05 dB 4:02 07-Breakdown
DR8 -0.34 dB -11.25 dB 3:37 08-Vicious Companions
DR8 -0.34 dB -9.91 dB 3:50 09-One Night Of Passion
DR9 -0.34 dB -10.84 dB 3:31 10-Road To Paradise
DR10 -0.26 dB -11.55 dB 4:50 11-All England's Eyes (On A Storyteller's Night Demo)
DR8 -0.26 dB -10.62 dB 6:27 12-How Far Jerusalem?
DR7 -0.26 dB -8.33 dB 3:23 13-Just Like An Arrow
DR8 -0.26 dB -10.64 dB 5:02 14-On A Storyteller's Night
DR9 -0.26 dB -11.70 dB 5:48 15-Les Morts Dansant
DR11 -0.26 dB -13.18 dB 3:50 16-Lonely Night
DR10 -0.26 dB -13.30 dB 4:43 17-Need A Lot Of Love
DR10 -0.26 dB -12.74 dB 6:22 18-Midnight (You Won't Be Sleeping) (12'' Single Remix)
––––––––––––––––––––––––––––––––––––––––

Number of tracks: 18
Official DR value: DR8

Samplerate: 44100 Hz
Channels: 2
Bits per sample: 16
Bitrate: 924 kbps
Codec: FLAC
================================================================================

[CUETools log; Date: 12.07.2016 14:33:20; Version: 2.1.5]
[CTDB TOCID: hGp44rgEFMRzTE79k46StAXBb4w-] found.
Track | CTDB Status
1 | (9/9) Accurately ripped
2 | (9/9) Accurately ripped
3 | (9/9) Accurately ripped
4 | (9/9) Accurately ripped
5 | (9/9) Accurately ripped
6 | (9/9) Accurately ripped
7 | (9/9) Accurately ripped
8 | (9/9) Accurately ripped
9 | (9/9) Accurately ripped
10 | (9/9) Accurately ripped
11 | (9/9) Accurately ripped
12 | (9/9) Accurately ripped
13 | (9/9) Accurately ripped
14 | (9/9) Accurately ripped
15 | (9/9) Accurately ripped
16 | (9/9) Accurately ripped
17 | (9/9) Accurately ripped
18 | (9/9) Accurately ripped
[AccurateRip ID: 002ea6e8-027a01f4-dc123012] found.
Track [ CRC | V2 ] Status
01 [0e35bef9|318a0882] (03+07/10) Accurately ripped
02 [fee90cfb|d1bff2ee] (03+07/10) Accurately ripped
03 [e834579d|878505e7] (03+07/10) Accurately ripped
04 [a6734ac7|43a076f6] (03+07/10) Accurately ripped
05 [d164a851|9e092326] (03+07/10) Accurately ripped
06 [44d28ce8|99b99260] (03+07/10) Accurately ripped
07 [351b5e54|53632ae0] (03+07/10) Accurately ripped
08 [f675543c|da7b7966] (03+07/10) Accurately ripped
09 [2cfecd32|7ba13cfe] (03+07/10) Accurately ripped
10 [e281065d|9ab9763f] (03+07/10) Accurately ripped
11 [62991a8f|6ee3d336] (03+07/10) Accurately ripped
12 [90714a74|5e20cba3] (03+07/10) Accurately ripped
13 [80174ec0|04b7f4c5] (03+07/10) Accurately ripped
14 [7f6d7ce7|4d5e69fa] (03+06/09) Accurately ripped
15 [a525758b|3c47d7bd] (03+07/10) Accurately ripped
16 [eba829ee|8f75ba54] (03+07/10) Accurately ripped
17 [7fb3b8b7|249ac6ec] (03+07/10) Accurately ripped
18 [b4106e8f|775eae69] (03+07/10) Accurately ripped

Track Peak [ CRC32 ] [W/O NULL] [ LOG ]
– 97,0 [1324B447] [5AB6FEDD] CRC32
01 91,6 [FAC30AAC] [3B6E2BF7]
02 91,4 [4B6800BF] [4ECF467A]
03 87,9 [F58BA878] [D4162D8B]
04 85,7 [DF21DD54] [C314D6AA]
05 96,1 [7BECA534] [044F2677]
06 85,7 [52315386] [5DF48F07]
07 85,7 [98E89059] [3D8CE2F9]
08 96,1 [1B338E57] [6F97D485]
09 96,1 [94A34308] [BB4D46C6]
10 96,1 [E36E291C] [D2AA14F3]
11 97,0 [15E57869] [9D8BA7E1]
12 97,0 [247A7C65] [64940F45]
13 97,0 [6E814C68] [78F3D5F0]
14 97,0 [F51F012E] [DD10CDD3]
15 97,0 [49B606AC] [398EC587]
16 97,0 [891B6F93] [FCED1965]
17 97,0 [761077D3] [B5E95334]
18 97,0 [D89C6ED0] [A2E6C781]

Magnum - The Gathering (2010) {5CD Box Set} Restored

Magnum - The Gathering (2010) {5CD Box Set} Restored

***************

Track List CD3:

01. When The World Comes Down (12'' Single Full-Length Version) [05:20]
02. Vigilante [06:41]
03. Days Of No Trust (12'' Single Extended Version) [05:09]
04. Wild Swan [06:16]
05. It Must Have Been Love [05:17]
06. Don't Wake The Lion (Too Old To Die Young) [10:33]
07. Start Talking Love [03:41]
08. Crying Time [04:45]
09. C'est La Vie (12'' Single Bonus Track) [04:13]
10. Maybe Tonight (Single B-Side) [04:37]
11. Rockin' Chair [04:11]
12. Heartbroke And Busted [03:35]
13. What Kind Of Love Is This? [04:33]
14. Hanging Tree (Single B-Side) [03:39]
15. Cry For You (Single B-Side) [03:56]

Exact Audio Copy V0.99 prebeta 5 from 4. May 2009

Отчёт EAC об извлечении, выполненном 30. декабря 2010, 22:34

Magnum / The Gathering CD3

Дисковод: HL-DT-STDVDRAM GSA-H60N Adapter: 2 ID: 0

Режим чтения : Достоверность
Использование точного потока : Да
Отключение кэша аудио : Да
Использование указателей C2 : Нет

Коррекция смещения при чтении : 667
Способность читать области Lead-in и Lead-out : Нет
Заполнение пропущенных сэмплов тишиной : Да
Удаление блоков с тишиной в начале и конце : Нет
При вычислениях CRC использовались нулевые сэмплы : Да
Интерфейс : Встроенный Win32-интерфейс для Win NT/2000

Выходной формат : Внутренние WAV-операции
Формат сэмплов : 44.100 Гц; 16 бит; стерео


TOC извлечённого CD

Трек | Старт | Длительность | Начальный сектор | Конечный сектор
––––––––––––––––––––––––––––––––––-
1 | 0:00.00 | 5:22.38 | 0 | 24187
2 | 5:22.38 | 6:40.63 | 24188 | 54250
3 | 12:03.26 | 5:08.68 | 54251 | 77418
4 | 17:12.19 | 6:16.28 | 77419 | 105646
5 | 23:28.47 | 5:16.51 | 105647 | 129397
6 | 28:45.23 | 10:33.11 | 129398 | 176883
7 | 39:18.34 | 3:40.74 | 176884 | 193457
8 | 42:59.33 | 4:45.06 | 193458 | 214838
9 | 47:44.39 | 4:13.06 | 214839 | 233819
10 | 51:57.45 | 4:35.44 | 233820 | 254488
11 | 56:33.14 | 4:10.54 | 254489 | 273292
12 | 60:43.68 | 3:36.19 | 273293 | 289511
13 | 64:20.12 | 4:33.30 | 289512 | 310016
14 | 68:53.42 | 3:39.15 | 310017 | 326456
15 | 72:32.57 | 3:53.64 | 326457 | 343995


Характеристики диапазона извлечения и сообщения об ошибках

Выбранный диапазон

Имя файла C:\Documents and Settings\Администратор\Рабочий стол\Lossless Galaxy Rip by ALLexxess\2010 The Gathering (5CD Box Set Universal Music)\CD3\Magnum - The Gathering CD3.wav

Пиковый уровень 97.0 %
Качество диапазона 100.0 %
CRC теста 7AA235C6
CRC копии 7AA235C6
Копирование… OK

Ошибок не произошло


AccurateRip: сводка

Трек 1 нет в базе данных
Трек 2 нет в базе данных
Трек 3 нет в базе данных
Трек 4 нет в базе данных
Трек 5 нет в базе данных
Трек 6 нет в базе данных
Трек 7 нет в базе данных
Трек 8 нет в базе данных
Трек 9 нет в базе данных
Трек 10 нет в базе данных
Трек 11 нет в базе данных
Трек 12 нет в базе данных
Трек 13 нет в базе данных
Трек 14 нет в базе данных
Трек 15 нет в базе данных

Ни одного трека нет в базе AccurateRip

Конец отчёта

foobar2000 1.2.6 / Dynamic Range Meter 1.1.1
log date: 2016-07-12 14:34:09

––––––––––––––––––––––––––––––––––––––––
Analyzed: Magnum / The Gathering CD3
––––––––––––––––––––––––––––––––––––––––

DR Peak RMS Duration Track
––––––––––––––––––––––––––––––––––––––––
DR12 -0.26 dB -15.27 dB 5:23 01-When The World Comes Down (12'' Single Full-Length Version)
DR11 -0.26 dB -13.19 dB 6:41 02-Vigilante
DR10 -0.26 dB -11.96 dB 5:09 03-Days Of No Trust (12'' Single Extended Version)
DR11 -0.26 dB -13.44 dB 6:16 04-Wild Swan
DR11 -0.26 dB -13.48 dB 5:17 05-It Must Have Been Love
DR12 -0.26 dB -14.19 dB 10:33 06-Don't Wake The Lion (Too Old To Die Young)
DR11 -0.26 dB -12.70 dB 3:41 07-Start Talking Love
DR10 -1.01 dB -14.23 dB 4:45 08-Crying Time
DR10 -0.26 dB -12.57 dB 4:13 09-C'est La Vie (12'' Single Bonus Track)
DR10 -0.26 dB -11.92 dB 4:36 10-Maybe Tonight (Single B-Side)
DR12 -0.28 dB -13.10 dB 4:11 11-Rockin' Chair
DR10 -0.26 dB -11.96 dB 3:36 12-Heartbroke And Busted
DR9 -0.76 dB -11.62 dB 4:33 13-What Kind Of Love Is This?
DR10 -0.26 dB -11.44 dB 3:39 14-Hanging Tree (Single B-Side)
DR10 -0.56 dB -11.73 dB 3:54 15-Cry For You (Single B-Side)
––––––––––––––––––––––––––––––––––––––––

Number of tracks: 15
Official DR value: DR11

Samplerate: 44100 Hz
Channels: 2
Bits per sample: 16
Bitrate: 907 kbps
Codec: FLAC
================================================================================

[CUETools log; Date: 12.07.2016 14:34:13; Version: 2.1.5]
[CTDB TOCID: QHJ_YI7MqWidgqy1A6RERbUDI6s-] found.
Track | CTDB Status
1 | (9/9) Accurately ripped
2 | (9/9) Accurately ripped
3 | (9/9) Accurately ripped
4 | (9/9) Accurately ripped
5 | (9/9) Accurately ripped
6 | (9/9) Accurately ripped
7 | (9/9) Accurately ripped
8 | (9/9) Accurately ripped
9 | (9/9) Accurately ripped
10 | (9/9) Accurately ripped
11 | (9/9) Accurately ripped
12 | (9/9) Accurately ripped
13 | (9/9) Accurately ripped
14 | (9/9) Accurately ripped
15 | (9/9) Accurately ripped
[AccurateRip ID: 002de4b4-01fea8f4-cd11ea0f] found.
Track [ CRC | V2 ] Status
01 [45dc8c50|25b777f9] (03+07/10) Accurately ripped
02 [b40ccb37|09e306cc] (03+07/10) Accurately ripped
03 [39833435|a8261946] (03+07/10) Accurately ripped
04 [d79e4b42|5daf825a] (03+07/10) Accurately ripped
05 [bf6cc0f8|a823b422] (03+07/10) Accurately ripped
06 [80d510dd|8d331566] (03+07/10) Accurately ripped
07 [749af454|2cb2b750] (03+07/10) Accurately ripped
08 [a1d7038e|3c28a590] (03+07/10) Accurately ripped
09 [c6167409|45442921] (03+07/10) Accurately ripped
10 [bff5b346|bae04710] (03+07/10) Accurately ripped
11 [cb355026|f6c8d9d7] (03+07/10) Accurately ripped
12 [e8e4dae2|5729be19] (03+07/10) Accurately ripped
13 [25052ef8|f29ed5e8] (03+07/10) Accurately ripped
14 [14ebe254|7fa0cbc4] (03+07/10) Accurately ripped
15 [e5400652|28bdc559] (03+07/10) Accurately ripped

Track Peak [ CRC32 ] [W/O NULL] [ LOG ]
– 97,0 [7AA235C6] [F01ADFCB] CRC32
01 97,0 [E7702B16] [29573C8D]
02 97,0 [7B313C6D] [246688B4]
03 97,0 [E898159D] [E8670C50]
04 97,0 [D171008E] [4A70D17C]
05 97,0 [5FDEE426] [F7458D0C]
06 97,0 [6A524B53] [689A477E]
07 97,0 [724C39B2] [765DF542]
08 88,9 [8106A364] [54A46359]
09 97,0 [EA0B255E] [DAC68428]
10 97,0 [73C0F567] [0CE5E962]
11 96,8 [A99E009A] [1F729012]
12 97,0 [8A6FC01D] [FE9F5BC0]
13 91,6 [891A01C6] [B36C0736]
14 97,0 [7E8D946F] [7D87158B]
15 93,7 [140139B1] [7DCB9AD1]

Magnum - The Gathering (2010) {5CD Box Set} Restored

Magnum - The Gathering (2010) {5CD Box Set} Restored

***************

Track List CD4:

01. Where Do You Run To (12'' Single B-Side) [03:43]
02. Stormy Weather [04:44]
03. Only In America [04:02]
04. Just A Little Bit (Single B-Side) [03:59]
05. Maybe Tonight (Acoustic Version) [03:29]
06. Without Your Love (Acoustic Version) [04:45]
07. We All Need To Be Loved [05:00]
08. The Tall Ships [05:14]
09. The Last Dance (Live From The Farewell Tour) [04:44]
10. Sacred Hour (Live From The Farewell Tour) [05:47]
11. Breath Of Life [04:49]
12. Brand New Morning [06:17]
13. Dragons Are Real [05:20]
14. Thank You For The Day [05:10]
15. The Moonking [06:18]
16. A Face In The Crowd [06:29]

Exact Audio Copy V0.99 prebeta 5 from 4. May 2009

Отчёт EAC об извлечении, выполненном 31. декабря 2010, 0:23

Magnum / The Gathering CD4

Дисковод: HL-DT-STDVDRAM GSA-H60N Adapter: 2 ID: 0

Режим чтения : Достоверность
Использование точного потока : Да
Отключение кэша аудио : Да
Использование указателей C2 : Нет

Коррекция смещения при чтении : 667
Способность читать области Lead-in и Lead-out : Нет
Заполнение пропущенных сэмплов тишиной : Да
Удаление блоков с тишиной в начале и конце : Нет
При вычислениях CRC использовались нулевые сэмплы : Да
Интерфейс : Встроенный Win32-интерфейс для Win NT/2000

Выходной формат : Внутренние WAV-операции
Формат сэмплов : 44.100 Гц; 16 бит; стерео


TOC извлечённого CD

Трек | Старт | Длительность | Начальный сектор | Конечный сектор
––––––––––––––––––––––––––––––––––-
1 | 0:00.00 | 3:45.61 | 0 | 16935
2 | 3:45.61 | 4:43.13 | 16936 | 38173
3 | 8:28.74 | 4:02.38 | 38174 | 56361
4 | 12:31.37 | 3:58.16 | 56362 | 74227
5 | 16:29.53 | 3:28.52 | 74228 | 89879
6 | 19:58.30 | 4:45.28 | 89880 | 111282
7 | 24:43.58 | 4:59.57 | 111283 | 133764
8 | 29:43.40 | 5:13.69 | 133765 | 157308
9 | 34:57.34 | 4:43.08 | 157309 | 178541
10 | 39:40.42 | 5:49.26 | 178542 | 204742
11 | 45:29.68 | 4:48.34 | 204743 | 226376
12 | 50:18.27 | 6:17.28 | 226377 | 254679
13 | 56:35.55 | 5:20.12 | 254680 | 278691
14 | 61:55.67 | 5:09.67 | 278692 | 301933
15 | 67:05.59 | 6:18.12 | 301934 | 330295
16 | 73:23.71 | 6:26.38 | 330296 | 359283


Характеристики диапазона извлечения и сообщения об ошибках

Выбранный диапазон

Имя файла C:\Documents and Settings\Администратор\Рабочий стол\Lossless Galaxy Rip by ALLexxess\2010 The Gathering (5CD Box Set Universal Music)\CD4\Magnum - The Gathering CD4.wav

Пиковый уровень 97.0 %
Качество диапазона 100.0 %
CRC теста EFCB3E88
CRC копии EFCB3E88
Копирование… OK

Ошибок не произошло


AccurateRip: сводка

Трек 1 нет в базе данных
Трек 2 нет в базе данных
Трек 3 нет в базе данных
Трек 4 нет в базе данных
Трек 5 нет в базе данных
Трек 6 нет в базе данных
Трек 7 нет в базе данных
Трек 8 нет в базе данных
Трек 9 нет в базе данных
Трек 10 нет в базе данных
Трек 11 нет в базе данных
Трек 12 нет в базе данных
Трек 13 нет в базе данных
Трек 14 нет в базе данных
Трек 15 нет в базе данных
Трек 16 нет в базе данных

Ни одного трека нет в базе AccurateRip

Конец отчёта

foobar2000 1.2.6 / Dynamic Range Meter 1.1.1
log date: 2016-07-12 14:35:00

––––––––––––––––––––––––––––––––––––––––
Analyzed: Magnum / The Gathering CD4
––––––––––––––––––––––––––––––––––––––––

DR Peak RMS Duration Track
––––––––––––––––––––––––––––––––––––––––
DR9 -0.26 dB -12.62 dB 3:46 01-Where Do You Run To (12'' Single B-Side)
DR7 -3.01 dB -12.53 dB 4:43 02-Stormy Weather
DR9 -0.40 dB -12.69 dB 4:03 03-Only In America
DR11 -0.26 dB -12.00 dB 3:58 04-Just A Little Bit (Single B-Side)
DR11 -2.58 dB -15.30 dB 3:29 05-Maybe Tonight (Acoustic Version)
DR12 -1.53 dB -16.05 dB 4:45 06-Without Your Love (Acoustic Version)
DR11 -0.26 dB -12.84 dB 5:00 07-We All Need To Be Loved
DR11 -0.27 dB -13.48 dB 5:14 08-The Tall Ships
DR11 -0.26 dB -14.38 dB 4:43 09-The Last Dance (Live From The Farewell Tour)
DR10 -0.26 dB -12.26 dB 5:49 10-Sacred Hour (Live From The Farewell Tour)
DR6 -3.16 dB -11.37 dB 4:48 11-Breath Of Life
DR7 -3.86 dB -11.96 dB 6:17 12-Brand New Morning
DR7 -2.94 dB -11.62 dB 5:20 13-Dragons Are Real
DR6 -3.10 dB -11.05 dB 5:10 14-Thank You For The Day
DR6 -3.06 dB -11.01 dB 6:18 15-The Moonking
DR6 -3.06 dB -10.94 dB 6:27 16-A Face In The Crowd
––––––––––––––––––––––––––––––––––––––––

Number of tracks: 16
Official DR value: DR9

Samplerate: 44100 Hz
Channels: 2
Bits per sample: 16
Bitrate: 936 kbps
Codec: FLAC
================================================================================

[CUETools log; Date: 12.07.2016 14:35:00; Version: 2.1.5]
[CTDB TOCID: x2n7r1tdfTDKwuJL2BPVRjvgnjQ-] found.
Track | CTDB Status
1 | (7/7) Accurately ripped
2 | (7/7) Accurately ripped
3 | (7/7) Accurately ripped
4 | (7/7) Accurately ripped
5 | (7/7) Accurately ripped
6 | (7/7) Accurately ripped
7 | (7/7) Accurately ripped
8 | (7/7) Accurately ripped
9 | (7/7) Accurately ripped
10 | (7/7) Accurately ripped
11 | (7/7) Accurately ripped
12 | (7/7) Accurately ripped
13 | (7/7) Accurately ripped
14 | (7/7) Accurately ripped
15 | (7/7) Accurately ripped
16 | (7/7) Accurately ripped
[AccurateRip ID: 002aea45-020d78f4-d612b610] found.
Track [ CRC | V2 ] Status
01 [cea171df|75db3ac2] (03+07/10) Accurately ripped
02 [91825967|01599bf5] (03+07/10) Accurately ripped
03 [653775e3|7bfc5f26] (03+07/10) Accurately ripped
04 [499b2ab0|aba6bc65] (03+07/10) Accurately ripped
05 [b7a89c45|861c5d2b] (03+07/10) Accurately ripped
06 [0734f62d|6bcb95da] (03+07/10) Accurately ripped
07 [863d8cf2|3c647197] (03+07/10) Accurately ripped
08 [34b26aae|97716e4a] (03+07/10) Accurately ripped
09 [052b7e1d|146bd932] (03+06/09) Accurately ripped
10 [284a79c1|1443aae4] (03+07/10) Accurately ripped
11 [91f08749|abf4334b] (03+07/10) Accurately ripped
12 [9de778ae|1d26ec4c] (03+07/10) Accurately ripped
13 [40ac7df9|d9694f02] (03+07/10) Accurately ripped
14 [8ccad1f0|290eae3b] (03+07/10) Accurately ripped
15 [fe7d306b|82ad152d] (03+07/10) Accurately ripped
16 [3cc0279a|30b54f72] (03+07/10) Accurately ripped

Track Peak [ CRC32 ] [W/O NULL] [ LOG ]
– 97,0 [EFCB3E88] [E10900D6] CRC32
01 97,0 [19C26F34] [13945496]
02 70,6 [D711FD11] [3D09A44E]
03 95,4 [BB4B2980] [A5082CE5]
04 97,0 [EB2F32D4] [713C503C]
05 74,2 [AFEE0066] [278FB5BA]
06 83,8 [DB17C77F] [954632FB]
07 97,0 [AD0F355D] [9AFB4C73]
08 96,9 [E64B5A69] [7E19DC24]
09 97,0 [5CBDC4EB] [F9537017]
10 97,0 [8FBA5EA0] [46BAF969]
11 69,5 [23B24354] [C0E9ADB4]
12 64,1 [5FDF5A45] [C2D1DDB5]
13 71,3 [5A1CF063] [C804AB99]
14 70,0 [FA08BD16] [AF057F81]
15 70,2 [F0CA95C7] [7A0A6D3D]
16 70,2 [00A8999B] [E2FE7490]

Magnum - The Gathering (2010) {5CD Box Set} Restored

Magnum - The Gathering (2010) {5CD Box Set} Restored

***************

Track List CD5 - Live At Hammersmith 26th March 1988:

01. Vigilante [05:44]
02. Wild Swan [06:37]
03. Start Talking Love [04:01]
04. On A Storyteller's Night [05:50]
05. Need A Lot Of Love [05:08]
06. How Far Jerusalem? [07:19]
07. Lonely Night (Previously Unreleased) [03:59]
08. Days Of No Trust [04:58]
09. Don't Wake The Lion (Too Old To Die Young) [11:09]
10. Midnight (You Won't Be Sleeping) (Previously Unreleased) [04:45]
11. Just Like An Arrow [04:05]
12. Kingdom Of Madness [05:18]
13. The Spirit (Previously Unreleased) [04:00]
14. Sacred Hour [05:45]

Exact Audio Copy V0.99 prebeta 5 from 4. May 2009

Отчёт EAC об извлечении, выполненном 31. декабря 2010, 1:24

Magnum / The Gathering CD5

Дисковод: HL-DT-STDVDRAM GSA-H60N Adapter: 2 ID: 0

Режим чтения : Достоверность
Использование точного потока : Да
Отключение кэша аудио : Да
Использование указателей C2 : Нет

Коррекция смещения при чтении : 667
Способность читать области Lead-in и Lead-out : Нет
Заполнение пропущенных сэмплов тишиной : Да
Удаление блоков с тишиной в начале и конце : Нет
При вычислениях CRC использовались нулевые сэмплы : Да
Интерфейс : Встроенный Win32-интерфейс для Win NT/2000

Выходной формат : Внутренние WAV-операции
Формат сэмплов : 44.100 Гц; 16 бит; стерео


TOC извлечённого CD

Трек | Старт | Длительность | Начальный сектор | Конечный сектор
––––––––––––––––––––––––––––––––––-
1 | 0:00.00 | 5:44.71 | 0 | 25870
2 | 5:44.71 | 6:36.37 | 25871 | 55607
3 | 12:21.33 | 4:01.10 | 55608 | 73692
4 | 16:22.43 | 5:49.41 | 73693 | 99908
5 | 22:12.09 | 5:08.32 | 99909 | 123040
6 | 27:20.41 | 7:19.05 | 123041 | 155970
7 | 34:39.46 | 3:58.37 | 155971 | 173857
8 | 38:38.08 | 4:58.53 | 173858 | 196260
9 | 43:36.61 | 11:08.41 | 196261 | 246401
10 | 54:45.27 | 4:45.09 | 246402 | 267785
11 | 59:30.36 | 4:04.66 | 267786 | 286151
12 | 63:35.27 | 5:17.50 | 286152 | 309976
13 | 68:53.02 | 4:00.13 | 309977 | 327989
14 | 72:53.15 | 5:45.28 | 327990 | 353892


Характеристики диапазона извлечения и сообщения об ошибках

Выбранный диапазон

Имя файла C:\Documents and Settings\Администратор\Рабочий стол\Lossless Galaxy Rip by ALLexxess\2010 The Gathering (5CD Box Set Universal Music)\CD5\Magnum - The Gathering CD5.wav

Пиковый уровень 97.0 %
Качество диапазона 100.0 %
CRC теста 82F99291
CRC копии 82F99291
Копирование… OK

Ошибок не произошло


AccurateRip: сводка

Трек 1 нет в базе данных
Трек 2 нет в базе данных
Трек 3 нет в базе данных
Трек 4 нет в базе данных
Трек 5 нет в базе данных
Трек 6 нет в базе данных
Трек 7 нет в базе данных
Трек 8 нет в базе данных
Трек 9 нет в базе данных
Трек 10 нет в базе данных
Трек 11 нет в базе данных
Трек 12 нет в базе данных
Трек 13 нет в базе данных
Трек 14 нет в базе данных

Ни одного трека нет в базе AccurateRip

Конец отчёта

foobar2000 1.2.6 / Dynamic Range Meter 1.1.1
log date: 2016-07-12 14:35:43

––––––––––––––––––––––––––––––––––––––––
Analyzed: Magnum / The Gathering CD5
––––––––––––––––––––––––––––––––––––––––

DR Peak RMS Duration Track
––––––––––––––––––––––––––––––––––––––––
DR8 -0.26 dB -10.41 dB 5:45 01-Vigilante
DR8 -0.26 dB -10.89 dB 6:36 02-Wild Swan
DR9 -0.26 dB -10.46 dB 4:01 03-Start Talking Love
DR9 -0.26 dB -12.05 dB 5:50 04-On A Storyteller's Night
DR9 -0.26 dB -11.16 dB 5:08 05-Need A Lot Of Love
DR9 -0.26 dB -12.06 dB 7:19 06-How Far Jerusalem?
DR9 -0.26 dB -10.31 dB 3:58 07-Lonely Night (Previously Unreleased)
DR9 -0.26 dB -10.38 dB 4:59 08-Days Of No Trust
DR9 -0.26 dB -11.82 dB 11:09 09-Don't Wake The Lion (Too Old To Die Young)
DR9 -0.26 dB -11.23 dB 4:45 10-Midnight (You Won't Be Sleeping) (Previously Unreleased)
DR8 -0.26 dB -10.16 dB 4:05 11-Just Like An Arrow
DR9 -0.26 dB -11.21 dB 5:18 12-Kingdom Of Madness
DR13 -0.26 dB -18.43 dB 4:00 13-The Spirit (Previously Unreleased)
DR8 -0.26 dB -11.73 dB 5:45 14-Sacred Hour
––––––––––––––––––––––––––––––––––––––––

Number of tracks: 14
Official DR value: DR9

Samplerate: 44100 Hz
Channels: 2
Bits per sample: 16
Bitrate: 943 kbps
Codec: FLAC
================================================================================

[CUETools log; Date: 12.07.2016 14:35:46; Version: 2.1.5]
[CTDB TOCID: 30.rtUM5reFjtkFJoCRxUf3Gbvk-] found.
Track | CTDB Status
1 | (8/8) Accurately ripped
2 | (8/8) Accurately ripped
3 | (8/8) Accurately ripped
4 | (8/8) Accurately ripped
5 | (8/8) Accurately ripped
6 | (8/8) Accurately ripped
7 | (8/8) Accurately ripped
8 | (8/8) Accurately ripped
9 | (8/8) Accurately ripped
10 | (8/8) Accurately ripped
11 | (8/8) Accurately ripped
12 | (8/8) Accurately ripped
13 | (8/8) Accurately ripped
14 | (8/8) Accurately ripped
[AccurateRip ID: 002924dc-01b70cd2-c5126e0e] found.
Track [ CRC | V2 ] Status
01 [7f8a2498|5e22c698] (03+07/10) Accurately ripped
02 [f2b5a9ff|26850cc8] (03+07/10) Accurately ripped
03 [af051e8a|c361ee29] (03+07/10) Accurately ripped
04 [f27e6185|1bcc33a5] (03+07/10) Accurately ripped
05 [ef7e09f2|92905ff8] (03+07/10) Accurately ripped
06 [d402a567|52a194b6] (03+07/10) Accurately ripped
07 [c2996a0d|873a3263] (03+07/10) Accurately ripped
08 [c8f788c1|3c3f4e4f] (03+07/10) Accurately ripped
09 [f9e98372|3d689cd1] (03+07/10) Accurately ripped
10 [aebb5574|c1417100] (03+07/10) Accurately ripped
11 [9e1f893a|8e17cff5] (03+07/10) Accurately ripped
12 [76d94558|b29db420] (03+07/10) Accurately ripped
13 [0d6b23f9|8ad5d3b4] (03+07/10) Accurately ripped
14 [7391b69f|cbf2459e] (03+07/10) Accurately ripped

Track Peak [ CRC32 ] [W/O NULL] [ LOG ]
– 97,0 [82F99291] [DBEF0DE6] CRC32
01 97,0 [1B9EEA1B] [537B0E4C]
02 97,0 [ECC9AF1E] [98A422E5]
03 97,0 [8E95284A] [B2A9FD7A]
04 97,0 [025E6423] [0ABA301C]
05 97,0 [4410AB23] [AF87AAB1]
06 97,0 [BFAFAAE6] [8094EB90]
07 97,0 [CE9A4120] [3C6FA00C]
08 97,0 [AF927E82] [38E69B4F]
09 97,0 [56714D6B] [28C9B06B]
10 97,0 [6F5F91E6] [2D37AD91]
11 97,0 [91FB8AC9] [299E6911]
12 97,0 [FB8601E9] [27BF8DCE]
13 97,0 [43052E0C] [B423EE45]
14 97,0 [466D4155] [07830291]

Magnum - The Gathering (2010) {5CD Box Set} Restored

Magnum - The Gathering (2010) {5CD Box Set} Restored

Personnel:

Tony Clarkin — Guitar
Bob Catley — Vocals
Wally Lowe — Bass
Richard Bailey — Keyboards, Flute
Kex Gorin — Drums
Mark Stanway — Keyboards
Robin George — Guitar
Mickey Barker — Drums
Jim Simpson — Drums

See also:
Magnum - Kingdom Of Madness (1978/1999)

All thanks go to ALLexxess

Visit my blog!

Download: