Subcategories

Gürzenich-Orchester Köln & François-Xavier Roth - Mahler: Symphony No. 5 (2017)

Posted By: SERTiL
Gürzenich-Orchester Köln & François-Xavier Roth - Mahler: Symphony No. 5 (2017)

Gürzenich-Orchester Köln & François-Xavier Roth - Mahler: Symphony No. 5 (2017)
EAC Rip | FLAC (tracks)+cue, log, booklet | 309 MB
Label: Harmonia Mundi – HMM905285 | Tracks:05 | Time: 70:42 min
Classical, Orchestral

Immortalized in Luchino Visconti’s masterpiece “Death in Venice”, Mahler’s Symphony No. 5 (with its unforgettable Adagietto) today needs no introduction. Except to point out that the composer himself led its premiere some 113 years ago, conducting the Gürzenich Orchestra of Cologne. For this recording, the modern-day players comprising the very same ensemble are led by the city’s newly appointed General Music Director, François-Xavier Roth, which patently places this version in a class of its own.

This same Cologne orchestra, in 1904, gave the premiere of Mahler No 5. Whether or not it was that fact that inspired these fine players and their brilliant conductor to surpass themselves, their account of the symphony is exceptional: intensely vivid, abrasive, violent in its contrasting dynamics, sounding at times like a modern work. ~ Sunday Times19th November 2017

an exciting and fresh-sounding performance, played on modern instruments but with a raw energy that Roth has brought from his work with his own period-instrument group, Les Siècles. Thanks to the transparency of sound they achieve we get to hear lots of usually hidden detail, and the players relish it. ~ The Guardian14th December 2017

Gürzenich-Orchester Köln & François-Xavier Roth - Mahler: Symphony No. 5 (2017)


Tracklist:

Gustav Mahler (1860-1911)

Symphony No. 5 in C-Sharp Minor
1 I. Trauermarsch. In gemessenem Schritt. Streng. Wie ein Kondukt 12:19
2 II. Stürmisch bewegt. Mit größter Vehemenz 14:19
3 III. Scherzo. Kräftig, nicht zu schnell 18:08
4 IV. Adagietto. Sehr langsam 10:46
5 V. Rondo-Finale. Allegro 15:10

Personnel:
Gürzenich-Orchester Köln
Francois-Xavier Roth, conductor

Exact Audio Copy V1.3 from 2. September 2016

EAC extraction logfile from 27. December 2017, 15:43

Gürzenich-Orchester Köln, François-Xavier Roth / Symphony No.5

Used drive : HL-DT-STDVDRAM GP57EB40 Adapter: 1 ID: 0

Read mode : Secure
Utilize accurate stream : Yes
Defeat audio cache : Yes
Make use of C2 pointers : No

Read offset correction : 6
Overread into Lead-In and Lead-Out : No
Fill up missing offset samples with silence : Yes
Delete leading and trailing silent blocks : No
Null samples used in CRC calculations : Yes
Used interface : Native Win32 interface for Win NT & 2000
Gap handling : Appended to previous track

Used output format : User Defined Encoder
Selected bitrate : 1024 kBit/s
Quality : High
Add ID3 tag : No
Command line compressor : C:\Program Files (x86)\Exact Audio Copy\Flac\flac.exe
Additional command line options : -8 -e -V -T "ARTIST=%artist%" -T "TITLE=%title%" -T "ALBUM=%albumtitle%" -T "DATE=%year%" -T "TRACKNUMBER=%tracknr%" -T "GENRE=%genre%" -T "PERFORMER=%albuminterpret%" -T "COMPOSER=%composer%" %haslyrics%–tag-from-file=LYRICS="%lyricsfile%"%haslyrics% -T "ALBUMARTIST=%albumartist%" -T "DISCNUMBER=%cdnumber%" -T "TOTALDISCS=%totalcds%" -T "TOTALTRACKS=%numtracks%" -T "COMMENT=%comment%" %source% -o %dest%


TOC of the extracted CD

Track | Start | Length | Start sector | End sector
––––––––––––––––––––––––––––-
1 | 0:00.00 | 12:19.39 | 0 | 55463
2 | 12:19.39 | 14:19.70 | 55464 | 119958
3 | 26:39.34 | 18:08.56 | 119959 | 201614
4 | 44:48.15 | 10:46.12 | 201615 | 250076
5 | 55:34.27 | 15:10.60 | 250077 | 318386


Track 1

Filename C:\elemental5\Mahler, Roth - Symphony No.5 (2017) [FLAC]\01. I. Trauermarsch.wav

Pre-gap length 0:00:02.00

Peak level 88.2 %
Extraction speed 3.5 X
Track quality 100.0 %
Test CRC 89EAB012
Copy CRC 89EAB012
Track not present in AccurateRip database
Copy OK

Track 2

Filename C:\elemental5\Mahler, Roth - Symphony No.5 (2017) [FLAC]\02. II. Stürmisch bewegt.wav

Peak level 99.9 %
Extraction speed 4.4 X
Track quality 100.0 %
Test CRC 85CF9867
Copy CRC 85CF9867
Track not present in AccurateRip database
Copy OK

Track 3

Filename C:\elemental5\Mahler, Roth - Symphony No.5 (2017) [FLAC]\03. III. Scherzo. Kräftig, nicht zu schnell.wav

Peak level 79.2 %
Extraction speed 5.3 X
Track quality 100.0 %
Test CRC 9BE8E418
Copy CRC 9BE8E418
Track not present in AccurateRip database
Copy OK

Track 4

Filename C:\elemental5\Mahler, Roth - Symphony No.5 (2017) [FLAC]\04. IV. Adagietto. Sehr langsam.wav

Peak level 34.5 %
Extraction speed 5.8 X
Track quality 100.0 %
Test CRC 642D4BA7
Copy CRC 642D4BA7
Track not present in AccurateRip database
Copy OK

Track 5

Filename C:\elemental5\Mahler, Roth - Symphony No.5 (2017) [FLAC]\05. V. Rondo-Finale. Allegro.wav

Peak level 99.9 %
Extraction speed 6.4 X
Track quality 100.0 %
Test CRC 1647A191
Copy CRC 1647A191
Track not present in AccurateRip database
Copy OK


None of the tracks are present in the AccurateRip database

No errors occurred

End of status report

–– CUETools DB Plugin V2.1.6

[CTDB TOCID: dLhQ2eM0AtNzX0QGhXmpe07syL8-] found
Submit result: dLhQ2eM0AtNzX0QGhXmpe07syL8- has been confirmed
Track | CTDB Status
1 | (2/2) Accurately ripped
2 | (2/2) Accurately ripped
3 | (2/2) Accurately ripped
4 | (2/2) Accurately ripped
5 | (2/2) Accurately ripped


==== Log checksum 4F8063F328A265EE08BA57A37883F9F8EA6A9CDDF92BD1B19886691084AA0BEC ====


Gürzenich-Orchester Köln & François-Xavier Roth - Mahler: Symphony No. 5 (2017)


Thanks to the Original customer.