Subcategories

Budapest Festival Orchestra, Iván Fisher - Mahler: Symphony No. 3 (2017)

Posted By: SERTiL
Budapest Festival Orchestra, Iván Fisher - Mahler: Symphony No. 3 (2017)

Budapest Festival Orchestra, Iván Fisher - Mahler: Symphony No. 3 (2017)
EAC Rip | FLAC (tracks)+cue, log, m3u, scans | 320 MB
Label: Channel Classics – CCSSA38817 | Tracks: 06 | Time: 95:44 min
Classical

I love the whole symphony but from the second movement two favorite moments, two details, spring to mind. First, the recapitulation when the solo violin takes flight, like a buzzing bee around a flower, and then accidentally finds itself in a wonderful modulation to E major. The second is the ending. The flowers, that move and dance elegantly against the wind, suddenly expose their Tristan-like soul. From the vast first movement I would choose the huge, yawning creature’s (Pan’s?) first appearance. Conducting the Scherzo I am always carried away by the inserted episodes which interrupt the post horn – first by a group of baroque birds, then rococo ones flying up from the pages of a Mozart piano concerto. What an ingenious and unpredictable use of different styles! Finally, the endless melody of the last movement moves me every time with its intimate beauty and honesty. There is something divine in the wealth of this great masterpiece. Iván Fischer

Tracklist:

Gustav Mahler (1860-1911)

CD 1

Symphony No. 3
1. Entschieden 33:14

CD2

Symphony No. 3
2. Tempo di Menuetto 10:14
3. Comodo, Scherzando 18:31
4. Sehr Langsam 08:15
5. Lustig im Tempo 04:02
6. Langsam. Ruhevoll 21:31

Personnel:
Gerhild Romberger (alto)
Cantemus Children's Choir (chorus)
Chor des Bayerischen Rundfunks (chorus)
Budapest Festival Orchestra
Iván Fischer (conductor)

Exact Audio Copy V1.0 beta 3 from 29. August 2011

EAC extraction logfile from 30. January 2018, 18:27

Budapest Festival Orchestra, Iván Fischer / Symphony no. 3

Used drive : MATSHITADVD-RAM UJ8G6 Adapter: 0 ID: 0

Read mode : Secure
Utilize accurate stream : Yes
Defeat audio cache : Yes
Make use of C2 pointers : No

Read offset correction : 103
Overread into Lead-In and Lead-Out : No
Fill up missing offset samples with silence : Yes
Delete leading and trailing silent blocks : No
Null samples used in CRC calculations : Yes
Used interface : Native Win32 interface for Win NT & 2000
Gap handling : Appended to previous track

Used output format : User Defined Encoder
Selected bitrate : 1024 kBit/s
Quality : High
Add ID3 tag : No
Command line compressor : C:\Program Files (x86)\Exact Audio Copy\Flac\flac.exe
Additional command line options : -8 -e -p -V -T "ARTIST=%artist%" -T "TITLE=%title%" -T "ALBUM=%albumtitle%" -T "DATE=%year%" -T "TRACKNUMBER=%tracknr%" -T "GENRE=%genre%" -T "PERFORMER=%albuminterpret%" -T "COMPOSER=%composer%" %haslyrics%–tag-from-file=LYRICS="%lyricsfile%"%haslyrics% -T "ALBUMARTIST=%albumartist%" -T "DISCNUMBER=%cdnumber%" -T "TOTALDISCS=%totalcds%" -T "TOTALTRACKS=%numtracks%" -T "COMMENT=%comment%" %source% -o %dest%


TOC of the extracted CD

Track | Start | Length | Start sector | End sector
––––––––––––––––––––––––––––-
1 | 0:00.00 | 33:12.73 | 0 | 149472


Track 1

Filename C:\Users\Yann\Music\#EAC rips\Nouveau dossier (2)\01 - I. Kräftig Entschieden.wav

Pre-gap length 0:00:02.00

Peak level 100.0 %
Extraction speed 3.1 X
Track quality 99.9 %
Test CRC E500EC29
Copy CRC E500EC29
Accurately ripped (confidence 8) [E8CB85D3] (AR v2)
Copy OK


All tracks accurately ripped

No errors occurred

End of status report

–– CUETools DB Plugin V2.1.3

[CTDB TOCID: aERBYV2z_ajNU5WloRNeBoSS0L4-] found, Submit result: aERBYV2z_ajNU5WloRNeBoSS0L4- has been confirmed
[7cab17af] (32/32) Accurately ripped


==== Log checksum 64C8460C6E105346AEBFD7C4259EABDE3BFE1E3CB74A348A9CD9F7285908CBD3 ====

Exact Audio Copy V1.0 beta 3 from 29. August 2011

EAC extraction logfile from 30. January 2018, 19:32

Budapest Festival Orchestra, Iván Fischer, Gerhild Romberger, Cantemus Children’s Choir, Chor des Bayerischen Rundfunks / Symphony no. 3

Used drive : MATSHITADVD-RAM UJ8G6 Adapter: 0 ID: 0

Read mode : Secure
Utilize accurate stream : Yes
Defeat audio cache : Yes
Make use of C2 pointers : No

Read offset correction : 103
Overread into Lead-In and Lead-Out : No
Fill up missing offset samples with silence : Yes
Delete leading and trailing silent blocks : No
Null samples used in CRC calculations : Yes
Used interface : Native Win32 interface for Win NT & 2000
Gap handling : Appended to previous track

Used output format : User Defined Encoder
Selected bitrate : 1024 kBit/s
Quality : High
Add ID3 tag : No
Command line compressor : C:\Program Files (x86)\Exact Audio Copy\Flac\flac.exe
Additional command line options : -8 -e -p -V -T "ARTIST=%artist%" -T "TITLE=%title%" -T "ALBUM=%albumtitle%" -T "DATE=%year%" -T "TRACKNUMBER=%tracknr%" -T "GENRE=%genre%" -T "PERFORMER=%albuminterpret%" -T "COMPOSER=%composer%" %haslyrics%–tag-from-file=LYRICS="%lyricsfile%"%haslyrics% -T "ALBUMARTIST=%albumartist%" -T "DISCNUMBER=%cdnumber%" -T "TOTALDISCS=%totalcds%" -T "TOTALTRACKS=%numtracks%" -T "COMMENT=%comment%" %source% -o %dest%


TOC of the extracted CD

Track | Start | Length | Start sector | End sector
––––––––––––––––––––––––––––-
1 | 0:00.00 | 10:12.43 | 0 | 45942
2 | 10:12.43 | 18:31.53 | 45943 | 129320
3 | 28:44.21 | 8:16.16 | 129321 | 166536
4 | 37:00.37 | 4:04.04 | 166537 | 184840
5 | 41:04.41 | 21:29.27 | 184841 | 281542


Track 1

Filename C:\Users\Yann\Music\#EAC rips\Nouveau dossier (3)\01 - Budapest Festival Orchestra, Iván Fischer, Gerhild Romberger, Cantemus Children’s Choir, Chor des Bayerischen Rundfunks - II. Tempo di Menuetto. Sehr mässig.wav

Pre-gap length 0:00:02.00

Peak level 31.8 %
Extraction speed 2.6 X
Track quality 99.9 %
Test CRC ED87CF53
Copy CRC ED87CF53
Accurately ripped (confidence 8) [4FE8898A] (AR v2)
Copy OK

Track 2

Filename C:\Users\Yann\Music\#EAC rips\Nouveau dossier (3)\02 - Gustav Mahler - III. Comodo. Scherzando. Ohne Hast.wav

Pre-gap length 0:00:05.50

Peak level 100.0 %
Extraction speed 3.6 X
Track quality 100.0 %
Test CRC 8BDBF1F4
Copy CRC 8BDBF1F4
Accurately ripped (confidence 8) [7006526D] (AR v2)
Copy OK

Track 3

Filename C:\Users\Yann\Music\#EAC rips\Nouveau dossier (3)\03 - Gustav Mahler - IV. Sehr langsam. Misterioso. Durchaus (ppp).wav

Pre-gap length 0:00:06.57

Peak level 18.3 %
Extraction speed 4.1 X
Track quality 100.0 %
Test CRC D4A988FB
Copy CRC D4A988FB
Accurately ripped (confidence 8) [5380680D] (AR v2)
Copy OK

Track 4

Filename C:\Users\Yann\Music\#EAC rips\Nouveau dossier (3)\04 - Gustav Mahler - V. Lustig im Tempo und keck im Ausdruck.wav

Pre-gap length 0:00:01.76

Peak level 59.8 %
Extraction speed 4.0 X
Track quality 100.0 %
Test CRC 682E28B4
Copy CRC 682E28B4
Accurately ripped (confidence 8) [93F3C73C] (AR v2)
Copy OK

Track 5

Filename C:\Users\Yann\Music\#EAC rips\Nouveau dossier (3)\05 - Gustav Mahler - VI. Langsam. Ruhevoll. Empfunden.wav

Pre-gap length 0:00:01.54

Peak level 96.0 %
Extraction speed 4.9 X
Track quality 100.0 %
Test CRC C71FAB74
Copy CRC C71FAB74
Accurately ripped (confidence 8) [ADE335E3] (AR v2)
Copy OK


All tracks accurately ripped

No errors occurred

End of status report

–– CUETools DB Plugin V2.1.3

[CTDB TOCID: qXx0_tN3odLTGcH2rNIG25IrkVg-] found, Submit result: qXx0_tN3odLTGcH2rNIG25IrkVg- has been confirmed
[4331860e] (32/32) Accurately ripped


==== Log checksum E8F5FFB5BD597E469E793FA44BA22B7DC7B60367E4A18CE9213A2576233DB6D8 ====


Thanks to the Original customer.