Subcategories

VA - Manchester: North Of England ~ A Story Of Independent Music From Greater Manchester 1977-1993 (2017)

Posted By: SERTiL
VA - Manchester: North Of England ~ A Story Of Independent Music From Greater Manchester 1977-1993 (2017)

VA - Manchester: North Of England ~ A Story Of Independent Music From Greater Manchester 1977-1993
EAC Rip | FLAC (tracks)+cue, log, front cover | 09:11:24 | 3.62 GB
Label: Cherry Red ‎– CRCDBOX38 | Tracks: 146 | Rls.date: 2017
Post-Punk, New Wave, Brit-Pop, Indie Rock

From Buzzcocks to Britpop, Manchester North Of England is the ultimate tribute to the independent output of that most important and iconic of musical cities, with 146 tracks across seven CDs in a deluxe box set.

Compiled by the team behind other Cherry Red box sets (Scared To Get Happy, Still In A Dream, Millions Like Us, Action Time Vision, etc.), this tells the story of how indie music exploded in Manchester after the rush of Punk and the seminal release of the Buzzcocks’ Spiral Scratch EP.

With exhaustive sleeve-notes by the city’s leading music journalist of the era, Mick Middles, and a foreword by Mark Radcliffe, Manchester North Of England includes many of the key bands from the late 70s to the early 90s – Joy Division, The Fall, New Order, James, Happy Mondays, Stone Roses, Morrissey, John Cooper Clarke, 808 State, A Certain Ratio, Durutti Column, The Charlatans and last but not least, Oasis.

Although the scene was dominated by blokes with guitars, which is reflected here, Manchester North Of England also doffs its cap to reggae, soul, singer-songwriters, hip-hop, avant garde, techno/industrial and dance music.

Inspired by Bop Cassettes’ 1988 compilation (name + cover image), the box set is being presented in conjunction with MDMA (Manchester District Music Archive).

Many of the tracks appear on CD for the first time, from the Punk explosion through Factory Records, post-punk, the jangly C86 period, Madchester, Indie-Dance and the early 90s transition into what would become Britpop.

TRACKLIST

CD1
1. BREAKDOWN (Demo) – Buzzcocks
2. CRANKED UP REALLY HIGH – Slaughter And The Dogs
3. AIN’T BIN TO NO MUSIC SCHOOL – The Nosebleeds
4. JUST WANT TO BE MYSELF (LP Version) – The Drones
5. PSYCLE SLUTS Pts. 1 & 2 – John Cooper Clarke
6. GOING STEADY – Jilted John
7. LOUIE LOUIE (Edit) – John The Postman
8. HEADS DOWN NO NONSENSE MINDLESS BOOGIE – Albertos Y Lost Trios Paranoias
9. THE LIGHT POURS OUT OF ME – Magazine
10. THE KILL – Spherical Objects
11. UP AND ABOUT – Steve Miro
12. MAN IN THE BOX – V2
13. MAYBE IT’S LOVE – The Distractions
14. STAY AWAKE – Grow-Up
15. VOICE IN THE DARK – Frantic Elevators
16. SHE’S LOST CONTROL – Joy Division
17. BAISER – Chris Sievey
18. TO YOU – The Smirks
19. MANCHESTER BOYS – Salford Jets
20. SNAP IT AROUND – 48 Chairs
21. DOWNPOUR – Foreign Press
22. WARREN ROW – She Cracked
23. ENGLISH BLACK BOYS (Edit) – X-O-Dus
24. DEM A SUS (IN THE MOSS) – Harlem Spirit

CD2
1. ROWCHE RUMBLE – The Fall
2. THE KIDS JUST WANNA DANCE – Fast Cars
3. DOES IT MATTER IRENE? – The Mothmen
4. YESTERDAY’S LOVE – Any Trouble
5. BIG NOISE IN THE JUNGLE – The Tiller Boys
6. NO FORGETTING – Manchester Mekon
7. FAITH – Manicured Noise
8. EDWARD FOX – Smack
9. SOME LIKE IT HOT – Bet Lynch’s Legs
10. LIPS THAT WOULD KISS (FORM PRAYERS TO BROKEN STONE) – Durutti Column
11. THE FLOOD – Blue Orchids
12. I’M IN LOVE WITH THE GIRL ON THE MANCHESTER VIRGIN MEGASTORE CHECKOUT DESK – The Freshies
13. CLOUD OF FLIES – The Hamsters
14. ACID TABLA DUB – Suns Of Arqa
15. THE FOX – A Certain Ratio
16. DEAF – Crispy Ambulance
17. MY CHERRY IS IN SHERRY – Ludus
18. BRICKS – The Diagram Bros.
19. SUBLIMINAL – Eric Random
20. VALIUM GIRLS – Bee Vamp
21. IN SHREDS – The Chameleons

CD3
1. TEMPTATION (7” Version) – New Order
2. MARKING TIME – Syncopation
3. ROSEMARY – Dislocation Dance
4. SUGAR DADDY – Carmel
5. YOU’VE GOT ME BEAT – Swamp Children
6. DISCIPLINE – Gods Gift
7. PROCESSION – Nico & The Invisible Girls
8. COOL AS ICE (U.S. 7” Edit) – 52nd Street
9. SHARP TONGUE – The Passage
10. AAIR CARE – Biting Tongues
11. OF ALL – LEAVES WERE FALLING – Jane
12. WORKING AND SHOPPING – Tools You Can Trust
13. LOVE TEMPO (Benelux Edit) – Quando Quango
14. GRUNT CADILLAC HOTEL – Inca Babies
15. REACH FOR LOVE – Marcel King
16. LOOKING FROM A HILLTOP – Section 25
17. TELL ME – Life
18. ALL AT ONCE – Stockholm Monsters
19. SPIKE MILLIGAN’S TAPE RECORDER – The Membranes
20. KITCHEN SINK DRAMA – A Witness
21. LOVE AT THE HACIENDA – Graham Fellows

CD4
1. CHAIN MAIL – James
2. BELLE VUE – Miaow
3. WHISTLING IN THE DARK – Easterhouse
4. SCAR TISSUE – The Bodines
5. WHY POPSTARS CAN’T DANCE – Big Flame
6. CHINA DOLL – The Weeds
7. GET HIGH – Yargo
8. SHARP – Twang
9. ME AND MY MINI – Edward Barton
10. D’YOU THINK I LOOK LIKE ELVIS PRESLEY? – Big Ed & His Rocking Rattlesnakes
11. GARAGE FULL OF FLOWERS (Flexi Version) – Inspiral Carpets
12. DAYS OF THE WEEK – The Danny Boys
13. LET GO – Thirst
14. DRIVE DRIVE DRIVE (TWENTY TWO AND STILL IN LOVE WITH YOU) – The Man From Delmonte
15. FALLING UPSTAIRS – The Monkey Run
16. SPEND MY WHOLE LIFE LOVING YOU – Metro Trinity
17. TAKE ME DOWN – Mirrors Over Kiev
18. THIS IS HOW I FEEL – The Paperboys
19. A PECK ON THE CHEEK À LA POLITIQUÉ – The Great Leap Forward
20. KILL ALL THE BOYS – Tot
21. MEAT MOUTH IS MURDER – Meat Mouth
22. CARIÑO – T-Coy

CD5
1. 24 HOUR PARTY PEOPLE – Happy Mondays
2. MAN IN A SUIT – Ambitious Beggars
3. SKIN STORM – Bradford
4. TIME TO LOSE IT (John Peel Radio Session Version) – Laugh
5. HURRY ON DOWN (WHEN WILL I SEE YOU AGAIN) – Too Much Texas
6. PESSIMISTIC MAN – Fallover 24
7. THE DEEPEST – The Waltones
8. NICE TIME AT THE DISCO – Raintree Country
9. SUBWAY LIFE – Johnny Dangerously
10. IN SALFORD THE SUN DOESN’T SHINE – Jean Go Solo
11. PASSION IN THE AFTERNOON – The Desert Wolves
12. THE LAST OF THE FAMOUS INTERNATIONAL PLAYBOYS – Morrissey
13. FANCIABLE HEADCASE – King Of The Slums
14. C’EST LA VIE – The Sun And The Moon
15. CHORUS OF THE LOST – The Reegs
16. THE MAN WITH THE GOLDEN ARM – Barry Adamson
17. OOH! THIS FEELING – The Jazz Defektors
18. ALL THIS AND HEAVEN TOO (Radio Edit) – Chapter And The Verse
19. VOODOO RAY – A Guy Called Gerald
20. BORN IN THE NORTH – Us

CD6
1. WHAT THE WORLD IS WAITING FOR – The Stone Roses
2. VEIN – What? Noise
3. SWERVE – Dub Sex
4. HOLD ON – The Train Set
5. WATERSKIN – The Jerks
6. AND THEN SHE SMILES – The Mock Turtles
7. 7 REASONS (Demo) – Revenge
8. GETTING AWAY WITH IT – Electronic
9. HOW SLEEP THE BRAVE (Jazz Mix Vocal Edit) – MC Buzz B
10. THE ONLY RHYME THAT BITES – MC Tunes vs 808 State
11. BIG – New Fast Automatic Daffodils
12. SHALL WE TAKE A TRIP – Northside
13. GET READY – The Rainkings
14. PERFUME – Paris Angels
15. BOX SET GO – The High
16. 18 DAZE – The Cygnet Ring
17. DAZED – Asia Fields
18. AND IT WASN’T A DREAM – Ruthless Rap Assassins
19. COMING THROUGH CLEAR – Krispy 3
20. LET OFF (7” Mix) – Kiss AMC featuring Ruthless Rap Assassins

CD7
1. SPROSTON GREEN – The Charlatans
2. GIANT SEA – Swirl
3. SONS OF THE STAGE – World Of Twist
4. DREAM BEAM (7″ Edit By Ben Chapman) – Hypnotone
5. CUBIK (Original Mix) – 808 State
6. SPACE FACE – Sub Sub
7. CAMPER VAN – The Adventure Babies
8. FLY – The Days
9. MURDER – Kill Laura
10. CATERPILLARS – Wonky Alice
11. SOUP – Robinson
12. LIONROCK – Lionrock
13. SONG TO THE SIREN – The Chemical Brothers
14. CAN YOU FLY LIKE YOU MEAN IT (GUNGADIN) – Intastella feat. Shaun Ryder
15. OFFSHORE – Puressence
16. DIRT AND SOUL – Bandit Queen
17. BARNY – Molly Half Head
18. COLUMBIA (Demo) – Oasis

Exact Audio Copy V1.0 beta 3 from 29. August 2011

EAC extraction logfile from 4. October 2017, 21:26

Various Artists / A Story Of Independent Music Greater Manchester 1977 - 1993, Dsc 1

Used drive : TSSTcorpCDDVDW SE-218CB Adapter: 1 ID: 0

Read mode : Secure
Utilize accurate stream : Yes
Defeat audio cache : Yes
Make use of C2 pointers : No

Read offset correction : 6
Overread into Lead-In and Lead-Out : No
Fill up missing offset samples with silence : Yes
Delete leading and trailing silent blocks : No
Null samples used in CRC calculations : Yes
Used interface : Native Win32 interface for Win NT & 2000
Gap handling : Appended to previous track

Used output format : User Defined Encoder
Selected bitrate : 1024 kBit/s
Quality : High
Add ID3 tag : No
Command line compressor : C:\Program Files (x86)\Exact Audio Copy\Flac\flac.exe
Additional command line options : -8 -V -T "ARTIST=%artist%" -T "TITLE=%title%" -T "ALBUM=%albumtitle%" -T "DATE=%year%" -T "TRACKNUMBER=%tracknr%" -T "GENRE=%genre%" -T "PERFORMER=%albuminterpret%" -T "COMPOSER=%composer%" %haslyrics%–tag-from-file=LYRICS="%lyricsfile%"%haslyrics% -T "ALBUMARTIST=%albumartist%" -T "DISCNUMBER=%cdnumber%" -T "TOTALDISCS=%totalcds%" -T "TOTALTRACKS=%numtracks%" -T "COMMENT=%comment%" %source% -o %dest%


TOC of the extracted CD

Track | Start | Length | Start sector | End sector
––––––––––––––––––––––––––––-
1 | 0:00.00 | 2:09.71 | 0 | 9745
2 | 2:09.71 | 2:51.57 | 9746 | 22627
3 | 5:01.53 | 2:55.55 | 22628 | 35807
4 | 7:57.33 | 2:45.30 | 35808 | 48212
5 | 10:42.63 | 5:47.05 | 48213 | 74242
6 | 16:29.68 | 3:49.48 | 74243 | 91465
7 | 20:19.41 | 3:28.72 | 91466 | 107137
8 | 23:48.38 | 2:42.17 | 107138 | 119304
9 | 26:30.55 | 4:38.15 | 119305 | 140169
10 | 31:08.70 | 3:29.23 | 140170 | 155867
11 | 34:38.18 | 2:39.52 | 155868 | 167844
12 | 37:17.70 | 4:13.68 | 167845 | 186887
13 | 41:31.63 | 3:04.02 | 186888 | 200689
14 | 44:35.65 | 1:09.30 | 200690 | 205894
15 | 45:45.20 | 2:01.35 | 205895 | 215004
16 | 47:46.55 | 3:52.08 | 215005 | 232412
17 | 51:38.63 | 2:29.51 | 232413 | 243638
18 | 54:08.39 | 3:08.30 | 243639 | 257768
19 | 57:16.69 | 3:07.20 | 257769 | 271813
20 | 60:24.14 | 3:34.57 | 271814 | 287920
21 | 63:58.71 | 3:59.24 | 287921 | 305869
22 | 67:58.20 | 3:25.46 | 305870 | 321290
23 | 71:23.66 | 4:44.73 | 321291 | 342663
24 | 76:08.64 | 3:38.49 | 342664 | 359062


Track 1

Filename C:\EAC\VA - A Story Of Independent Music Greater Manchester 1977 - 1993, Dsc 1 - 2017 - FLAC - CD\01 - Buzzcocks - Breakdown (Demo).wav

Pre-gap length 0:00:02.00

Peak level 68.4 %
Extraction speed 1.7 X
Track quality 100.0 %
Test CRC A83A62FA
Copy CRC A83A62FA
Track not present in AccurateRip database
Copy OK

Track 2

Filename C:\EAC\VA - A Story Of Independent Music Greater Manchester 1977 - 1993, Dsc 1 - 2017 - FLAC - CD\02 - Slaughter & The Dogs - Cranked Up Really High.wav

Pre-gap length 0:00:01.00

Peak level 88.1 %
Extraction speed 1.9 X
Track quality 100.0 %
Test CRC ABBD8425
Copy CRC ABBD8425
Track not present in AccurateRip database
Copy OK

Track 3

Filename C:\EAC\VA - A Story Of Independent Music Greater Manchester 1977 - 1993, Dsc 1 - 2017 - FLAC - CD\03 - The Nosebleeds - Ain't Bin To No Music School.wav

Pre-gap length 0:00:01.00

Peak level 96.6 %
Extraction speed 2.1 X
Track quality 100.0 %
Test CRC D1639BF6
Copy CRC D1639BF6
Track not present in AccurateRip database
Copy OK

Track 4

Filename C:\EAC\VA - A Story Of Independent Music Greater Manchester 1977 - 1993, Dsc 1 - 2017 - FLAC - CD\04 - The Drones - Just Want To Be Myself (LP Version).wav

Pre-gap length 0:00:01.00

Peak level 96.6 %
Extraction speed 2.2 X
Track quality 100.0 %
Test CRC AEE5FD44
Copy CRC AEE5FD44
Track not present in AccurateRip database
Copy OK

Track 5

Filename C:\EAC\VA - A Story Of Independent Music Greater Manchester 1977 - 1993, Dsc 1 - 2017 - FLAC - CD\05 - John Cooper Clarke - Psycle Sluts Pts. 1 & 2.wav

Pre-gap length 0:00:01.00

Peak level 68.3 %
Extraction speed 2.6 X
Track quality 100.0 %
Test CRC B79CC34D
Copy CRC B79CC34D
Track not present in AccurateRip database
Copy OK

Track 6

Filename C:\EAC\VA - A Story Of Independent Music Greater Manchester 1977 - 1993, Dsc 1 - 2017 - FLAC - CD\06 - Jilted John - Going Steady.wav

Pre-gap length 0:00:01.00

Peak level 96.6 %
Extraction speed 2.6 X
Track quality 100.0 %
Test CRC 9CD20021
Copy CRC 9CD20021
Track not present in AccurateRip database
Copy OK

Track 7

Filename C:\EAC\VA - A Story Of Independent Music Greater Manchester 1977 - 1993, Dsc 1 - 2017 - FLAC - CD\07 - John The Postman - Louie Louie (Edit).wav

Pre-gap length 0:00:01.00

Peak level 96.6 %
Extraction speed 2.7 X
Track quality 100.0 %
Test CRC 236C91F6
Copy CRC 236C91F6
Track not present in AccurateRip database
Copy OK

Track 8

Filename C:\EAC\VA - A Story Of Independent Music Greater Manchester 1977 - 1993, Dsc 1 - 2017 - FLAC - CD\08 - Alberto Y Lost Trios Paranoias - Heads Down, No Nonsense, Mindless Boogie.wav

Pre-gap length 0:00:01.00

Peak level 89.1 %
Extraction speed 2.7 X
Track quality 100.0 %
Test CRC 784F09F3
Copy CRC 784F09F3
Track not present in AccurateRip database
Copy OK

Track 9

Filename C:\EAC\VA - A Story Of Independent Music Greater Manchester 1977 - 1993, Dsc 1 - 2017 - FLAC - CD\09 - Magazine - The Light Pours Out Of Me.wav

Pre-gap length 0:00:01.00

Peak level 78.8 %
Extraction speed 2.3 X
Track quality 99.9 %
Test CRC 8ED5C5B3
Copy CRC 8ED5C5B3
Track not present in AccurateRip database
Copy OK

Track 10

Filename C:\EAC\VA - A Story Of Independent Music Greater Manchester 1977 - 1993, Dsc 1 - 2017 - FLAC - CD\10 - Spherical Objects - The Kill.wav

Pre-gap length 0:00:01.00

Peak level 96.6 %
Extraction speed 2.9 X
Track quality 100.0 %
Test CRC A13016E0
Copy CRC A13016E0
Track not present in AccurateRip database
Copy OK

Track 11

Filename C:\EAC\VA - A Story Of Independent Music Greater Manchester 1977 - 1993, Dsc 1 - 2017 - FLAC - CD\11 - Steve Miro - Up And About.wav

Pre-gap length 0:00:01.00

Peak level 96.6 %
Extraction speed 2.0 X
Track quality 99.9 %
Test CRC 37AE597F
Copy CRC 37AE597F
Track not present in AccurateRip database
Copy OK

Track 12

Filename C:\EAC\VA - A Story Of Independent Music Greater Manchester 1977 - 1993, Dsc 1 - 2017 - FLAC - CD\12 - V2 - Man In The Box.wav

Pre-gap length 0:00:00.98

Peak level 96.6 %
Extraction speed 3.1 X
Track quality 100.0 %
Test CRC D3616322
Copy CRC D3616322
Track not present in AccurateRip database
Copy OK

Track 13

Filename C:\EAC\VA - A Story Of Independent Music Greater Manchester 1977 - 1993, Dsc 1 - 2017 - FLAC - CD\13 - The Distractions - Maybe It's Love.wav

Pre-gap length 0:00:01.00

Peak level 96.6 %
Extraction speed 3.1 X
Track quality 100.0 %
Test CRC 31659786
Copy CRC 31659786
Track not present in AccurateRip database
Copy OK

Track 14

Filename C:\EAC\VA - A Story Of Independent Music Greater Manchester 1977 - 1993, Dsc 1 - 2017 - FLAC - CD\14 - Grow-Up - Stay Awake.wav

Pre-gap length 0:00:01.00

Peak level 96.6 %
Extraction speed 1.3 X
Track quality 99.8 %
Test CRC 64CA3A71
Copy CRC 64CA3A71
Track not present in AccurateRip database
Copy OK

Track 15

Filename C:\EAC\VA - A Story Of Independent Music Greater Manchester 1977 - 1993, Dsc 1 - 2017 - FLAC - CD\15 - The Frantic Elevators - Voice In The Dark.wav

Pre-gap length 0:00:01.00

Peak level 96.6 %
Extraction speed 1.9 X
Track quality 99.9 %
Test CRC D0E89D62
Copy CRC D0E89D62
Track not present in AccurateRip database
Copy OK

Track 16

Filename C:\EAC\VA - A Story Of Independent Music Greater Manchester 1977 - 1993, Dsc 1 - 2017 - FLAC - CD\16 - Joy Division - She's Lost Control.wav

Pre-gap length 0:00:01.00

Peak level 74.9 %
Extraction speed 3.3 X
Track quality 100.0 %
Test CRC 224D4C35
Copy CRC 224D4C35
Track not present in AccurateRip database
Copy OK

Track 17

Filename C:\EAC\VA - A Story Of Independent Music Greater Manchester 1977 - 1993, Dsc 1 - 2017 - FLAC - CD\17 - Chris Sievey - Baiser.wav

Pre-gap length 0:00:01.00

Peak level 83.1 %
Extraction speed 3.1 X
Track quality 100.0 %
Test CRC E8C64764
Copy CRC E8C64764
Track not present in AccurateRip database
Copy OK

Track 18

Filename C:\EAC\VA - A Story Of Independent Music Greater Manchester 1977 - 1993, Dsc 1 - 2017 - FLAC - CD\18 - The Smirks - To You.wav

Pre-gap length 0:00:01.00

Peak level 96.6 %
Extraction speed 3.4 X
Track quality 100.0 %
Test CRC DAE6D8DD
Copy CRC DAE6D8DD
Track not present in AccurateRip database
Copy OK

Track 19

Filename C:\EAC\VA - A Story Of Independent Music Greater Manchester 1977 - 1993, Dsc 1 - 2017 - FLAC - CD\19 - Salford Jets - Manchester Boys.wav

Pre-gap length 0:00:01.00

Peak level 95.4 %
Extraction speed 3.4 X
Track quality 100.0 %
Test CRC DEDFF370
Copy CRC DEDFF370
Track not present in AccurateRip database
Copy OK

Track 20

Filename C:\EAC\VA - A Story Of Independent Music Greater Manchester 1977 - 1993, Dsc 1 - 2017 - FLAC - CD\20 - 48 Chairs - Snap It Around.wav

Pre-gap length 0:00:01.00

Peak level 96.6 %
Extraction speed 2.6 X
Track quality 99.9 %
Test CRC 39A85657
Copy CRC 39A85657
Track not present in AccurateRip database
Copy OK

Track 21

Filename C:\EAC\VA - A Story Of Independent Music Greater Manchester 1977 - 1993, Dsc 1 - 2017 - FLAC - CD\21 - Foreign-Press - Downpour.wav

Pre-gap length 0:00:01.00

Peak level 96.6 %
Extraction speed 3.7 X
Track quality 100.0 %
Test CRC 739805B2
Copy CRC 739805B2
Track not present in AccurateRip database
Copy OK

Track 22

Filename C:\EAC\VA - A Story Of Independent Music Greater Manchester 1977 - 1993, Dsc 1 - 2017 - FLAC - CD\22 - She Cracked - Warren Row.wav

Pre-gap length 0:00:01.00

Peak level 96.6 %
Extraction speed 3.7 X
Track quality 100.0 %
Test CRC BD0A6426
Copy CRC BD0A6426
Track not present in AccurateRip database
Copy OK

Track 23

Filename C:\EAC\VA - A Story Of Independent Music Greater Manchester 1977 - 1993, Dsc 1 - 2017 - FLAC - CD\23 - X-O-Dus - English Black Boys (Edit).wav

Pre-gap length 0:00:01.00

Peak level 96.6 %
Extraction speed 4.0 X
Track quality 100.0 %
Test CRC 67437815
Copy CRC 67437815
Track not present in AccurateRip database
Copy OK

Track 24

Filename C:\EAC\VA - A Story Of Independent Music Greater Manchester 1977 - 1993, Dsc 1 - 2017 - FLAC - CD\24 - Harlem Spirit - Dem A Sus (In The Moss).wav

Pre-gap length 0:00:01.00

Peak level 96.6 %
Extraction speed 2.8 X
Track quality 99.9 %
Test CRC FBBD9BA0
Copy CRC FBBD9BA0
Track not present in AccurateRip database
Copy OK


None of the tracks are present in the AccurateRip database

No errors occurred

End of status report

==== Log checksum 49BB342BD6CA059AB86DAB8C7554A4A5FBEF25D86DE7A8BD47043955D446F9F5 ====

Exact Audio Copy V1.0 beta 3 from 29. August 2011

EAC extraction logfile from 5. October 2017, 8:31

Various Artists / A Story Of Independent Music Greater Manchester 1977 - 1993, Dsc 2

Used drive : TSSTcorpCDDVDW SE-218CB Adapter: 1 ID: 0

Read mode : Secure
Utilize accurate stream : Yes
Defeat audio cache : Yes
Make use of C2 pointers : No

Read offset correction : 6
Overread into Lead-In and Lead-Out : No
Fill up missing offset samples with silence : Yes
Delete leading and trailing silent blocks : No
Null samples used in CRC calculations : Yes
Used interface : Native Win32 interface for Win NT & 2000
Gap handling : Appended to previous track

Used output format : User Defined Encoder
Selected bitrate : 1024 kBit/s
Quality : High
Add ID3 tag : No
Command line compressor : C:\Program Files (x86)\Exact Audio Copy\Flac\flac.exe
Additional command line options : -8 -V -T "ARTIST=%artist%" -T "TITLE=%title%" -T "ALBUM=%albumtitle%" -T "DATE=%year%" -T "TRACKNUMBER=%tracknr%" -T "GENRE=%genre%" -T "PERFORMER=%albuminterpret%" -T "COMPOSER=%composer%" %haslyrics%–tag-from-file=LYRICS="%lyricsfile%"%haslyrics% -T "ALBUMARTIST=%albumartist%" -T "DISCNUMBER=%cdnumber%" -T "TOTALDISCS=%totalcds%" -T "TOTALTRACKS=%numtracks%" -T "COMMENT=%comment%" %source% -o %dest%


TOC of the extracted CD

Track | Start | Length | Start sector | End sector
––––––––––––––––––––––––––––-
1 | 0:00.00 | 4:02.33 | 0 | 18182
2 | 4:02.33 | 3:28.39 | 18183 | 33821
3 | 7:30.72 | 4:13.61 | 33822 | 52857
4 | 11:44.58 | 2:49.44 | 52858 | 65576
5 | 14:34.27 | 5:54.58 | 65577 | 92184
6 | 20:29.10 | 2:56.31 | 92185 | 105415
7 | 23:25.41 | 3:30.19 | 105416 | 121184
8 | 26:55.60 | 4:07.56 | 121185 | 139765
9 | 31:03.41 | 4:29.45 | 139766 | 159985
10 | 35:33.11 | 3:47.21 | 159986 | 177031
11 | 39:20.32 | 4:18.74 | 177032 | 196455
12 | 43:39.31 | 2:50.13 | 196456 | 209218
13 | 46:29.44 | 4:02.73 | 209219 | 227441
14 | 50:32.42 | 3:01.06 | 227442 | 241022
15 | 53:33.48 | 3:05.04 | 241023 | 254901
16 | 56:38.52 | 3:57.46 | 254902 | 272722
17 | 60:36.23 | 2:39.53 | 272723 | 284700
18 | 63:16.01 | 2:44.27 | 284701 | 297027
19 | 66:00.28 | 4:40.55 | 297028 | 318082
20 | 70:41.08 | 4:34.47 | 318083 | 338679
21 | 75:15.55 | 4:07.74 | 338680 | 357278


Track 1

Filename C:\EAC\VA - A Story Of Independent Music Greater Manchester 1977 - 1993, Dsc 2 - 2017 - FLAC - CD\01 - The Fall - Rowche Rumble.wav

Pre-gap length 0:00:02.00

Peak level 96.6 %
Extraction speed 1.3 X
Track quality 100.0 %
Test CRC E7B7E79F
Copy CRC E7B7E79F
Track not present in AccurateRip database
Copy OK

Track 2

Filename C:\EAC\VA - A Story Of Independent Music Greater Manchester 1977 - 1993, Dsc 2 - 2017 - FLAC - CD\02 - Fast Cars - The Kids Just Wanna Dance.wav

Pre-gap length 0:00:01.00

Peak level 73.2 %
Extraction speed 1.3 X
Track quality 100.0 %
Test CRC 94F9A297
Copy CRC 94F9A297
Track not present in AccurateRip database
Copy OK

Track 3

Filename C:\EAC\VA - A Story Of Independent Music Greater Manchester 1977 - 1993, Dsc 2 - 2017 - FLAC - CD\03 - The Mothmen - Does It Matter Irene.wav

Pre-gap length 0:00:00.98

Peak level 96.6 %
Extraction speed 1.5 X
Track quality 100.0 %
Test CRC 442EBDD6
Copy CRC 442EBDD6
Track not present in AccurateRip database
Copy OK

Track 4

Filename C:\EAC\VA - A Story Of Independent Music Greater Manchester 1977 - 1993, Dsc 2 - 2017 - FLAC - CD\04 - Any Trouble - Yesterday's Love.wav

Pre-gap length 0:00:01.01

Peak level 96.6 %
Extraction speed 1.5 X
Track quality 100.0 %
Test CRC 1B78E9F0
Copy CRC 1B78E9F0
Track not present in AccurateRip database
Copy OK

Track 5

Filename C:\EAC\VA - A Story Of Independent Music Greater Manchester 1977 - 1993, Dsc 2 - 2017 - FLAC - CD\05 - The Tiller Boys - Big Noise In The Jungle.wav

Pre-gap length 0:00:01.00

Peak level 96.3 %
Extraction speed 1.8 X
Track quality 100.0 %
Test CRC C91598D8
Copy CRC C91598D8
Track not present in AccurateRip database
Copy OK

Track 6

Filename C:\EAC\VA - A Story Of Independent Music Greater Manchester 1977 - 1993, Dsc 2 - 2017 - FLAC - CD\06 - The Manchester Mekon - No Forgetting.wav

Pre-gap length 0:00:01.00

Peak level 96.6 %
Extraction speed 1.7 X
Track quality 100.0 %
Test CRC E2F19C82
Copy CRC E2F19C82
Track not present in AccurateRip database
Copy OK

Track 7

Filename C:\EAC\VA - A Story Of Independent Music Greater Manchester 1977 - 1993, Dsc 2 - 2017 - FLAC - CD\07 - Manicured Noise - Faith.wav

Pre-gap length 0:00:01.00

Peak level 96.6 %
Extraction speed 1.8 X
Track quality 100.0 %
Test CRC A30B2B69
Copy CRC A30B2B69
Track not present in AccurateRip database
Copy OK

Track 8

Filename C:\EAC\VA - A Story Of Independent Music Greater Manchester 1977 - 1993, Dsc 2 - 2017 - FLAC - CD\08 - Smack - Edward Fox.wav

Pre-gap length 0:00:01.00

Peak level 96.6 %
Extraction speed 1.9 X
Track quality 100.0 %
Test CRC 0A2B068F
Copy CRC 0A2B068F
Track not present in AccurateRip database
Copy OK

Track 9

Filename C:\EAC\VA - A Story Of Independent Music Greater Manchester 1977 - 1993, Dsc 2 - 2017 - FLAC - CD\09 - Bet Lynch's Legs - Some Like It Hot.wav

Pre-gap length 0:00:00.96

Peak level 96.6 %
Extraction speed 1.8 X
Track quality 99.9 %
Test CRC C1306DC2
Copy CRC C1306DC2
Track not present in AccurateRip database
Copy OK

Track 10

Filename C:\EAC\VA - A Story Of Independent Music Greater Manchester 1977 - 1993, Dsc 2 - 2017 - FLAC - CD\10 - Durutti Column - Lips That Would Kiss.wav

Pre-gap length 0:00:01.00

Peak level 96.6 %
Extraction speed 2.1 X
Track quality 100.0 %
Test CRC 3BAE4455
Copy CRC 3BAE4455
Track not present in AccurateRip database
Copy OK

Track 11

Filename C:\EAC\VA - A Story Of Independent Music Greater Manchester 1977 - 1993, Dsc 2 - 2017 - FLAC - CD\11 - Blue Orchids - The Flood.wav

Pre-gap length 0:00:01.00

Peak level 89.9 %
Extraction speed 2.2 X
Track quality 100.0 %
Test CRC 201FE3E7
Copy CRC 201FE3E7
Track not present in AccurateRip database
Copy OK

Track 12

Filename C:\EAC\VA - A Story Of Independent Music Greater Manchester 1977 - 1993, Dsc 2 - 2017 - FLAC - CD\12 - The Freshies - I'm In Love With The Girl On The Manchester Virgin Megastore Checkout Desk.wav

Pre-gap length 0:00:01.00

Peak level 96.6 %
Extraction speed 2.1 X
Track quality 100.0 %
Test CRC 3C9F2F7C
Copy CRC 3C9F2F7C
Track not present in AccurateRip database
Copy OK

Track 13

Filename C:\EAC\VA - A Story Of Independent Music Greater Manchester 1977 - 1993, Dsc 2 - 2017 - FLAC - CD\13 - The Hamsters - Cloud Of Flies.wav

Pre-gap length 0:00:01.00

Peak level 96.6 %
Extraction speed 2.3 X
Track quality 100.0 %
Test CRC 858E1D25
Copy CRC 858E1D25
Track not present in AccurateRip database
Copy OK

Track 14

Filename C:\EAC\VA - A Story Of Independent Music Greater Manchester 1977 - 1993, Dsc 2 - 2017 - FLAC - CD\14 - Suns Of Arqa - Acid Tabla Dub.wav

Pre-gap length 0:00:01.00

Peak level 96.6 %
Extraction speed 2.2 X
Track quality 100.0 %
Test CRC AF7628B1
Copy CRC AF7628B1
Track not present in AccurateRip database
Copy OK

Track 15

Filename C:\EAC\VA - A Story Of Independent Music Greater Manchester 1977 - 1993, Dsc 2 - 2017 - FLAC - CD\15 - A Certain Ratio - The Fox.wav

Pre-gap length 0:00:01.00

Peak level 96.6 %
Extraction speed 2.3 X
Track quality 100.0 %
Test CRC 1BC52ECA
Copy CRC 1BC52ECA
Track not present in AccurateRip database
Copy OK

Track 16

Filename C:\EAC\VA - A Story Of Independent Music Greater Manchester 1977 - 1993, Dsc 2 - 2017 - FLAC - CD\16 - Crispy Ambulance - Deaf.wav

Pre-gap length 0:00:01.00

Peak level 96.6 %
Extraction speed 2.4 X
Track quality 100.0 %
Test CRC 0E79BAF2
Copy CRC 0E79BAF2
Track not present in AccurateRip database
Copy OK

Track 17

Filename C:\EAC\VA - A Story Of Independent Music Greater Manchester 1977 - 1993, Dsc 2 - 2017 - FLAC - CD\17 - Ludus - My Cherry Is In Sherry.wav

Pre-gap length 0:00:01.00

Peak level 92.8 %
Extraction speed 2.0 X
Track quality 99.9 %
Test CRC 387D5AF9
Copy CRC 387D5AF9
Track not present in AccurateRip database
Copy OK

Track 18

Filename C:\EAC\VA - A Story Of Independent Music Greater Manchester 1977 - 1993, Dsc 2 - 2017 - FLAC - CD\18 - The Diagram Bros - Bricks.wav

Pre-gap length 0:00:01.00

Peak level 96.6 %
Extraction speed 2.0 X
Track quality 99.9 %
Test CRC 633B3C46
Copy CRC 633B3C46
Track not present in AccurateRip database
Copy OK

Track 19

Filename C:\EAC\VA - A Story Of Independent Music Greater Manchester 1977 - 1993, Dsc 2 - 2017 - FLAC - CD\19 - Eric Random - Subliminal.wav

Pre-gap length 0:00:01.00

Peak level 96.6 %
Extraction speed 2.6 X
Track quality 100.0 %
Test CRC EA47BAF1
Copy CRC EA47BAF1
Track not present in AccurateRip database
Copy OK

Track 20

Filename C:\EAC\VA - A Story Of Independent Music Greater Manchester 1977 - 1993, Dsc 2 - 2017 - FLAC - CD\20 - Bee Vamp - Valium Girls.wav

Pre-gap length 0:00:01.00

Peak level 96.6 %
Extraction speed 2.7 X
Track quality 100.0 %
Test CRC B2017C3B
Copy CRC B2017C3B
Track not present in AccurateRip database
Copy OK

Track 21

Filename C:\EAC\VA - A Story Of Independent Music Greater Manchester 1977 - 1993, Dsc 2 - 2017 - FLAC - CD\21 - The Chameleons - In Shreds.wav

Pre-gap length 0:00:01.00

Peak level 96.6 %
Extraction speed 2.4 X
Track quality 99.9 %
Test CRC C1D53A51
Copy CRC C1D53A51
Track not present in AccurateRip database
Copy OK


None of the tracks are present in the AccurateRip database

No errors occurred

End of status report

==== Log checksum 5F473C9FC1146B1CE2B8AEC16402F99CBBC7C65FAE60B75E9A7C65BA37B91B8E ====

Exact Audio Copy V1.0 beta 3 from 29. August 2011

EAC extraction logfile from 5. October 2017, 12:05

Various Artists / A Story Of Independent Music Greater Manchester 1977 - 1993, Dsc 3

Used drive : TSSTcorpCDDVDW SE-218CB Adapter: 1 ID: 0

Read mode : Secure
Utilize accurate stream : Yes
Defeat audio cache : Yes
Make use of C2 pointers : No

Read offset correction : 6
Overread into Lead-In and Lead-Out : No
Fill up missing offset samples with silence : Yes
Delete leading and trailing silent blocks : No
Null samples used in CRC calculations : Yes
Used interface : Native Win32 interface for Win NT & 2000
Gap handling : Appended to previous track

Used output format : User Defined Encoder
Selected bitrate : 1024 kBit/s
Quality : High
Add ID3 tag : No
Command line compressor : C:\Program Files (x86)\Exact Audio Copy\Flac\flac.exe
Additional command line options : -8 -V -T "ARTIST=%artist%" -T "TITLE=%title%" -T "ALBUM=%albumtitle%" -T "DATE=%year%" -T "TRACKNUMBER=%tracknr%" -T "GENRE=%genre%" -T "PERFORMER=%albuminterpret%" -T "COMPOSER=%composer%" %haslyrics%–tag-from-file=LYRICS="%lyricsfile%"%haslyrics% -T "ALBUMARTIST=%albumartist%" -T "DISCNUMBER=%cdnumber%" -T "TOTALDISCS=%totalcds%" -T "TOTALTRACKS=%numtracks%" -T "COMMENT=%comment%" %source% -o %dest%


TOC of the extracted CD

Track | Start | Length | Start sector | End sector
––––––––––––––––––––––––––––-
1 | 0:00.00 | 5:24.01 | 0 | 24300
2 | 5:24.01 | 3:49.25 | 24301 | 41500
3 | 9:13.26 | 2:47.66 | 41501 | 54091
4 | 12:01.17 | 3:09.13 | 54092 | 68279
5 | 15:10.30 | 4:55.58 | 68280 | 90462
6 | 20:06.13 | 4:25.51 | 90463 | 110388
7 | 24:31.64 | 4:49.50 | 110389 | 132113
8 | 29:21.39 | 4:00.70 | 132114 | 150183
9 | 33:22.34 | 3:04.01 | 150184 | 163984
10 | 36:26.35 | 4:59.74 | 163985 | 186483
11 | 41:26.34 | 1:22.10 | 186484 | 192643
12 | 42:48.44 | 3:19.49 | 192644 | 207617
13 | 46:08.18 | 3:35.14 | 207618 | 223756
14 | 49:43.32 | 2:38.20 | 223757 | 235626
15 | 52:21.52 | 5:27.49 | 235627 | 260200
16 | 57:49.26 | 4:33.00 | 260201 | 280675
17 | 62:22.26 | 3:10.49 | 280676 | 294974
18 | 65:33.00 | 2:56.03 | 294975 | 308177
19 | 68:29.03 | 4:12.19 | 308178 | 327096
20 | 72:41.22 | 4:16.53 | 327097 | 346349
21 | 76:58.00 | 2:34.70 | 346350 | 357969


Track 1

Filename C:\EAC\VA - A Story Of Independent Music Greater Manchester 1977 - 1993, Dsc 3 - 2017 - FLAC - CD\01 - New Order - Temptation (7'' Version).wav

Pre-gap length 0:00:02.00

Peak level 96.6 %
Extraction speed 1.6 X
Track quality 99.9 %
Test CRC 988BD864
Copy CRC 988BD864
Track not present in AccurateRip database
Copy OK

Track 2

Filename C:\EAC\VA - A Story Of Independent Music Greater Manchester 1977 - 1993, Dsc 3 - 2017 - FLAC - CD\02 - Syncopation - Marking Time.wav

Pre-gap length 0:00:01.00

Peak level 96.6 %
Extraction speed 2.1 X
Track quality 100.0 %
Test CRC CC1E3F49
Copy CRC CC1E3F49
Track not present in AccurateRip database
Copy OK

Track 3

Filename C:\EAC\VA - A Story Of Independent Music Greater Manchester 1977 - 1993, Dsc 3 - 2017 - FLAC - CD\03 - Dislocation Dance - Rosemary.wav

Pre-gap length 0:00:01.00

Peak level 96.6 %
Extraction speed 2.1 X
Track quality 100.0 %
Test CRC C2752560
Copy CRC C2752560
Track not present in AccurateRip database
Copy OK

Track 4

Filename C:\EAC\VA - A Story Of Independent Music Greater Manchester 1977 - 1993, Dsc 3 - 2017 - FLAC - CD\04 - Carmel - Sugar Daddy.wav

Pre-gap length 0:00:01.00

Peak level 96.6 %
Extraction speed 2.3 X
Track quality 100.0 %
Test CRC E582E580
Copy CRC E582E580
Track not present in AccurateRip database
Copy OK

Track 5

Filename C:\EAC\VA - A Story Of Independent Music Greater Manchester 1977 - 1993, Dsc 3 - 2017 - FLAC - CD\05 - Swamp Children - You've Got Me Beat.wav

Pre-gap length 0:00:01.00

Peak level 96.6 %
Extraction speed 2.1 X
Track quality 99.9 %
Test CRC 64AB903A
Copy CRC 64AB903A
Track not present in AccurateRip database
Copy OK

Track 6

Filename C:\EAC\VA - A Story Of Independent Music Greater Manchester 1977 - 1993, Dsc 3 - 2017 - FLAC - CD\06 - Gods Gift - Discipline.wav

Pre-gap length 0:00:00.98

Peak level 96.6 %
Extraction speed 2.7 X
Track quality 100.0 %
Test CRC 94E8C2B3
Copy CRC 94E8C2B3
Track not present in AccurateRip database
Copy OK

Track 7

Filename C:\EAC\VA - A Story Of Independent Music Greater Manchester 1977 - 1993, Dsc 3 - 2017 - FLAC - CD\07 - Nico & The Invisible Girls - Procession.wav

Pre-gap length 0:00:01.00

Peak level 92.2 %
Extraction speed 2.9 X
Track quality 100.0 %
Test CRC 95EA91EF
Copy CRC 95EA91EF
Track not present in AccurateRip database
Copy OK

Track 8

Filename C:\EAC\VA - A Story Of Independent Music Greater Manchester 1977 - 1993, Dsc 3 - 2017 - FLAC - CD\08 - 52nd Street - Cool As Ice (U.S. 7'' Edit).wav

Pre-gap length 0:00:00.98

Peak level 96.6 %
Extraction speed 2.9 X
Track quality 100.0 %
Test CRC 5B582B5E
Copy CRC 5B582B5E
Track not present in AccurateRip database
Copy OK

Track 9

Filename C:\EAC\VA - A Story Of Independent Music Greater Manchester 1977 - 1993, Dsc 3 - 2017 - FLAC - CD\09 - The Passage - Sharp Tongue.wav

Pre-gap length 0:00:01.00

Peak level 96.6 %
Extraction speed 2.9 X
Track quality 100.0 %
Test CRC DF61E128
Copy CRC DF61E128
Track not present in AccurateRip database
Copy OK

Track 10

Filename C:\EAC\VA - A Story Of Independent Music Greater Manchester 1977 - 1993, Dsc 3 - 2017 - FLAC - CD\10 - Biting Tongues - Aair Care.wav

Pre-gap length 0:00:01.00

Peak level 96.6 %
Extraction speed 3.2 X
Track quality 100.0 %
Test CRC F89A4DB7
Copy CRC F89A4DB7
Track not present in AccurateRip database
Copy OK

Track 11

Filename C:\EAC\VA - A Story Of Independent Music Greater Manchester 1977 - 1993, Dsc 3 - 2017 - FLAC - CD\11 - Jane - Of All - Leaves Were Falling.wav

Pre-gap length 0:00:03.00

Peak level 91.9 %
Extraction speed 2.5 X
Track quality 100.0 %
Test CRC 4ADEB381
Copy CRC 4ADEB381
Track not present in AccurateRip database
Copy OK

Track 12

Filename C:\EAC\VA - A Story Of Independent Music Greater Manchester 1977 - 1993, Dsc 3 - 2017 - FLAC - CD\12 - Tools You Can Trust - Working And Shopping.wav

Pre-gap length 0:00:03.00

Peak level 96.6 %
Extraction speed 3.1 X
Track quality 100.0 %
Test CRC 1458DDB0
Copy CRC 1458DDB0
Track not present in AccurateRip database
Copy OK

Track 13

Filename C:\EAC\VA - A Story Of Independent Music Greater Manchester 1977 - 1993, Dsc 3 - 2017 - FLAC - CD\13 - Quando Quango - Love Tempo (Benelux Edit).wav

Pre-gap length 0:00:01.00

Peak level 96.6 %
Extraction speed 3.3 X
Track quality 100.0 %
Test CRC 429CF8B8
Copy CRC 429CF8B8
Track not present in AccurateRip database
Copy OK

Track 14

Filename C:\EAC\VA - A Story Of Independent Music Greater Manchester 1977 - 1993, Dsc 3 - 2017 - FLAC - CD\14 - Inca Babies - Grunt Cadillac Hotel.wav

Pre-gap length 0:00:00.98

Peak level 96.6 %
Extraction speed 3.1 X
Track quality 100.0 %
Test CRC 1D1AF1A5
Copy CRC 1D1AF1A5
Track not present in AccurateRip database
Copy OK

Track 15

Filename C:\EAC\VA - A Story Of Independent Music Greater Manchester 1977 - 1993, Dsc 3 - 2017 - FLAC - CD\15 - Marcel King - Reach For Love.wav

Pre-gap length 0:00:01.00

Peak level 88.2 %
Extraction speed 2.9 X
Track quality 99.9 %
Test CRC 9E6BABAE
Copy CRC 9E6BABAE
Track not present in AccurateRip database
Copy OK

Track 16

Filename C:\EAC\VA - A Story Of Independent Music Greater Manchester 1977 - 1993, Dsc 3 - 2017 - FLAC - CD\16 - Section 25 - Looking From A Hilltop.wav

Pre-gap length 0:00:01.00

Peak level 96.6 %
Extraction speed 3.7 X
Track quality 100.0 %
Test CRC 4EF415B8
Copy CRC 4EF415B8
Track not present in AccurateRip database
Copy OK

Track 17

Filename C:\EAC\VA - A Story Of Independent Music Greater Manchester 1977 - 1993, Dsc 3 - 2017 - FLAC - CD\17 - Life - Tell Me.wav

Pre-gap length 0:00:01.00

Peak level 77.9 %
Extraction speed 3.6 X
Track quality 100.0 %
Test CRC DB859DA0
Copy CRC DB859DA0
Track not present in AccurateRip database
Copy OK

Track 18

Filename C:\EAC\VA - A Story Of Independent Music Greater Manchester 1977 - 1993, Dsc 3 - 2017 - FLAC - CD\18 - Stockholm Monsters - All At Once.wav

Pre-gap length 0:00:01.00

Peak level 96.6 %
Extraction speed 3.6 X
Track quality 100.0 %
Test CRC E3D83A3D
Copy CRC E3D83A3D
Track not present in AccurateRip database
Copy OK

Track 19

Filename C:\EAC\VA - A Story Of Independent Music Greater Manchester 1977 - 1993, Dsc 3 - 2017 - FLAC - CD\19 - The Membranes - Spike Milligan's Tape Recorder.wav

Pre-gap length 0:00:01.00

Peak level 96.6 %
Extraction speed 3.9 X
Track quality 100.0 %
Test CRC 65A88F77
Copy CRC 65A88F77
Track not present in AccurateRip database
Copy OK

Track 20

Filename C:\EAC\VA - A Story Of Independent Music Greater Manchester 1977 - 1993, Dsc 3 - 2017 - FLAC - CD\20 - A Witness - Kitchen Sink Drama.wav

Pre-gap length 0:00:01.00

Peak level 96.6 %
Extraction speed 3.9 X
Track quality 100.0 %
Test CRC 95C57CBC
Copy CRC 95C57CBC
Track not present in AccurateRip database
Copy OK

Track 21

Filename C:\EAC\VA - A Story Of Independent Music Greater Manchester 1977 - 1993, Dsc 3 - 2017 - FLAC - CD\21 - Graham Fellows - Love At The Hacienda.wav

Pre-gap length 0:00:01.00

Peak level 96.6 %
Extraction speed 3.7 X
Track quality 100.0 %
Test CRC FCF15808
Copy CRC FCF15808
Track not present in AccurateRip database
Copy OK


None of the tracks are present in the AccurateRip database

No errors occurred

End of status report

==== Log checksum 61966365B6026F2A378BEF3E2BD35494D4581CF2E7E2F84FF882F1E8EEF40B0E ====

Exact Audio Copy V1.0 beta 3 from 29. August 2011

EAC extraction logfile from 5. October 2017, 12:57

Various Artists / A Story Of Independent Music Greater Manchester 1977 - 1993, Dsc 4

Used drive : TSSTcorpCDDVDW SE-218CB Adapter: 1 ID: 0

Read mode : Secure
Utilize accurate stream : Yes
Defeat audio cache : Yes
Make use of C2 pointers : No

Read offset correction : 6
Overread into Lead-In and Lead-Out : No
Fill up missing offset samples with silence : Yes
Delete leading and trailing silent blocks : No
Null samples used in CRC calculations : Yes
Used interface : Native Win32 interface for Win NT & 2000
Gap handling : Appended to previous track

Used output format : User Defined Encoder
Selected bitrate : 1024 kBit/s
Quality : High
Add ID3 tag : No
Command line compressor : C:\Program Files (x86)\Exact Audio Copy\Flac\flac.exe
Additional command line options : -8 -V -T "ARTIST=%artist%" -T "TITLE=%title%" -T "ALBUM=%albumtitle%" -T "DATE=%year%" -T "TRACKNUMBER=%tracknr%" -T "GENRE=%genre%" -T "PERFORMER=%albuminterpret%" -T "COMPOSER=%composer%" %haslyrics%–tag-from-file=LYRICS="%lyricsfile%"%haslyrics% -T "ALBUMARTIST=%albumartist%" -T "DISCNUMBER=%cdnumber%" -T "TOTALDISCS=%totalcds%" -T "TOTALTRACKS=%numtracks%" -T "COMMENT=%comment%" %source% -o %dest%


TOC of the extracted CD

Track | Start | Length | Start sector | End sector
––––––––––––––––––––––––––––-
1 | 0:00.00 | 3:26.04 | 0 | 15453
2 | 3:26.04 | 4:09.38 | 15454 | 34166
3 | 7:35.42 | 3:42.35 | 34167 | 50851
4 | 11:18.02 | 3:39.21 | 50852 | 67297
5 | 14:57.23 | 1:59.29 | 67298 | 76251
6 | 16:56.52 | 2:35.67 | 76252 | 87943
7 | 19:32.44 | 5:21.34 | 87944 | 112052
8 | 24:54.03 | 3:18.18 | 112053 | 126920
9 | 28:12.21 | 2:30.45 | 126921 | 138215
10 | 30:42.66 | 3:05.49 | 138216 | 152139
11 | 33:48.40 | 3:45.33 | 152140 | 169047
12 | 37:33.73 | 3:10.41 | 169048 | 183338
13 | 40:44.39 | 3:27.32 | 183339 | 198895
14 | 44:11.71 | 2:29.69 | 198896 | 210139
15 | 46:41.65 | 4:18.17 | 210140 | 229506
16 | 51:00.07 | 3:43.67 | 229507 | 246298
17 | 54:43.74 | 3:14.22 | 246299 | 260870
18 | 57:58.21 | 3:45.43 | 260871 | 277788
19 | 61:43.64 | 3:22.50 | 277789 | 292988
20 | 65:06.39 | 3:30.71 | 292989 | 308809
21 | 68:37.35 | 4:39.73 | 308810 | 329807
22 | 73:17.33 | 5:16.36 | 329808 | 353543


Track 1

Filename C:\EAC\VA - A Story Of Independent Music Greater Manchester 1977 - 1993, Dsc 4 - 2017 - FLAC - CD\01 - James - Chain Mail.wav

Pre-gap length 0:00:02.00

Peak level 96.6 %
Extraction speed 2.3 X
Track quality 100.0 %
Test CRC 3814D464
Copy CRC 3814D464
Track not present in AccurateRip database
Copy OK

Track 2

Filename C:\EAC\VA - A Story Of Independent Music Greater Manchester 1977 - 1993, Dsc 4 - 2017 - FLAC - CD\02 - Miaow - Belle Vue.wav

Pre-gap length 0:00:01.00

Peak level 96.6 %
Extraction speed 2.6 X
Track quality 100.0 %
Test CRC B6299098
Copy CRC B6299098
Track not present in AccurateRip database
Copy OK

Track 3

Filename C:\EAC\VA - A Story Of Independent Music Greater Manchester 1977 - 1993, Dsc 4 - 2017 - FLAC - CD\03 - Easterhouse - Whistling In The Dark.wav

Pre-gap length 0:00:01.00

Peak level 96.6 %
Extraction speed 2.8 X
Track quality 100.0 %
Test CRC F5C661C4
Copy CRC F5C661C4
Track not present in AccurateRip database
Copy OK

Track 4

Filename C:\EAC\VA - A Story Of Independent Music Greater Manchester 1977 - 1993, Dsc 4 - 2017 - FLAC - CD\04 - The Bodines - Scar Tissue.wav

Pre-gap length 0:00:01.00

Peak level 96.6 %
Extraction speed 3.0 X
Track quality 100.0 %
Test CRC 9B720711
Copy CRC 9B720711
Track not present in AccurateRip database
Copy OK

Track 5

Filename C:\EAC\VA - A Story Of Independent Music Greater Manchester 1977 - 1993, Dsc 4 - 2017 - FLAC - CD\05 - Big Flame - Why Popstars Can't Dance.wav

Pre-gap length 0:00:01.00

Peak level 96.6 %
Extraction speed 2.7 X
Track quality 100.0 %
Test CRC 1F5A4B70
Copy CRC 1F5A4B70
Track not present in AccurateRip database
Copy OK

Track 6

Filename C:\EAC\VA - A Story Of Independent Music Greater Manchester 1977 - 1993, Dsc 4 - 2017 - FLAC - CD\06 - The Weeds - China Doll.wav

Pre-gap length 0:00:01.00

Peak level 96.6 %
Extraction speed 3.0 X
Track quality 100.0 %
Test CRC AB4F93AD
Copy CRC AB4F93AD
Track not present in AccurateRip database
Copy OK

Track 7

Filename C:\EAC\VA - A Story Of Independent Music Greater Manchester 1977 - 1993, Dsc 4 - 2017 - FLAC - CD\07 - Yargo - Get High.wav

Pre-gap length 0:00:01.00

Peak level 96.6 %
Extraction speed 3.5 X
Track quality 100.0 %
Test CRC B97C3E6C
Copy CRC B97C3E6C
Track not present in AccurateRip database
Copy OK

Track 8

Filename C:\EAC\VA - A Story Of Independent Music Greater Manchester 1977 - 1993, Dsc 4 - 2017 - FLAC - CD\08 - Twang - Sharp.wav

Pre-gap length 0:00:01.00

Peak level 96.6 %
Extraction speed 3.4 X
Track quality 100.0 %
Test CRC D4768956
Copy CRC D4768956
Track not present in AccurateRip database
Copy OK

Track 9

Filename C:\EAC\VA - A Story Of Independent Music Greater Manchester 1977 - 1993, Dsc 4 - 2017 - FLAC - CD\09 - Edward Barton - Me And My Mini.wav

Pre-gap length 0:00:01.00

Peak level 96.6 %
Extraction speed 3.3 X
Track quality 100.0 %
Test CRC E9C291D7
Copy CRC E9C291D7
Track not present in AccurateRip database
Copy OK

Track 10

Filename C:\EAC\VA - A Story Of Independent Music Greater Manchester 1977 - 1993, Dsc 4 - 2017 - FLAC - CD\10 - Big Ed & His Rocking Rattlesnakes - D'You Think I Look Like Elvis Presley.wav

Pre-gap length 0:00:01.00

Peak level 96.6 %
Extraction speed 3.6 X
Track quality 100.0 %
Test CRC CDCD2DF9
Copy CRC CDCD2DF9
Track not present in AccurateRip database
Copy OK

Track 11

Filename C:\EAC\VA - A Story Of Independent Music Greater Manchester 1977 - 1993, Dsc 4 - 2017 - FLAC - CD\11 - Inspiral Carpets - Garage Full Of Flowers (Flexi Version).wav

Pre-gap length 0:00:01.00

Peak level 96.6 %
Extraction speed 3.0 X
Track quality 99.9 %
Test CRC D8C0FE11
Copy CRC D8C0FE11
Track not present in AccurateRip database
Copy OK

Track 12

Filename C:\EAC\VA - A Story Of Independent Music Greater Manchester 1977 - 1993, Dsc 4 - 2017 - FLAC - CD\12 - The Danny Boys - Days Of The Week.wav

Pre-gap length 0:00:01.00

Peak level 96.6 %
Extraction speed 2.9 X
Track quality 99.9 %
Test CRC 7CE27327
Copy CRC 7CE27327
Track not present in AccurateRip database
Copy OK

Track 13

Filename C:\EAC\VA - A Story Of Independent Music Greater Manchester 1977 - 1993, Dsc 4 - 2017 - FLAC - CD\13 - Thirst - Let Go.wav

Pre-gap length 0:00:01.00

Peak level 96.6 %
Extraction speed 3.9 X
Track quality 100.0 %
Test CRC CA454124
Copy CRC CA454124
Track not present in AccurateRip database
Copy OK

Track 14

Filename C:\EAC\VA - A Story Of Independent Music Greater Manchester 1977 - 1993, Dsc 4 - 2017 - FLAC - CD\14 - The Man From Delmonte - Drive Drive Drive (Twnty Two And Still In Love With You).wav

Pre-gap length 0:00:01.00

Peak level 96.6 %
Extraction speed 3.8 X
Track quality 100.0 %
Test CRC 4FA4E7DC
Copy CRC 4FA4E7DC
Track not present in AccurateRip database
Copy OK

Track 15

Filename C:\EAC\VA - A Story Of Independent Music Greater Manchester 1977 - 1993, Dsc 4 - 2017 - FLAC - CD\15 - The Monkey Run - Falling Upstairs.wav

Pre-gap length 0:00:01.00

Peak level 96.6 %
Extraction speed 4.3 X
Track quality 100.0 %
Test CRC FD5DAB1A
Copy CRC FD5DAB1A
Track not present in AccurateRip database
Copy OK

Track 16

Filename C:\EAC\VA - A Story Of Independent Music Greater Manchester 1977 - 1993, Dsc 4 - 2017 - FLAC - CD\16 - Metro Trinity - Spend My Whole Life Loving You.wav

Pre-gap length 0:00:01.00

Peak level 96.6 %
Extraction speed 4.3 X
Track quality 100.0 %
Test CRC FD4D0FA4
Copy CRC FD4D0FA4
Track not present in AccurateRip database
Copy OK

Track 17

Filename C:\EAC\VA - A Story Of Independent Music Greater Manchester 1977 - 1993, Dsc 4 - 2017 - FLAC - CD\17 - Mirrors Over Kiev - Take Me Down.wav

Pre-gap length 0:00:01.00

Peak level 96.6 %
Extraction speed 4.3 X
Track quality 100.0 %
Test CRC A892F414
Copy CRC A892F414
Track not present in AccurateRip database
Copy OK

Track 18

Filename C:\EAC\VA - A Story Of Independent Music Greater Manchester 1977 - 1993, Dsc 4 - 2017 - FLAC - CD\18 - The Paperboys - This Is How I Feel.wav

Pre-gap length 0:00:01.00

Peak level 96.6 %
Extraction speed 4.5 X
Track quality 100.0 %
Test CRC C1A1899F
Copy CRC C1A1899F
Track not present in AccurateRip database
Copy OK

Track 19

Filename C:\EAC\VA - A Story Of Independent Music Greater Manchester 1977 - 1993, Dsc 4 - 2017 - FLAC - CD\19 - The Great Leap Forward - A Peck On The Cheek À La Politiqué.wav

Pre-gap length 0:00:01.00

Peak level 96.6 %
Extraction speed 4.5 X
Track quality 100.0 %
Test CRC 376E84E5
Copy CRC 376E84E5
Track not present in AccurateRip database
Copy OK

Track 20

Filename C:\EAC\VA - A Story Of Independent Music Greater Manchester 1977 - 1993, Dsc 4 - 2017 - FLAC - CD\20 - TOT - Kill All The Boys.wav

Pre-gap length 0:00:01.00

Peak level 96.6 %
Extraction speed 4.6 X
Track quality 100.0 %
Test CRC 344E299F
Copy CRC 344E299F
Track not present in AccurateRip database
Copy OK

Track 21

Filename C:\EAC\VA - A Story Of Independent Music Greater Manchester 1977 - 1993, Dsc 4 - 2017 - FLAC - CD\21 - Meat Mouth - Meat Mouth Is Murder.wav

Pre-gap length 0:00:01.00

Peak level 89.1 %
Extraction speed 4.9 X
Track quality 100.0 %
Test CRC 6D4F6992
Copy CRC 6D4F6992
Track not present in AccurateRip database
Copy OK

Track 22

Filename C:\EAC\VA - A Story Of Independent Music Greater Manchester 1977 - 1993, Dsc 4 - 2017 - FLAC - CD\22 - T-Coy - Cariño.wav

Pre-gap length 0:00:01.00

Peak level 86.1 %
Extraction speed 4.4 X
Track quality 99.9 %
Test CRC 75822C2B
Copy CRC 75822C2B
Track not present in AccurateRip database
Copy OK


None of the tracks are present in the AccurateRip database

No errors occurred

End of status report

==== Log checksum 1FB0FBCBAD9AFA247B83C3C347CA9D65DB46D170DEE8914411BB3FA44F43ECA0 ====

Exact Audio Copy V1.0 beta 3 from 29. August 2011

EAC extraction logfile from 5. October 2017, 14:13

Various Artists / A Story Of Independent Music Greater Manchester 1977 - 1993, Dsc 5

Used drive : TSSTcorpCDDVDW SE-218CB Adapter: 1 ID: 0

Read mode : Secure
Utilize accurate stream : Yes
Defeat audio cache : Yes
Make use of C2 pointers : No

Read offset correction : 6
Overread into Lead-In and Lead-Out : No
Fill up missing offset samples with silence : Yes
Delete leading and trailing silent blocks : No
Null samples used in CRC calculations : Yes
Used interface : Native Win32 interface for Win NT & 2000
Gap handling : Appended to previous track

Used output format : User Defined Encoder
Selected bitrate : 1024 kBit/s
Quality : High
Add ID3 tag : No
Command line compressor : C:\Program Files (x86)\Exact Audio Copy\Flac\flac.exe
Additional command line options : -8 -V -T "ARTIST=%artist%" -T "TITLE=%title%" -T "ALBUM=%albumtitle%" -T "DATE=%year%" -T "TRACKNUMBER=%tracknr%" -T "GENRE=%genre%" -T "PERFORMER=%albuminterpret%" -T "COMPOSER=%composer%" %haslyrics%–tag-from-file=LYRICS="%lyricsfile%"%haslyrics% -T "ALBUMARTIST=%albumartist%" -T "DISCNUMBER=%cdnumber%" -T "TOTALDISCS=%totalcds%" -T "TOTALTRACKS=%numtracks%" -T "COMMENT=%comment%" %source% -o %dest%


TOC of the extracted CD

Track | Start | Length | Start sector | End sector
––––––––––––––––––––––––––––-
1 | 0:00.00 | 4:38.64 | 0 | 20913
2 | 4:38.64 | 3:17.03 | 20914 | 35691
3 | 7:55.67 | 3:14.55 | 35692 | 50296
4 | 11:10.47 | 3:13.12 | 50297 | 64783
5 | 14:23.59 | 2:42.44 | 64784 | 76977
6 | 17:06.28 | 3:30.13 | 76978 | 92740
7 | 20:36.41 | 4:11.66 | 92741 | 111631
8 | 24:48.32 | 4:46.12 | 111632 | 133093
9 | 29:34.44 | 2:25.52 | 133094 | 144020
10 | 32:00.21 | 2:43.34 | 144021 | 156279
11 | 34:43.55 | 3:37.04 | 156280 | 172558
12 | 38:20.59 | 3:37.56 | 172559 | 188889
13 | 41:58.40 | 4:57.48 | 188890 | 211212
14 | 46:56.13 | 4:34.35 | 211213 | 231797
15 | 51:30.48 | 5:23.72 | 231798 | 256094
16 | 56:54.45 | 4:05.25 | 256095 | 274494
17 | 60:59.70 | 4:19.60 | 274495 | 293979
18 | 65:19.55 | 4:42.32 | 293980 | 315161
19 | 70:02.12 | 4:27.10 | 315162 | 335196
20 | 74:29.22 | 5:15.06 | 335197 | 358827


Track 1

Filename C:\EAC\VA - A Story Of Independent Music Greater Manchester 1977 - 1993, Dsc 5 - 2017 - FLAC - CD\01 - Happy Mondays - 24 Hour Party People.wav

Pre-gap length 0:00:02.00

Peak level 96.6 %
Extraction speed 1.6 X
Track quality 99.9 %
Test CRC 2685E2FD
Copy CRC 2685E2FD
Track not present in AccurateRip database
Copy OK

Track 2

Filename C:\EAC\VA - A Story Of Independent Music Greater Manchester 1977 - 1993, Dsc 5 - 2017 - FLAC - CD\02 - Ambitious Beggars - Man In A Suit.wav

Pre-gap length 0:00:01.00

Peak level 96.6 %
Extraction speed 2.0 X
Track quality 100.0 %
Test CRC 5B447B31
Copy CRC 5B447B31
Track not present in AccurateRip database
Copy OK

Track 3

Filename C:\EAC\VA - A Story Of Independent Music Greater Manchester 1977 - 1993, Dsc 5 - 2017 - FLAC - CD\03 - Bradford - Skin Storm.wav

Pre-gap length 0:00:01.00

Peak level 91.2 %
Extraction speed 2.2 X
Track quality 100.0 %
Test CRC 53B52442
Copy CRC 53B52442
Track not present in AccurateRip database
Copy OK

Track 4

Filename C:\EAC\VA - A Story Of Independent Music Greater Manchester 1977 - 1993, Dsc 5 - 2017 - FLAC - CD\04 - Laugh - Time To Lose It (John Peel Radio Session Version).wav

Pre-gap length 0:00:01.00

Peak level 96.6 %
Extraction speed 2.2 X
Track quality 100.0 %
Test CRC EEEA3F9D
Copy CRC EEEA3F9D
Track not present in AccurateRip database
Copy OK

Track 5

Filename C:\EAC\VA - A Story Of Independent Music Greater Manchester 1977 - 1993, Dsc 5 - 2017 - FLAC - CD\05 - Too Much Texas - Hurry On Down (When Will I See You Again).wav

Pre-gap length 0:00:01.00

Peak level 85.1 %
Extraction speed 2.3 X
Track quality 100.0 %
Test CRC 2B6BF82C
Copy CRC 2B6BF82C
Track not present in AccurateRip database
Copy OK

Track 6

Filename C:\EAC\VA - A Story Of Independent Music Greater Manchester 1977 - 1993, Dsc 5 - 2017 - FLAC - CD\06 - Fallover 24 - Pessimistic Man.wav

Pre-gap length 0:00:01.00

Peak level 96.6 %
Extraction speed 1.9 X
Track quality 99.9 %
Test CRC 5CC61A11
Copy CRC 5CC61A11
Track not present in AccurateRip database
Copy OK

Track 7

Filename C:\EAC\VA - A Story Of Independent Music Greater Manchester 1977 - 1993, Dsc 5 - 2017 - FLAC - CD\07 - The Waltones - The Deepest.wav

Pre-gap length 0:00:01.00

Peak level 96.6 %
Extraction speed 2.7 X
Track quality 100.0 %
Test CRC 9815C1D1
Copy CRC 9815C1D1
Track not present in AccurateRip database
Copy OK

Track 8

Filename C:\EAC\VA - A Story Of Independent Music Greater Manchester 1977 - 1993, Dsc 5 - 2017 - FLAC - CD\08 - Raintree County - Nice Time At The Disco.wav

Pre-gap length 0:00:01.00

Peak level 96.6 %
Extraction speed 2.3 X
Track quality 99.9 %
Test CRC 3E2DEC16
Copy CRC 3E2DEC16
Track not present in AccurateRip database
Copy OK

Track 9

Filename C:\EAC\VA - A Story Of Independent Music Greater Manchester 1977 - 1993, Dsc 5 - 2017 - FLAC - CD\09 - Johnny Dangerously - Subway Life.wav

Pre-gap length 0:00:01.00

Peak level 96.6 %
Extraction speed 2.7 X
Track quality 100.0 %
Test CRC 646740C1
Copy CRC 646740C1
Track not present in AccurateRip database
Copy OK

Track 10

Filename C:\EAC\VA - A Story Of Independent Music Greater Manchester 1977 - 1993, Dsc 5 - 2017 - FLAC - CD\10 - Jean Go Solo - In Salford The Sun Doesn't Shine.wav

Pre-gap length 0:00:01.00

Peak level 96.6 %
Extraction speed 2.8 X
Track quality 100.0 %
Test CRC 10F92D15
Copy CRC 10F92D15
Track not present in AccurateRip database
Copy OK

Track 11

Filename C:\EAC\VA - A Story Of Independent Music Greater Manchester 1977 - 1993, Dsc 5 - 2017 - FLAC - CD\11 - The Desert Wolves - Passion In The Afternoon.wav

Pre-gap length 0:00:01.00

Peak level 96.6 %
Extraction speed 3.0 X
Track quality 100.0 %
Test CRC A7411DCC
Copy CRC A7411DCC
Track not present in AccurateRip database
Copy OK

Track 12

Filename C:\EAC\VA - A Story Of Independent Music Greater Manchester 1977 - 1993, Dsc 5 - 2017 - FLAC - CD\12 - Morrissey - The Last Of The Famous International Playboys.wav

Pre-gap length 0:00:01.00

Peak level 96.6 %
Extraction speed 3.1 X
Track quality 100.0 %
Test CRC D33C78E5
Copy CRC D33C78E5
Track not present in AccurateRip database
Copy OK

Track 13

Filename C:\EAC\VA - A Story Of Independent Music Greater Manchester 1977 - 1993, Dsc 5 - 2017 - FLAC - CD\13 - King Of The Slums - Fanciable Headcase.wav

Pre-gap length 0:00:01.00

Peak level 96.6 %
Extraction speed 3.4 X
Track quality 100.0 %
Test CRC D7045E30
Copy CRC D7045E30
Track not present in AccurateRip database
Copy OK

Track 14

Filename C:\EAC\VA - A Story Of Independent Music Greater Manchester 1977 - 1993, Dsc 5 - 2017 - FLAC - CD\14 - The Sun And The Moon - C'Est La Vie.wav

Pre-gap length 0:00:01.00

Peak level 96.6 %
Extraction speed 3.4 X
Track quality 100.0 %
Test CRC C61FDF51
Copy CRC C61FDF51
Track not present in AccurateRip database
Copy OK

Track 15

Filename C:\EAC\VA - A Story Of Independent Music Greater Manchester 1977 - 1993, Dsc 5 - 2017 - FLAC - CD\15 - The Reegs - Chorus Of The Lost.wav

Pre-gap length 0:00:01.00

Peak level 94.1 %
Extraction speed 3.6 X
Track quality 100.0 %
Test CRC CAEB8B36
Copy CRC CAEB8B36
Track not present in AccurateRip database
Copy OK

Track 16

Filename C:\EAC\VA - A Story Of Independent Music Greater Manchester 1977 - 1993, Dsc 5 - 2017 - FLAC - CD\16 - Barry Adamson - The Man With The Golden Arm.wav

Pre-gap length 0:00:01.00

Peak level 96.6 %
Extraction speed 2.7 X
Track quality 99.9 %
Test CRC C23152C6
Copy CRC C23152C6
Track not present in AccurateRip database
Copy OK

Track 17

Filename C:\EAC\VA - A Story Of Independent Music Greater Manchester 1977 - 1993, Dsc 5 - 2017 - FLAC - CD\17 - The Jazz Defektors - Ooh! This Feeling.wav

Pre-gap length 0:00:01.00

Peak level 96.6 %
Extraction speed 3.7 X
Track quality 100.0 %
Test CRC AD2D95E1
Copy CRC AD2D95E1
Track not present in AccurateRip database
Copy OK

Track 18

Filename C:\EAC\VA - A Story Of Independent Music Greater Manchester 1977 - 1993, Dsc 5 - 2017 - FLAC - CD\18 - Chapter And The Verse - All This And Heaven Too (Radio Edit).wav

Pre-gap length 0:00:01.00

Peak level 87.0 %
Extraction speed 3.9 X
Track quality 100.0 %
Test CRC 0672E613
Copy CRC 0672E613
Track not present in AccurateRip database
Copy OK

Track 19

Filename C:\EAC\VA - A Story Of Independent Music Greater Manchester 1977 - 1993, Dsc 5 - 2017 - FLAC - CD\19 - A Guy Called Gerald - Voodoo Ray.wav

Pre-gap length 0:00:01.00

Peak level 96.6 %
Extraction speed 3.9 X
Track quality 100.0 %
Test CRC D6BBA665
Copy CRC D6BBA665
Track not present in AccurateRip database
Copy OK

Track 20

Filename C:\EAC\VA - A Story Of Independent Music Greater Manchester 1977 - 1993, Dsc 5 - 2017 - FLAC - CD\20 - Us - Born In The North.wav

Pre-gap length 0:00:01.00

Peak level 96.6 %
Extraction speed 3.3 X
Track quality 99.9 %
Test CRC F21B9328
Copy CRC F21B9328
Track not present in AccurateRip database
Copy OK


None of the tracks are present in the AccurateRip database

No errors occurred

End of status report

==== Log checksum 2CAA27C46F9E9C24BFA6F60096EF51AD1F4E5E0B5C4006070E899FC5F22E9BF6 ====

Exact Audio Copy V1.0 beta 3 from 29. August 2011

EAC extraction logfile from 5. October 2017, 15:21

Various Artists / A Story Of Independent Music Greater Manchester 1977 - 1993, Dsc 6

Used drive : TSSTcorpCDDVDW SE-218CB Adapter: 1 ID: 0

Read mode : Secure
Utilize accurate stream : Yes
Defeat audio cache : Yes
Make use of C2 pointers : No

Read offset correction : 6
Overread into Lead-In and Lead-Out : No
Fill up missing offset samples with silence : Yes
Delete leading and trailing silent blocks : No
Null samples used in CRC calculations : Yes
Used interface : Native Win32 interface for Win NT & 2000
Gap handling : Appended to previous track

Used output format : User Defined Encoder
Selected bitrate : 1024 kBit/s
Quality : High
Add ID3 tag : No
Command line compressor : C:\Program Files (x86)\Exact Audio Copy\Flac\flac.exe
Additional command line options : -8 -V -T "ARTIST=%artist%" -T "TITLE=%title%" -T "ALBUM=%albumtitle%" -T "DATE=%year%" -T "TRACKNUMBER=%tracknr%" -T "GENRE=%genre%" -T "PERFORMER=%albuminterpret%" -T "COMPOSER=%composer%" %haslyrics%–tag-from-file=LYRICS="%lyricsfile%"%haslyrics% -T "ALBUMARTIST=%albumartist%" -T "DISCNUMBER=%cdnumber%" -T "TOTALDISCS=%totalcds%" -T "TOTALTRACKS=%numtracks%" -T "COMMENT=%comment%" %source% -o %dest%


TOC of the extracted CD

Track | Start | Length | Start sector | End sector
––––––––––––––––––––––––––––-
1 | 0:00.00 | 3:52.49 | 0 | 17448
2 | 3:52.49 | 4:35.25 | 17449 | 38098
3 | 8:27.74 | 2:59.15 | 38099 | 51538
4 | 11:27.14 | 3:21.04 | 51539 | 66617
5 | 14:48.18 | 3:55.71 | 66618 | 84313
6 | 18:44.14 | 3:17.37 | 84314 | 99125
7 | 22:01.51 | 3:59.03 | 99126 | 117053
8 | 26:00.54 | 4:17.00 | 117054 | 136328
9 | 30:17.54 | 5:52.60 | 136329 | 162788
10 | 36:10.39 | 4:30.59 | 162789 | 183097
11 | 40:41.23 | 4:06.73 | 183098 | 201620
12 | 44:48.21 | 4:23.34 | 201621 | 221379
13 | 49:11.55 | 2:34.60 | 221380 | 232989
14 | 51:46.40 | 4:12.32 | 232990 | 251921
15 | 55:58.72 | 4:02.49 | 251922 | 270120
16 | 60:01.46 | 3:23.14 | 270121 | 285359
17 | 63:24.60 | 4:08.36 | 285360 | 303995
18 | 67:33.21 | 3:00.61 | 303996 | 317556
19 | 70:34.07 | 4:33.43 | 317557 | 338074
20 | 75:07.50 | 3:36.56 | 338075 | 354330


Track 1

Filename C:\EAC\VA - A Story Of Independent Music Greater Manchester 1977 - 1993, Dsc 6 - 2017 - FLAC - CD\01 - The Stone Roses - What The World Is Waiting For.wav

Pre-gap length 0:00:02.00

Peak level 84.0 %
Extraction speed 1.9 X
Track quality 100.0 %
Test CRC 867D4397
Copy CRC 867D4397
Track not present in AccurateRip database
Copy OK

Track 2

Filename C:\EAC\VA - A Story Of Independent Music Greater Manchester 1977 - 1993, Dsc 6 - 2017 - FLAC - CD\02 - What Noise - Vein.wav

Pre-gap length 0:00:01.00

Peak level 78.6 %
Extraction speed 2.2 X
Track quality 100.0 %
Test CRC E7CAB837
Copy CRC E7CAB837
Track not present in AccurateRip database
Copy OK

Track 3

Filename C:\EAC\VA - A Story Of Independent Music Greater Manchester 1977 - 1993, Dsc 6 - 2017 - FLAC - CD\03 - Dub Sex - Swerve.wav

Pre-gap length 0:00:00.98

Peak level 96.6 %
Extraction speed 2.2 X
Track quality 100.0 %
Test CRC 2566D4B5
Copy CRC 2566D4B5
Track not present in AccurateRip database
Copy OK

Track 4

Filename C:\EAC\VA - A Story Of Independent Music Greater Manchester 1977 - 1993, Dsc 6 - 2017 - FLAC - CD\04 - The Train Set - Hold On.wav

Pre-gap length 0:00:00.93

Peak level 96.6 %
Extraction speed 2.3 X
Track quality 100.0 %
Test CRC 0475E530
Copy CRC 0475E530
Track not present in AccurateRip database
Copy OK

Track 5

Filename C:\EAC\VA - A Story Of Independent Music Greater Manchester 1977 - 1993, Dsc 6 - 2017 - FLAC - CD\05 - The Jerks - Waterskin.wav

Pre-gap length 0:00:01.00

Peak level 96.6 %
Extraction speed 2.5 X
Track quality 100.0 %
Test CRC 0786FDB8
Copy CRC 0786FDB8
Track not present in AccurateRip database
Copy OK

Track 6

Filename C:\EAC\VA - A Story Of Independent Music Greater Manchester 1977 - 1993, Dsc 6 - 2017 - FLAC - CD\06 - The Mock Turtles - And Then She Smiles.wav

Pre-gap length 0:00:01.00

Peak level 96.6 %
Extraction speed 2.6 X
Track quality 100.0 %
Test CRC 3B12F08C
Copy CRC 3B12F08C
Track not present in AccurateRip database
Copy OK

Track 7

Filename C:\EAC\VA - A Story Of Independent Music Greater Manchester 1977 - 1993, Dsc 6 - 2017 - FLAC - CD\07 - Revenge - 7 Reasons (Demo).wav

Pre-gap length 0:00:01.00

Peak level 96.6 %
Extraction speed 2.0 X
Track quality 99.9 %
Test CRC 95225053
Copy CRC 95225053
Track not present in AccurateRip database
Copy OK

Track 8

Filename C:\EAC\VA - A Story Of Independent Music Greater Manchester 1977 - 1993, Dsc 6 - 2017 - FLAC - CD\08 - Electronic - Getting Away With It.wav

Pre-gap length 0:00:01.00

Peak level 96.6 %
Extraction speed 2.8 X
Track quality 100.0 %
Test CRC E5BA78A1
Copy CRC E5BA78A1
Track not present in AccurateRip database
Copy OK

Track 9

Filename C:\EAC\VA - A Story Of Independent Music Greater Manchester 1977 - 1993, Dsc 6 - 2017 - FLAC - CD\09 - MC Buzz B - How Sleep The Brave (Jazz Mix Vocal Edit).wav

Pre-gap length 0:00:01.00

Peak level 96.6 %
Extraction speed 3.1 X
Track quality 100.0 %
Test CRC E3F4C979
Copy CRC E3F4C979
Track not present in AccurateRip database
Copy OK

Track 10

Filename C:\EAC\VA - A Story Of Independent Music Greater Manchester 1977 - 1993, Dsc 6 - 2017 - FLAC - CD\10 - MC Tunes & 808 State - The Only Rhyme That Bites.wav

Pre-gap length 0:00:01.00

Peak level 96.6 %
Extraction speed 3.1 X
Track quality 100.0 %
Test CRC 7A1ED6C6
Copy CRC 7A1ED6C6
Track not present in AccurateRip database
Copy OK

Track 11

Filename C:\EAC\VA - A Story Of Independent Music Greater Manchester 1977 - 1993, Dsc 6 - 2017 - FLAC - CD\11 - New Fast Automatic Daffodils - Big (Edit).wav

Pre-gap length 0:00:00.98

Peak level 96.6 %
Extraction speed 2.4 X
Track quality 99.9 %
Test CRC E856ECEC
Copy CRC E856ECEC
Track not present in AccurateRip database
Copy OK

Track 12

Filename C:\EAC\VA - A Story Of Independent Music Greater Manchester 1977 - 1993, Dsc 6 - 2017 - FLAC - CD\12 - Northside - Shall We Take A Trip.wav

Pre-gap length 0:00:01.00

Peak level 91.2 %
Extraction speed 3.3 X
Track quality 100.0 %
Test CRC 73D5FD6D
Copy CRC 73D5FD6D
Track not present in AccurateRip database
Copy OK

Track 13

Filename C:\EAC\VA - A Story Of Independent Music Greater Manchester 1977 - 1993, Dsc 6 - 2017 - FLAC - CD\13 - The Rainkings - Get Ready.wav

Pre-gap length 0:00:01.00

Peak level 96.6 %
Extraction speed 3.1 X
Track quality 100.0 %
Test CRC 541D7BF1
Copy CRC 541D7BF1
Track not present in AccurateRip database
Copy OK

Track 14

Filename C:\EAC\VA - A Story Of Independent Music Greater Manchester 1977 - 1993, Dsc 6 - 2017 - FLAC - CD\14 - Paris Angels - Perfume.wav

Pre-gap length 0:00:00.98

Peak level 96.6 %
Extraction speed 3.5 X
Track quality 100.0 %
Test CRC 342A9EB8
Copy CRC 342A9EB8
Track not present in AccurateRip database
Copy OK

Track 15

Filename C:\EAC\VA - A Story Of Independent Music Greater Manchester 1977 - 1993, Dsc 6 - 2017 - FLAC - CD\15 - The High - Box Set Go.wav

Pre-gap length 0:00:01.00

Peak level 96.6 %
Extraction speed 2.7 X
Track quality 99.9 %
Test CRC D78128BA
Copy CRC D78128BA
Track not present in AccurateRip database
Copy OK

Track 16

Filename C:\EAC\VA - A Story Of Independent Music Greater Manchester 1977 - 1993, Dsc 6 - 2017 - FLAC - CD\16 - The Cygnet Ring - 18 Daze.wav

Pre-gap length 0:00:01.00

Peak level 96.6 %
Extraction speed 2.6 X
Track quality 99.9 %
Test CRC 18D16DFE
Copy CRC 18D16DFE
Track not present in AccurateRip database
Copy OK

Track 17

Filename C:\EAC\VA - A Story Of Independent Music Greater Manchester 1977 - 1993, Dsc 6 - 2017 - FLAC - CD\17 - Asia Fields - Dazed.wav

Pre-gap length 0:00:00.98

Peak level 96.6 %
Extraction speed 3.7 X
Track quality 100.0 %
Test CRC FCBBE6CB
Copy CRC FCBBE6CB
Track not present in AccurateRip database
Copy OK

Track 18

Filename C:\EAC\VA - A Story Of Independent Music Greater Manchester 1977 - 1993, Dsc 6 - 2017 - FLAC - CD\18 - Ruthless Rap Assassins - And It Wasn't A Dream.wav

Pre-gap length 0:00:01.00

Peak level 96.6 %
Extraction speed 3.6 X
Track quality 100.0 %
Test CRC 999E45E9
Copy CRC 999E45E9
Track not present in AccurateRip database
Copy OK

Track 19

Filename C:\EAC\VA - A Story Of Independent Music Greater Manchester 1977 - 1993, Dsc 6 - 2017 - FLAC - CD\19 - Krispy 3 - Coming Through Clear.wav

Pre-gap length 0:00:00.92

Peak level 96.6 %
Extraction speed 3.0 X
Track quality 99.9 %
Test CRC C4A5E61E
Copy CRC C4A5E61E
Track not present in AccurateRip database
Copy OK

Track 20

Filename C:\EAC\VA - A Story Of Independent Music Greater Manchester 1977 - 1993, Dsc 6 - 2017 - FLAC - CD\20 - Kiss AMC - Let Off (7'' Mix) (feat. Ruthless Rap Assassins).wav

Pre-gap length 0:00:00.94

Peak level 96.6 %
Extraction speed 3.8 X
Track quality 100.0 %
Test CRC 2C31696D
Copy CRC 2C31696D
Track not present in AccurateRip database
Copy OK


None of the tracks are present in the AccurateRip database

No errors occurred

End of status report

==== Log checksum EBFA6834B2FE5F7C304EA374C5C85B3DA0AB3079549CA0B140E592C56322E572 ====

Exact Audio Copy V1.0 beta 3 from 29. August 2011

EAC extraction logfile from 5. October 2017, 18:33

Various Artists / A Story Of Independent Music Greater Manchester 1977 - 1993, Dsc 7

Used drive : TSSTcorpCDDVDW SE-218CB Adapter: 1 ID: 0

Read mode : Secure
Utilize accurate stream : Yes
Defeat audio cache : Yes
Make use of C2 pointers : No

Read offset correction : 6
Overread into Lead-In and Lead-Out : No
Fill up missing offset samples with silence : Yes
Delete leading and trailing silent blocks : No
Null samples used in CRC calculations : Yes
Used interface : Native Win32 interface for Win NT & 2000
Gap handling : Appended to previous track

Used output format : User Defined Encoder
Selected bitrate : 1024 kBit/s
Quality : High
Add ID3 tag : No
Command line compressor : C:\Program Files (x86)\Exact Audio Copy\Flac\flac.exe
Additional command line options : -8 -V -T "ARTIST=%artist%" -T "TITLE=%title%" -T "ALBUM=%albumtitle%" -T "DATE=%year%" -T "TRACKNUMBER=%tracknr%" -T "GENRE=%genre%" -T "PERFORMER=%albuminterpret%" -T "COMPOSER=%composer%" %haslyrics%–tag-from-file=LYRICS="%lyricsfile%"%haslyrics% -T "ALBUMARTIST=%albumartist%" -T "DISCNUMBER=%cdnumber%" -T "TOTALDISCS=%totalcds%" -T "TOTALTRACKS=%numtracks%" -T "COMMENT=%comment%" %source% -o %dest%


TOC of the extracted CD

Track | Start | Length | Start sector | End sector
––––––––––––––––––––––––––––-
1 | 0:00.00 | 5:13.05 | 0 | 23479
2 | 5:13.05 | 4:22.14 | 23480 | 43143
3 | 9:35.19 | 5:09.64 | 43144 | 66382
4 | 14:45.08 | 4:05.61 | 66383 | 84818
5 | 18:50.69 | 3:21.55 | 84819 | 99948
6 | 22:12.49 | 6:47.08 | 99949 | 130481
7 | 28:59.57 | 4:44.53 | 130482 | 151834
8 | 33:44.35 | 3:15.29 | 151835 | 166488
9 | 36:59.64 | 1:51.24 | 166489 | 174837
10 | 38:51.13 | 5:02.74 | 174838 | 197561
11 | 43:54.12 | 3:19.19 | 197562 | 212505
12 | 47:13.31 | 5:12.28 | 212506 | 235933
13 | 52:25.59 | 4:31.51 | 235934 | 256309
14 | 56:57.35 | 4:19.56 | 256310 | 275790
15 | 61:17.16 | 3:25.28 | 275791 | 291193
16 | 64:42.44 | 3:24.48 | 291194 | 306541
17 | 68:07.17 | 3:17.40 | 306542 | 321356
18 | 71:24.57 | 5:27.57 | 321357 | 345938


Track 1

Filename C:\EAC\VA - A Story Of Independent Music Greater Manchester 1977 - 1993, Dsc 7 - 2017 - FLAC - CD\01 - The Charlatans - Sproston Green.wav

Pre-gap length 0:00:02.00

Peak level 88.1 %
Extraction speed 1.6 X
Track quality 99.9 %
Test CRC C96E361B
Copy CRC C96E361B
Track not present in AccurateRip database
Copy OK

Track 2

Filename C:\EAC\VA - A Story Of Independent Music Greater Manchester 1977 - 1993, Dsc 7 - 2017 - FLAC - CD\02 - Swirl - Giant Sea.wav

Pre-gap length 0:00:01.00

Peak level 96.6 %
Extraction speed 2.1 X
Track quality 100.0 %
Test CRC 32233838
Copy CRC 32233838
Track not present in AccurateRip database
Copy OK

Track 3

Filename C:\EAC\VA - A Story Of Independent Music Greater Manchester 1977 - 1993, Dsc 7 - 2017 - FLAC - CD\03 - World Of Twist - Sons Of The Stage.wav

Pre-gap length 0:00:01.00

Peak level 89.1 %
Extraction speed 2.3 X
Track quality 100.0 %
Test CRC 28117176
Copy CRC 28117176
Track not present in AccurateRip database
Copy OK

Track 4

Filename C:\EAC\VA - A Story Of Independent Music Greater Manchester 1977 - 1993, Dsc 7 - 2017 - FLAC - CD\04 - Hypnotone - Dream Beam (7'' Edit).wav

Pre-gap length 0:00:01.00

Peak level 96.6 %
Extraction speed 2.4 X
Track quality 100.0 %
Test CRC 5918E717
Copy CRC 5918E717
Track not present in AccurateRip database
Copy OK

Track 5

Filename C:\EAC\VA - A Story Of Independent Music Greater Manchester 1977 - 1993, Dsc 7 - 2017 - FLAC - CD\05 - 808 State - Cubik (Original Mix).wav

Pre-gap length 0:00:00.98

Peak level 96.6 %
Extraction speed 2.5 X
Track quality 100.0 %
Test CRC ABE736A7
Copy CRC ABE736A7
Track not present in AccurateRip database
Copy OK

Track 6

Filename C:\EAC\VA - A Story Of Independent Music Greater Manchester 1977 - 1993, Dsc 7 - 2017 - FLAC - CD\06 - Sub Sub - Space Face.wav

Pre-gap length 0:00:02.00

Peak level 96.6 %
Extraction speed 2.9 X
Track quality 100.0 %
Test CRC B23B9DE5
Copy CRC B23B9DE5
Track not present in AccurateRip database
Copy OK

Track 7

Filename C:\EAC\VA - A Story Of Independent Music Greater Manchester 1977 - 1993, Dsc 7 - 2017 - FLAC - CD\07 - The Adventure Babies - Camper Van.wav

Pre-gap length 0:00:01.00

Peak level 92.2 %
Extraction speed 2.7 X
Track quality 100.0 %
Test CRC 28637495
Copy CRC 28637495
Track not present in AccurateRip database
Copy OK

Track 8

Filename C:\EAC\VA - A Story Of Independent Music Greater Manchester 1977 - 1993, Dsc 7 - 2017 - FLAC - CD\08 - The Days - Fly.wav

Pre-gap length 0:00:01.00

Peak level 91.2 %
Extraction speed 2.8 X
Track quality 100.0 %
Test CRC 9A68DC7D
Copy CRC 9A68DC7D
Track not present in AccurateRip database
Copy OK

Track 9

Filename C:\EAC\VA - A Story Of Independent Music Greater Manchester 1977 - 1993, Dsc 7 - 2017 - FLAC - CD\09 - Kill Laura - Murder.wav

Pre-gap length 0:00:01.00

Peak level 96.6 %
Extraction speed 2.6 X
Track quality 100.0 %
Test CRC F3EA62AF
Copy CRC F3EA62AF
Track not present in AccurateRip database
Copy OK

Track 10

Filename C:\EAC\VA - A Story Of Independent Music Greater Manchester 1977 - 1993, Dsc 7 - 2017 - FLAC - CD\10 - Wonky Alice - Caterpillars.wav

Pre-gap length 0:00:00.98

Peak level 96.6 %
Extraction speed 3.2 X
Track quality 100.0 %
Test CRC BC53C231
Copy CRC BC53C231
Track not present in AccurateRip database
Copy OK

Track 11

Filename C:\EAC\VA - A Story Of Independent Music Greater Manchester 1977 - 1993, Dsc 7 - 2017 - FLAC - CD\11 - Robinson - Soup.wav

Pre-gap length 0:00:00.94

Peak level 96.6 %
Extraction speed 3.1 X
Track quality 100.0 %
Test CRC 9BFDF661
Copy CRC 9BFDF661
Track not present in AccurateRip database
Copy OK

Track 12

Filename C:\EAC\VA - A Story Of Independent Music Greater Manchester 1977 - 1993, Dsc 7 - 2017 - FLAC - CD\12 - Lionrock - Lionrock.wav

Pre-gap length 0:00:01.00

Peak level 96.6 %
Extraction speed 3.4 X
Track quality 100.0 %
Test CRC 73AAF785
Copy CRC 73AAF785
Track not present in AccurateRip database
Copy OK

Track 13

Filename C:\EAC\VA - A Story Of Independent Music Greater Manchester 1977 - 1993, Dsc 7 - 2017 - FLAC - CD\13 - The Chemical Brothers - Song To The Siren.wav

Pre-gap length 0:00:01.00

Peak level 79.4 %
Extraction speed 3.5 X
Track quality 100.0 %
Test CRC AD37C7E8
Copy CRC AD37C7E8
Track not present in AccurateRip database
Copy OK

Track 14

Filename C:\EAC\VA - A Story Of Independent Music Greater Manchester 1977 - 1993, Dsc 7 - 2017 - FLAC - CD\14 - Intastella - Can You Fly Like You Mean It (Gungadin) (feat. Shaun Ryder).wav

Pre-gap length 0:00:01.00

Peak level 96.6 %
Extraction speed 3.5 X
Track quality 100.0 %
Test CRC D90AC832
Copy CRC D90AC832
Track not present in AccurateRip database
Copy OK

Track 15

Filename C:\EAC\VA - A Story Of Independent Music Greater Manchester 1977 - 1993, Dsc 7 - 2017 - FLAC - CD\15 - Puressence - Offshore.wav

Pre-gap length 0:00:01.00

Peak level 96.6 %
Extraction speed 3.5 X
Track quality 100.0 %
Test CRC 9C94FFA8
Copy CRC 9C94FFA8
Track not present in AccurateRip database
Copy OK

Track 16

Filename C:\EAC\VA - A Story Of Independent Music Greater Manchester 1977 - 1993, Dsc 7 - 2017 - FLAC - CD\16 - Bandit Queen - Dirt And Soul.wav

Pre-gap length 0:00:01.00

Peak level 96.6 %
Extraction speed 3.6 X
Track quality 100.0 %
Test CRC 878F5E52
Copy CRC 878F5E52
Track not present in AccurateRip database
Copy OK

Track 17

Filename C:\EAC\VA - A Story Of Independent Music Greater Manchester 1977 - 1993, Dsc 7 - 2017 - FLAC - CD\17 - Molly Half Head - Barny.wav

Pre-gap length 0:00:01.00

Peak level 96.6 %
Extraction speed 2.6 X
Track quality 99.9 %
Test CRC D4AFA921
Copy CRC D4AFA921
Track not present in AccurateRip database
Copy OK

Track 18

Filename C:\EAC\VA - A Story Of Independent Music Greater Manchester 1977 - 1993, Dsc 7 - 2017 - FLAC - CD\18 - Oasis - Columbia (Demo).wav

Pre-gap length 0:00:00.98

Peak level 96.6 %
Extraction speed 4.0 X
Track quality 100.0 %
Test CRC 75EB2C2F
Copy CRC 75EB2C2F
Track not present in AccurateRip database
Copy OK


None of the tracks are present in the AccurateRip database

No errors occurred

End of status report

==== Log checksum C43C31DE67A36E19059FDFB08D19A8A23DD0F4C4A456D317CC2B3FF03E9D1C49 ====


Thanks to the Original customer.