Subcategories

Manfred Mann - The Evolution Of Manfred Mann (2003)

Posted By: popsakov
Manfred Mann - The Evolution Of Manfred Mann (2003)

Manfred Mann - The Evolution Of Manfred Mann (2003)
2CD | EAC Rip | FLAC (Img) + Cue + Log ~ 729 Mb | MP3 CBR320 ~ 286 Mb
Full Scans (JPG, 600 dpi) ~ 40 Mb | RAR 5% Recovery
Pop Rock, Progressive Rock | Creature Music / Cohesion #MANFRED1

A double-disc Manfred Mann hits set that adds a third disc for some DVD material, The Evolution of Manfred Mann surveys the entire career of one of British rock & roll's tightest and most energetic units. The first disc is '60s and early-'70s material, nearly all with classic Paul Jones vocals, while the second picks up the story with Manfred Mann's Earth Band and their series of, well, earthier recordings during the mid-to-late '70s (although the compilation extends well into the '90s). The emphasis, overwhelmingly, is on the hits, which finds "Do Wah Diddy Diddy" comfortably slotted near the beginning of disc one, and "Blinded by the Light" in the same position on the second, but apparently no room for some of the band's best recordings that didn't make the charts – "My Little Red Book," "Cock-a-Hoop," and "Tired of Trying, Bored With Lying, Scared of Dying," prime among them. The DVD portion has interviews with Mann, plus performances of all the main hits: "Do Wah Diddy Diddy," "Semi-Detached Suburban Mr. James," "Fox on the Run," and "Blinded by the Light," among others.
~ John Bush, All Music
Manfred Mann - The Evolution Of Manfred Mann (2003)


***************

Manfred Mann - The Evolution Of Manfred Mann (2003)

Manfred Mann - The Evolution Of Manfred Mann (2003)

Track List CD1:

01. 5-4-3-2-1 [2:01]
02. Hubble Bubble (Toil & Trouble) [2:26]
03. Do Wah Diddy Diddy [2:25]
04. Sha la La [2:33]
05. Come Tomorrow [2:45]
06. Oh No Not My Baby [2:23]
07. If You Gotta Go, Go Now [2:31]
08. Pretty Flamingo [2:36]
09. Just Like a Woman [2:50]
10. Semi-Detached Suburban Mr. James [2:34]
11. Ha! Ha! Said the Clown [2:29]
12. Sweet Pea [3:08]
13. Mighty Quinn [2:52]
14. My Name Is Jack [2:55]
15. Fox on the Run [2:46]
16. Ragamuffin Man [3:10]
17. Handbags & Gladrags [4:11]
18. Miss Me in the Morning [3:42]

Exact Audio Copy V1.3 from 2. September 2016

Отчёт EAC об извлечении, выполненном 19. декабря 2017, 16:19

Manfred Mann / The Complete Greatest Hits of Manfred Mann 1963-2003

Дисковод: HL-DT-STDVDRAM GSA-4167B Adapter: 1 ID: 0

Режим чтения : Достоверность
Использование точного потока : Да
Отключение кэша аудио : Да
Использование указателей C2 : Нет

Коррекция смещения при чтении : 667
Способность читать области Lead-in и Lead-out : Нет
Заполнение пропущенных сэмплов тишиной : Да
Удаление блоков с тишиной в начале и конце : Нет
При вычислениях CRC использовались нулевые сэмплы : Да
Интерфейс : Встроенный Win32-интерфейс для Win NT/2000

Выходной формат : Пользовательский кодировщик
Выбранный битрейт : 128 kBit/s
Качество : Высокий
Добавление ID3-тега : Нет
Утилита сжатия : C:\Program Files\Exact Audio Copy\Flac\flac.exe
Дополнительные параметры : -V -8 -T "Date=%year%" -T "Genre=%genre%" %source%


TOC извлечённого CD

Трек | Старт | Длительность | Начальный сектор | Конечный сектор
––––––––––––––––––––––––––––––––––-
1 | 0:00.00 | 2:00.61 | 0 | 9060
2 | 2:00.61 | 2:25.63 | 9061 | 19998
3 | 4:26.49 | 2:24.41 | 19999 | 30839
4 | 6:51.15 | 2:33.05 | 30840 | 42319
5 | 9:24.20 | 2:45.08 | 42320 | 54702
6 | 12:09.28 | 2:22.48 | 54703 | 65400
7 | 14:32.01 | 2:31.36 | 65401 | 76761
8 | 17:03.37 | 2:35.65 | 76762 | 88451
9 | 19:39.27 | 2:50.36 | 88452 | 101237
10 | 22:29.63 | 2:33.66 | 101238 | 112778
11 | 25:03.54 | 2:28.57 | 112779 | 123935
12 | 27:32.36 | 3:08.35 | 123936 | 138070
13 | 30:40.71 | 2:51.52 | 138071 | 150947
14 | 33:32.48 | 2:55.21 | 150948 | 164093
15 | 36:27.69 | 2:46.25 | 164094 | 176568
16 | 39:14.19 | 3:09.60 | 176569 | 190803
17 | 42:24.04 | 4:10.44 | 190804 | 209597
18 | 46:34.48 | 3:41.67 | 209598 | 226239


Характеристики диапазона извлечения и сообщения об ошибках

Выбранный диапазон

Имя файла C:\Users\khokh\Desktop\Manfred Mann - The Complete Greatest Hits of Manfred Mann 1963-2003.wav

Пиковый уровень 100.0 %
Скорость извлечения 6.9 X
Качество диапазона 99.9 %
CRC теста 104A2164
CRC копии 104A2164
Копирование… OK

Ошибок не произошло


AccurateRip: сводка

Трек 1 : извлечено точно (доверие 48) [A61453D2] (AR v2)
Трек 2 : извлечено точно (доверие 48) [8E0D883A] (AR v2)
Трек 3 : извлечено точно (доверие 48) [E33E5D41] (AR v2)
Трек 4 : извлечено точно (доверие 48) [03786F62] (AR v2)
Трек 5 : извлечено точно (доверие 49) [6FDDDF2C] (AR v2)
Трек 6 : извлечено точно (доверие 48) [E5472413] (AR v2)
Трек 7 : извлечено точно (доверие 49) [CD9BDB30] (AR v2)
Трек 8 : извлечено точно (доверие 48) [A511E451] (AR v2)
Трек 9 : извлечено точно (доверие 48) [6F4B83CB] (AR v2)
Трек 10 : извлечено точно (доверие 48) [ACACD0E2] (AR v2)
Трек 11 : извлечено точно (доверие 47) [78D07123] (AR v2)
Трек 12 : извлечено точно (доверие 48) [03FFF317] (AR v2)
Трек 13 : извлечено точно (доверие 47) [55417EA0] (AR v2)
Трек 14 : извлечено точно (доверие 10) [828F78AF] (AR v2)
Трек 15 : извлечено точно (доверие 9) [BF190B40] (AR v2)
Трек 16 : извлечено точно (доверие 9) [BC9EDB20] (AR v2)
Трек 17 : извлечено точно (доверие 48) [3FA736A9] (AR v2)
Трек 18 : извлечено точно (доверие 49) [D682082A] (AR v2)

Все треки извлечены точно

Конец отчёта

–– CUETools DB Plugin V2.1.6

[CTDB TOCID: iGHvfJVTjDMIeRDT6UOGMo5phTU-] found
Submit result: iGHvfJVTjDMIeRDT6UOGMo5phTU- has been confirmed
Track | CTDB Status
1 | (237/238) Accurately ripped
2 | (235/238) Accurately ripped
3 | (238/238) Accurately ripped
4 | (238/238) Accurately ripped
5 | (238/238) Accurately ripped
6 | (238/238) Accurately ripped
7 | (237/238) Accurately ripped
8 | (236/238) Accurately ripped
9 | (236/238) Accurately ripped
10 | (237/238) Accurately ripped
11 | (237/238) Accurately ripped
12 | (237/238) Accurately ripped
13 | (235/238) Accurately ripped
14 | (149/238) Accurately ripped
15 | (149/238) Accurately ripped
16 | (149/238) Accurately ripped
17 | (234/238) Accurately ripped
18 | (233/238) Accurately ripped


==== Контрольная сумма отчёта 673236876A1279A8F6C09220FEB7F88DE06B52D2258D4E0CCBF0A11A42E782D0 ====

foobar2000 1.3.16 / Dynamic Range Meter 1.1.1
log date: 2018-01-15 19:40:03

––––––––––––––––––––––––––––––––––––––––
Analyzed: Manfred Mann / The Complete Greatest Hits of Manfred Mann 1963-2003 (1-16)
Mike d’Abo / The Complete Greatest Hits of Manfred Mann 1963-2003 (17-18)
––––––––––––––––––––––––––––––––––––––––

DR Peak RMS Duration Track
––––––––––––––––––––––––––––––––––––––––
DR9 -1.96 dB -11.79 dB 2:01 01-5-4-3-2-1
DR8 -2.12 dB -11.40 dB 2:26 02-Hubble Bubble (Toil & Trouble)
DR9 -2.07 dB -11.41 dB 2:25 03-Do Wah Diddy Diddy
DR8 -1.94 dB -11.07 dB 2:33 04-Sha la La
DR9 -2.12 dB -13.27 dB 2:45 05-Come Tomorrow
DR9 -1.93 dB -12.32 dB 2:23 06-Oh No Not My Baby
DR9 -2.14 dB -12.30 dB 2:31 07-If You Gotta Go, Go Now
DR9 -2.10 dB -12.30 dB 2:36 08-Pretty Flamingo
DR12 -1.02 dB -16.61 dB 2:50 09-Just Like a Woman
DR11 -0.87 dB -14.64 dB 2:34 10-Semi-Detached Suburban Mr. James
DR10 0.00 dB -12.38 dB 2:29 11-Ha! Ha! Said the Clown
DR12 -3.89 dB -18.17 dB 3:08 12-Sweet Pea
DR12 -0.21 dB -14.98 dB 2:52 13-Mighty Quinn
DR10 -1.20 dB -14.96 dB 2:55 14-My Name Is Jack
DR11 0.00 dB -13.61 dB 2:46 15-Fox on the Run
DR12 -0.20 dB -15.00 dB 3:10 16-Ragamuffin Man
DR12 -1.00 dB -18.50 dB 4:11 17-Handbags & Gladrags
DR11 -3.00 dB -15.70 dB 3:42 18-Miss Me in the Morning
––––––––––––––––––––––––––––––––––––––––

Number of tracks: 18
Official DR value: DR10

Samplerate: 44100 Hz
Channels: 2
Bits per sample: 16
Bitrate: 720 kbps
Codec: FLAC
================================================================================

[CUETools log; Date: 15.01.2018 19:40:11; Version: 2.1.5]
[CTDB TOCID: iGHvfJVTjDMIeRDT6UOGMo5phTU-] found.
Track | CTDB Status
1 | (249/250) Accurately ripped
2 | (247/250) Accurately ripped
3 | (250/250) Accurately ripped
4 | (250/250) Accurately ripped
5 | (250/250) Accurately ripped
6 | (250/250) Accurately ripped
7 | (249/250) Accurately ripped
8 | (248/250) Accurately ripped
9 | (248/250) Accurately ripped
10 | (249/250) Accurately ripped
11 | (249/250) Accurately ripped
12 | (249/250) Accurately ripped
13 | (247/250) Accurately ripped
14 | (157/250) Accurately ripped
15 | (157/250) Accurately ripped
16 | (157/250) Accurately ripped
17 | (246/250) Accurately ripped
18 | (245/250) Accurately ripped
[AccurateRip ID: 001e3d77-0199d68f-e90bc812] found.
Track [ CRC | V2 ] Status
01 [07aed955|a61453d2] (046+049/179) Accurately ripped
02 [e6e38dd0|8e0d883a] (046+049/179) Accurately ripped
03 [aaafeef4|e33e5d41] (048+049/182) Accurately ripped
04 [7eacdbcc|03786f62] (045+049/178) Accurately ripped
05 [5c43c2e4|6fdddf2c] (046+050/180) Accurately ripped
06 [e6407569|e5472413] (046+049/179) Accurately ripped
07 [02626be0|cd9bdb30] (046+050/180) Accurately ripped
08 [d42e5765|a511e451] (047+049/182) Accurately ripped
09 [d8467ae3|6f4b83cb] (046+049/180) Accurately ripped
10 [ddd20b18|acacd0e2] (046+049/180) Accurately ripped
11 [e2648bca|78d07123] (047+048/182) Accurately ripped
12 [7c66b767|03fff317] (046+049/180) Accurately ripped
13 [a0f45809|55417ea0] (047+048/181) Accurately ripped
14 [f1c905c9|828f78af] (012+010/181) Accurately ripped
15 [e797f6dd|bf190b40] (012+009/181) Accurately ripped
16 [ed32608c|bc9edb20] (012+009/180) Accurately ripped
17 [0344d916|3fa736a9] (046+049/177) Accurately ripped
18 [d5e59a08|d682082a] (046+050/178) Accurately ripped
Offsetted by -1310:
01 [d5b45c83] (011/179) Accurately ripped
02 [825e80aa] (011/179) Accurately ripped
03 [027f3224] (012/182) Accurately ripped
04 [df697bf8] (011/178) Accurately ripped
05 [5ef062ba] (011/180) Accurately ripped
06 [d6faf7b9] (011/179) Accurately ripped
07 [b1cfb430] (011/180) Accurately ripped
08 [bcf686d9] (012/182) Accurately ripped
09 [f66b5f3b] (012/180) Accurately ripped
10 [b5277582] (012/180) Accurately ripped
11 [3df20ba0] (012/182) Accurately ripped
12 [9cac04c1] (012/180) Accurately ripped
13 [582198c1] (012/181) Accurately ripped
14 [e497f8a8] (012/181) Accurately ripped
15 [ac2e4052] (011/181) Accurately ripped
16 [9426bbce] (012/180) Accurately ripped
17 [1352642a] (010/177) Accurately ripped
18 [1d244e1c] (010/178) Accurately ripped
Offsetted by -664:
01 [4c8af32d] (014/179) Accurately ripped
02 [f1b0eb98] (014/179) Accurately ripped
03 [f932c8b4] (014/182) Accurately ripped
04 [de37d9bc] (014/178) Accurately ripped
05 [4e1ed7ff] (014/180) Accurately ripped
06 [2fccedca] (014/179) Accurately ripped
07 [d695d34a] (014/180) Accurately ripped
08 [e2c19a23] (014/182) Accurately ripped
09 [c2d0c6c3] (014/180) Accurately ripped
10 [4d4fce20] (014/180) Accurately ripped
11 [627bcdc2] (014/182) Accurately ripped
12 [b567d72f] (014/180) Accurately ripped
13 [b0ce4f69] (014/181) Accurately ripped
14 [8da18f65] (013/181) Accurately ripped
15 [f9e5c1f1] (015/181) Accurately ripped
16 [22f1d974] (014/180) Accurately ripped
17 [d257d426] (014/177) Accurately ripped
18 [a78aa918] (014/178) Accurately ripped
Offsetted by -36:
01 [7f143a59] (004/179) Accurately ripped
02 [db231f3c] (004/179) Accurately ripped
03 [351ccf94] (004/182) Accurately ripped
04 [3b5f9334] (004/178) Accurately ripped
05 [a1b753ab] (004/180) Accurately ripped
06 [6b5aaa2e] (004/179) Accurately ripped
07 [437c1db3] (004/180) Accurately ripped
08 [a057e226] (004/182) Accurately ripped
09 [4625e1b3] (004/180) Accurately ripped
10 [ed1e4264] (004/180) Accurately ripped
11 [2ba693fe] (004/182) Accurately ripped
12 [1fe09bd3] (004/180) Accurately ripped
13 [7201b419] (004/181) Accurately ripped
14 [7d1b836a] (004/181) Accurately ripped
15 [dac24014] (004/181) Accurately ripped
16 [76478da8] (004/180) Accurately ripped
17 [1f75af2e] (004/177) Accurately ripped
18 [8dfc6e20] (004/178) Accurately ripped

Track Peak [ CRC32 ] [W/O NULL] [ LOG ]
– 100,0 [104A2164] [281C9DA1] CRC32
01 79,7 [8197D4AA] [025B29E1]
02 78,3 [AB951547] [06BB80DB]
03 78,7 [B7F5315D] [66BDAA58]
04 80,0 [F22CACA0] [F2559ECA]
05 78,3 [2E3ED367] [6BDA9D44]
06 80,0 [57503D98] [F755AFAD]
07 78,1 [0CC68325] [278032D7]
08 78,4 [5ABFF5A2] [8BA1BCD2]
09 88,9 [A44701C2] [54C51920]
10 90,5 [E1A37405] [FDAD4321]
11 100,0 [891081B0] [C3D1407A]
12 63,8 [EA3BBF2E] [DC2DA9C5]
13 97,5 [0D4721C8] [3375C326]
14 87,1 [FCFDC1DF] [0091A023]
15 100,0 [803DDFA5] [57DF593A]
16 97,7 [D01B9903] [BB62154F]
17 89,1 [0054A77A] [4D7F221C]
18 70,7 [41CFD2C2] [BF43829F]

Manfred Mann - The Evolution Of Manfred Mann (2003)

Manfred Mann - The Evolution Of Manfred Mann (2003)

Track List CD2:

01. Joybringer (UK 9_73) [3:25]
02. Spirit In The Night (USA 40_77) [6:27]
03. Blinded By The Light (USA 1_76) [3:49]
04. Questions [3:58]
05. Davy's On The Road Again (UK 6_78) [3:37]
06. California [3:46]
07. You Angel You (UK 54_79) [3:47]
08. Don't Kill It Carol (UK 45_79) [6:17]
09. Lies [4:37]
10. Demolition Man [3:46]
11. Runner (USA 22_84) [4:39]
12. Redemption Song [4:15]
13. Sikelele [3:43]
14. Nothing Ever Happens [4:10]
15. Blinded By The Light (Live) [4:48]
16. For You (Live) [3:41]

Exact Audio Copy V1.3 from 2. September 2016

Отчёт EAC об извлечении, выполненном 19. декабря 2017, 16:57

Manfred Mann's Earth Band / The Evolution Of Manfred Mann (CD2/2)

Дисковод: HL-DT-STDVDRAM GSA-4167B Adapter: 1 ID: 0

Режим чтения : Достоверность
Использование точного потока : Да
Отключение кэша аудио : Да
Использование указателей C2 : Нет

Коррекция смещения при чтении : 667
Способность читать области Lead-in и Lead-out : Нет
Заполнение пропущенных сэмплов тишиной : Да
Удаление блоков с тишиной в начале и конце : Нет
При вычислениях CRC использовались нулевые сэмплы : Да
Интерфейс : Встроенный Win32-интерфейс для Win NT/2000

Выходной формат : Пользовательский кодировщик
Выбранный битрейт : 128 kBit/s
Качество : Высокий
Добавление ID3-тега : Нет
Утилита сжатия : C:\Program Files\Exact Audio Copy\Flac\flac.exe
Дополнительные параметры : -V -8 -T "Date=%year%" -T "Genre=%genre%" %source%


TOC извлечённого CD

Трек | Старт | Длительность | Начальный сектор | Конечный сектор
––––––––––––––––––––––––––––––––––-
1 | 0:00.00 | 3:25.27 | 0 | 15401
2 | 3:25.27 | 6:27.20 | 15402 | 44446
3 | 9:52.47 | 3:48.53 | 44447 | 61599
4 | 13:41.25 | 3:58.14 | 61600 | 79463
5 | 17:39.39 | 3:36.68 | 79464 | 95731
6 | 21:16.32 | 3:45.58 | 95732 | 112664
7 | 25:02.15 | 3:46.53 | 112665 | 129667
8 | 28:48.68 | 6:17.36 | 129668 | 157978
9 | 35:06.29 | 4:36.46 | 157979 | 178724
10 | 39:43.00 | 3:46.16 | 178725 | 195690
11 | 43:29.16 | 4:38.46 | 195691 | 216586
12 | 48:07.62 | 4:14.48 | 216587 | 235684
13 | 52:22.35 | 3:43.20 | 235685 | 252429
14 | 56:05.55 | 4:10.28 | 252430 | 271207
15 | 60:16.08 | 4:48.16 | 271208 | 292823
16 | 65:04.24 | 3:41.08 | 292824 | 309406


Характеристики диапазона извлечения и сообщения об ошибках

Выбранный диапазон

Имя файла C:\Users\khokh\Desktop\Manfred Mann's Earth Band - The Evolution Of Manfred Mann (CD2,2).wav

Пиковый уровень 99.2 %
Скорость извлечения 4.6 X
Качество диапазона 99.9 %
CRC теста 4D491E10
CRC копии 4D491E10
Копирование… OK

Ошибок не произошло


AccurateRip: сводка

Трек 1 : извлечено точно (доверие 12) [955B416C] (AR v2)
Трек 2 : извлечено точно (доверие 12) [A238C795] (AR v2)
Трек 3 : извлечено точно (доверие 12) [FA6D158B] (AR v2)
Трек 4 : извлечено точно (доверие 12) [BB180078] (AR v2)
Трек 5 : извлечено точно (доверие 12) [A8229EBF] (AR v2)
Трек 6 : извлечено точно (доверие 12) [A1803A2A] (AR v2)
Трек 7 : извлечено точно (доверие 12) [95F0C115] (AR v2)
Трек 8 : извлечено точно (доверие 12) [B2834D5C] (AR v2)
Трек 9 : извлечено точно (доверие 12) [E96BD1F1] (AR v2)
Трек 10 : извлечено точно (доверие 12) [F76139F6] (AR v2)
Трек 11 : извлечено точно (доверие 12) [86328BDB] (AR v2)
Трек 12 : извлечено точно (доверие 12) [9D3FE470] (AR v2)
Трек 13 : извлечено точно (доверие 11) [F55B2D99] (AR v2)
Трек 14 : извлечено точно (доверие 12) [D633FCCB] (AR v2)
Трек 15 : извлечено точно (доверие 11) [4B0C6AB5] (AR v2)
Трек 16 : извлечено точно (доверие 12) [AF96525A] (AR v2)

Все треки извлечены точно

Конец отчёта

–– CUETools DB Plugin V2.1.6

[CTDB TOCID: pqVQqEqdCSmOqlLLtOJAGI7Bs4E-] found
Submit result: pqVQqEqdCSmOqlLLtOJAGI7Bs4E- has been confirmed
Track | CTDB Status
1 | (15/15) Accurately ripped
2 | (15/15) Accurately ripped
3 | (15/15) Accurately ripped
4 | (15/15) Accurately ripped
5 | (15/15) Accurately ripped
6 | (15/15) Accurately ripped
7 | (15/15) Accurately ripped
8 | (15/15) Accurately ripped
9 | (15/15) Accurately ripped
10 | (15/15) Accurately ripped
11 | (15/15) Accurately ripped
12 | (15/15) Accurately ripped
13 | (15/15) Accurately ripped
14 | (15/15) Accurately ripped
15 | (14/15) Accurately ripped
16 | (15/15) Accurately ripped


==== Контрольная сумма отчёта 2DC76A6E8BBD222973BE6FFA025E871FA48B7BA35964E6429B326B05E438342B ====

foobar2000 1.3.16 / Dynamic Range Meter 1.1.1
log date: 2018-01-15 19:41:15

––––––––––––––––––––––––––––––––––––––––
Analyzed: Manfred Mann's Earth Band / The Evolution Of Manfred Mann (CD2/2)
––––––––––––––––––––––––––––––––––––––––

DR Peak RMS Duration Track
––––––––––––––––––––––––––––––––––––––––
DR11 -0.52 dB -14.00 dB 3:25 01-Joybringer (UK 9_73)
DR10 -0.20 dB -13.26 dB 6:27 02-Spirit In The Night (USA 40_77)
DR8 -0.20 dB -11.43 dB 3:49 03-Blinded By The Light (USA 1_76)
DR10 -0.20 dB -13.37 dB 3:58 04-Questions
DR12 -0.47 dB -16.10 dB 3:37 05-Davy's On The Road Again (UK 6_78)
DR12 -0.20 dB -14.32 dB 3:46 06-California
DR9 -0.73 dB -11.31 dB 3:47 07-You Angel You (UK 54_79)
DR11 -1.52 dB -14.24 dB 6:17 08-Don't Kill It Carol (UK 45_79)
DR8 -1.19 dB -11.61 dB 4:37 09-Lies
DR11 -1.47 dB -13.63 dB 3:46 10-Demolition Man
DR10 -0.20 dB -13.16 dB 4:39 11-Runner (USA 22_84)
DR11 -0.20 dB -11.94 dB 4:15 12-Redemption Song
DR14 -0.84 dB -17.40 dB 3:43 13-Sikelele
DR10 -0.06 dB -11.80 dB 4:10 14-Nothing Ever Happens
DR11 -0.29 dB -14.01 dB 4:48 15-Blinded By The Light (Live)
DR10 -0.49 dB -15.76 dB 3:41 16-For You (Live)
––––––––––––––––––––––––––––––––––––––––

Number of tracks: 16
Official DR value: DR11

Samplerate: 44100 Hz
Channels: 2
Bits per sample: 16
Bitrate: 886 kbps
Codec: FLAC
================================================================================

[CUETools log; Date: 15.01.2018 19:41:18; Version: 2.1.5]
[CTDB TOCID: pqVQqEqdCSmOqlLLtOJAGI7Bs4E-] found.
Track | CTDB Status
1 | (17/17) Accurately ripped
2 | (17/17) Accurately ripped
3 | (17/17) Accurately ripped
4 | (17/17) Accurately ripped
5 | (17/17) Accurately ripped
6 | (17/17) Accurately ripped
7 | (17/17) Accurately ripped
8 | (17/17) Accurately ripped
9 | (17/17) Accurately ripped
10 | (17/17) Accurately ripped
11 | (17/17) Accurately ripped
12 | (17/17) Accurately ripped
13 | (17/17) Accurately ripped
14 | (17/17) Accurately ripped
15 | (16/17) Accurately ripped
16 | (17/17) Accurately ripped
[AccurateRip ID: 00286daa-01e4ed0f-de101d10] found.
Track [ CRC | V2 ] Status
01 [dbc61262|955b416c] (13+12/25) Accurately ripped
02 [ddaba727|a238c795] (12+12/24) Accurately ripped
03 [793f3916|fa6d158b] (13+12/25) Accurately ripped
04 [2843d319|bb180078] (13+12/25) Accurately ripped
05 [393de77f|a8229ebf] (13+12/25) Accurately ripped
06 [aa78c975|a1803a2a] (13+12/25) Accurately ripped
07 [c7b31323|95f0c115] (13+12/25) Accurately ripped
08 [31ca9975|b2834d5c] (13+12/25) Accurately ripped
09 [9928b2da|e96bd1f1] (13+12/25) Accurately ripped
10 [ae288b5d|f76139f6] (13+12/25) Accurately ripped
11 [8b51fadd|86328bdb] (13+12/25) Accurately ripped
12 [5b001b8a|9d3fe470] (13+12/25) Accurately ripped
13 [a3ff6ab5|f55b2d99] (13+11/24) Accurately ripped
14 [ee7f0798|d633fccb] (13+12/25) Accurately ripped
15 [dea88025|4b0c6ab5] (13+11/24) Accurately ripped
16 [442cc986|af96525a] (13+12/25) Accurately ripped

Track Peak [ CRC32 ] [W/O NULL] [ LOG ]
– 99,2 [4D491E10] [B66526C2] CRC32
01 94,1 [4A36875E] [5FCC8431]
02 97,7 [9F13E28C] [FFD2A552]
03 97,7 [FC36AFA5] [981298BD]
04 97,7 [169330D7] [DFEF9C8C]
05 94,6 [972E4B6D] [F75D5A7F]
06 97,7 [98E657D2] [3ABC8E5E]
07 91,9 [0C5EE5AA] [5E6CDAF8]
08 83,9 [7B76B864] [A3EC23AD]
09 87,2 [834D3C63] [7F8B8829]
10 84,4 [E9112D7E] [6BB72DC5]
11 97,7 [4F0717EC] [CC87471D]
12 97,7 [EFC85E95] [BE6F5E0F]
13 90,8 [39FFF61A] [81403568]
14 99,2 [1B5B5D8B] [6CF79C6B]
15 96,7 [5B801EFC] [CEAFB525]
16 94,5 [741F90BB] [30139DAE]

Manfred Mann - The Evolution Of Manfred Mann (2003)

All thanks go to Angel Station

>>> Manfred Mann in my Blog <<<

Download from icerbox.com: