Subcategories

Manfred Mann’s Earth Band - Nightingales & Bombers (1975) {1999, With Bonus Tracks, Remastered}

Posted By: popsakov
Manfred Mann’s Earth Band - Nightingales & Bombers (1975) {1999, With Bonus Tracks, Remastered}

Manfred Mann’s Earth Band - Nightingales & Bombers (1975) {1999, With Bonus Tracks, Remastered}
EAC Rip | FLAC (Img) + Cue + Log ~ 305 Mb | MP3 CBR320 ~ 108 Mb
Full Scans (JPG, 600 dpi) ~ 53 Mb | RAR 5% Recovery
Art Rock, Progressive Rock | Cohesion / Creature Music #MANN 008

The album that was Manfred Mann's commercial breakthrough was a departure from the previous albums made with the Earth Band. Though the personnel are the same and the musicianship is as mind-blowing as ever, the songs are shorter and punchier, in some cases more poppy. This is not to say that the band had sacrificed a bit of ingenuity or complexity, but the long jams are gone in favor of briefer sound portraits. Nightingales and Bombers included Manfred Mann's first cover of a Bruce Springsteen song, the album-opening "Spirits in the Night," a single that charted, and became one of the only pieces written in 10/4 time ever to do so. It would prove to be an important move in their recording career, as 1976's Roaring Silence earned them a big hit with Springsteen's "Blinded by the Light." Another foreshadowing of that tune can be detected in the track "Fat Nelly," which includes a synthesizer part almost identical to the intro of the aforementioned hit. Also featured in Nightingales and Bombers are such synth-driven rockers as "Crossfade," "Countdown," and the title track, in which Manfred Mann appear to be trying to capture the prog rock crown. Nightingales and Bombers featured in almost every "Best of the Year" list for 1975. Justifiably so – though attention at the time was naturally on the hits, the rest of the album features a mix of good originals and eccentric covers, inspired playing, and tight, focused arrangements. The album stands up to repeated listening decades after it was created, and though fans of the more expansive progressive phase may prefer earlier works, they will generally allow the excellence of this one. (The name of the album was once regarded as a possible drug reference, but it is actually taken from a nature recording made during World War II. An ornithologist who was trying to record birdcalls captured not only the sound of birds, but also of incoming enemy aircraft. That recording is used in the track "As Above, So Below," and gives it an eerie character.)
~ Richard Foss, All Music

***************

Manfred Mann’s Earth Band - Nightingales & Bombers (1975) {1999, With Bonus Tracks, Remastered}

Manfred Mann’s Earth Band - Nightingales & Bombers (1975) {1999, With Bonus Tracks, Remastered}

Track List:

01. Spirits in the Night [6:27]
02. Countdown [3:06]
03. Time Is Right [6:32]
04. Crossfade [3:39]
05. Visionary Mountains [5:43]
06. Nightingales and Bombers [4:54]
07. Fat Nelly [3:20]
08. As Above So Below (recorded live) [4:19]
Bonus Tracks
09. Quit Your Low Down Ways [3:26]
10. Spirits in the Night (single version) [3:17]

Personnel:
Bass – Colin Pattenden
Cello – David Boswell Brown, Graham Elliott, Nigel Warren Green
Drums, Percussion (Concussion) – Chris Slade
Guitar, Vocals – Mick Rogers
Organ, Synthesizer – Manfred Mann
Viola – David Millman
Violin – Chris Warren Green
Backing Vocals – Doreen Chanter, Martha Smith, Ruby James

Exact Audio Copy V1.3 from 2. September 2016

Отчёт EAC об извлечении, выполненном 19. января 2018, 18:38

Manfred Mann’s Earth Band / Nightingales & Bombers

Дисковод: HL-DT-STDVDRAM GH24NSD0 Adapter: 1 ID: 0

Режим чтения : Достоверность
Использование точного потока : Да
Отключение кэша аудио : Да
Использование указателей C2 : Нет

Коррекция смещения при чтении : 6
Способность читать области Lead-in и Lead-out : Нет
Заполнение пропущенных сэмплов тишиной : Да
Удаление блоков с тишиной в начале и конце : Нет
При вычислениях CRC использовались нулевые сэмплы : Да
Интерфейс : Встроенный Win32-интерфейс для Win NT/2000

Выходной формат : Пользовательский кодировщик
Выбранный битрейт : 128 kBit/s
Качество : Высокий
Добавление ID3-тега : Нет
Утилита сжатия : C:\Program Files (x86)\Exact Audio Copy\Flac\flac.exe
Дополнительные параметры : -V -8 -T "Date=%year%" -T "Genre=%genre%" %source%


TOC извлечённого CD

Трек | Старт | Длительность | Начальный сектор | Конечный сектор
––––––––––––––––––––––––––––––––––-
1 | 0:00.00 | 6:27.15 | 0 | 29039
2 | 6:27.15 | 3:06.15 | 29040 | 43004
3 | 9:33.30 | 6:32.30 | 43005 | 72434
4 | 16:05.60 | 3:38.41 | 72435 | 88825
5 | 19:44.26 | 5:42.64 | 88826 | 114539
6 | 25:27.15 | 4:54.06 | 114540 | 136595
7 | 30:21.21 | 3:20.32 | 136596 | 151627
8 | 33:41.53 | 4:18.49 | 151628 | 171026
9 | 38:00.27 | 3:25.44 | 171027 | 186445
10 | 41:25.71 | 3:17.34 | 186446 | 201254


Характеристики диапазона извлечения и сообщения об ошибках

Выбранный диапазон

Имя файла C:\Users\khokh\OneDrive\Рабочий стол\Manfred Mann’s Earth Band - Nightingales & Bombers.wav

Пиковый уровень 99.4 %
Скорость извлечения 6.8 X
Качество диапазона 100.0 %
CRC теста 4FE6FA06
CRC копии 4FE6FA06
Копирование… OK

Ошибок не произошло


AccurateRip: сводка

Трек 1 : извлечено точно (доверие 15) [C2167B78] (AR v2)
Трек 2 : извлечено точно (доверие 15) [75C44A80] (AR v2)
Трек 3 : извлечено точно (доверие 15) [D15E1F90] (AR v2)
Трек 4 : извлечено точно (доверие 15) [6A60F4D3] (AR v2)
Трек 5 : извлечено точно (доверие 15) [4CB30558] (AR v2)
Трек 6 : извлечено точно (доверие 15) [DF3A4D28] (AR v2)
Трек 7 : извлечено точно (доверие 15) [D420E12D] (AR v2)
Трек 8 : извлечено точно (доверие 15) [00EDBD65] (AR v2)
Трек 9 : извлечено точно (доверие 16) [3A3E3778] (AR v2)
Трек 10 : извлечено точно (доверие 16) [784D0308] (AR v2)

Все треки извлечены точно

Конец отчёта

==== Контрольная сумма отчёта E959A87A6A8F0291052C6C2F231E4ED32B6B92B53F6EC0B3019EABEACC2C0F01 ====

foobar2000 1.3.16 / Dynamic Range Meter 1.1.1
log date: 2018-02-08 13:08:20

––––––––––––––––––––––––––––––––––––––––
Analyzed: Manfred Mann’s Earth Band / Nightingales & Bombers
––––––––––––––––––––––––––––––––––––––––

DR Peak RMS Duration Track
––––––––––––––––––––––––––––––––––––––––
DR9 -0.12 dB -12.34 dB 6:27 01-Spirits in the Night
DR8 -0.22 dB -9.46 dB 3:06 02-Countdown
DR10 -0.10 dB -12.27 dB 6:32 03-Time Is Right
DR7 -0.16 dB -9.03 dB 3:39 04-Crossfade
DR10 -0.71 dB -13.61 dB 5:43 05-Visionary Mountains
DR11 -1.15 dB -14.75 dB 4:54 06-Nightingales and Bombers
DR10 -0.79 dB -14.23 dB 3:20 07-Fat Nelly
DR13 -1.11 dB -18.04 dB 4:19 08-As Above So Below (recorded live)
DR10 -0.71 dB -13.19 dB 3:26 09-Quit Your Low Down Ways
DR10 -0.05 dB -13.22 dB 3:17 10-Spirits in the Night (single version)
––––––––––––––––––––––––––––––––––––––––

Number of tracks: 10
Official DR value: DR10

Samplerate: 44100 Hz
Channels: 2
Bits per sample: 16
Bitrate: 907 kbps
Codec: FLAC
================================================================================

[CUETools log; Date: 08.02.2018 12:56:55; Version: 2.1.5]
[CTDB TOCID: Y.VKG3OikvD9cIh.npXD4D59AiU-] found.
Track | CTDB Status
1 | (113/113) Accurately ripped
2 | (113/113) Accurately ripped
3 | (113/113) Accurately ripped
4 | (113/113) Accurately ripped
5 | (113/113) Accurately ripped
6 | (113/113) Accurately ripped
7 | (113/113) Accurately ripped
8 | (113/113) Accurately ripped
9 | (113/113) Accurately ripped
10 | (113/113) Accurately ripped
[AccurateRip ID: 00123b2e-008f5ade-960a7b0a] found.
Track [ CRC | V2 ] Status
01 [c1a3dbca|c2167b78] (007+015/124) Accurately ripped
02 [191db172|75c44a80] (007+015/121) Accurately ripped
03 [3a5189a8|d15e1f90] (007+015/120) Accurately ripped
04 [f5796efb|6a60f4d3] (007+015/122) Accurately ripped
05 [18003ce5|4cb30558] (007+015/122) Accurately ripped
06 [370cbb27|df3a4d28] (007+015/121) Accurately ripped
07 [d74a40f7|d420e12d] (007+015/120) Accurately ripped
08 [f028e4a3|00edbd65] (007+015/119) Accurately ripped
09 [896e56b4|3a3e3778] (007+016/120) Accurately ripped
10 [9ebf1fe2|784d0308] (007+016/119) Accurately ripped
Offsetted by -1286:
01 [80563b74] (007/124) Accurately ripped
02 [8195807e] (006/121) Accurately ripped
03 [99e5bef9] (006/120) Accurately ripped
04 [954c38bf] (006/122) Accurately ripped
05 [078dc459] (006/122) Accurately ripped
06 [e279ce91] (006/121) Accurately ripped
07 [9b7d7a58] (006/120) Accurately ripped
08 [19a51b91] (006/119) Accurately ripped
09 [39777008] (006/120) Accurately ripped
10 [ef642328] (006/119) Accurately ripped
Offsetted by 6:
01 [a07d1541] (004/124) Accurately ripped
02 [21a45aa9] (004/121) Accurately ripped
03 [be2be226] (004/120) Accurately ripped
04 [0796870c] (004/122) Accurately ripped
05 [180bcc14] (004/122) Accurately ripped
06 [8eb075d6] (004/121) Accurately ripped
07 [87f7072c] (004/120) Accurately ripped
08 [a5725367] (004/119) Accurately ripped
09 [60000360] (003/120) Accurately ripped
10 [f45e019c] (003/119) Accurately ripped
Offsetted by 36:
01 [206f0ec6] (023/124) Accurately ripped
02 [c1328832] (023/121) Accurately ripped
03 [b3a46c38] (022/120) Accurately ripped
04 [124a594a] (022/122) Accurately ripped
05 [12d6fea6] (021/122) Accurately ripped
06 [a827a01d] (023/121) Accurately ripped
07 [a20598de] (022/120) Accurately ripped
08 [ff282306] (021/119) Accurately ripped
09 [90d862bc] (022/120) Accurately ripped
10 [a0786a3e] (022/119) Accurately ripped
Offsetted by 682:
01 [c795c0a8] (009/124) Accurately ripped
02 [6eab16ab] (009/121) Accurately ripped
03 [00ebde70] (009/120) Accurately ripped
04 [f6b81f09] (009/122) Accurately ripped
05 [29b5c9bf] (009/122) Accurately ripped
06 [05164871] (009/121) Accurately ripped
07 [064aa114] (009/120) Accurately ripped
08 [51b2ce5d] (009/119) Accurately ripped
09 [241cac68] (009/120) Accurately ripped
10 [a2f55978] (009/119) Accurately ripped
Offsetted by 700:
01 [73585302] (010/124) Accurately ripped
02 [6dbcf556] (010/121) Accurately ripped
03 [b57d189d] (010/120) Accurately ripped
04 [151a727f] (010/122) Accurately ripped
05 [0acd0a67] (010/122) Accurately ripped
06 [2778c559] (010/121) Accurately ripped
07 [db75e67b] (010/120) Accurately ripped
08 [a1200786] (010/119) Accurately ripped
09 [a7d1b26c] (010/120) Accurately ripped
10 [a3d1fea6] (010/119) Accurately ripped
Offsetted by -628:
01 [a9b3e16d] (000/124) No match (V2 was not tested)
02 [db94d54d] (000/121) No match (V2 was not tested)
03 [42637b3e] (000/120) No match (V2 was not tested)
04 [f1ba1e9b] (000/122) No match (V2 was not tested)
05 [14a42f81] (000/122) No match (V2 was not tested)
06 [8cba4f4d] (000/121) No match (V2 was not tested)
07 [ff65b239] (000/120) No match (V2 was not tested)
08 [49faee2b] (000/119) No match (V2 was not tested)
09 [79df130c] (000/120) No match (V2 was not tested)
10 [9d1ed5d6] (000/119) No match (V2 was not tested)

Track Peak [ CRC32 ] [W/O NULL] [ LOG ]
– 99,4 [4FE6FA06] [1CE152B6] CRC32
01 98,6 [2F4B7B45] [5C9F90A2]
02 97,4 [65DA758C] [B21450A7]
03 98,8 [41C5608A] [39C18475]
04 98,1 [9A9D004F] [750DA3C5]
05 92,1 [C7BC9CD3] [E5F5BAAC]
06 87,6 [87962E76] [818022D7]
07 91,2 [720FB255] [91033D9B]
08 88,0 [0AD234CD] [261FFFD8]
09 92,1 [404226B2] [84301918]
10 99,4 [6C40582C] [C150C582]

Manfred Mann’s Earth Band - Nightingales & Bombers (1975) {1999, With Bonus Tracks, Remastered}

All thanks go to Angel Station

>>> Manfred Mann’s Earth Band in my Blog <<<

Download from icerbox.com: