Subcategories

Manfred Mann's Earth Band - Solar Fire (1973) {1998, With Bonus Tracks, Remastered}

Posted By: popsakov
Manfred Mann's Earth Band - Solar Fire (1973) {1998, With Bonus Tracks, Remastered}

Manfred Mann's Earth Band - Solar Fire (1973) {1998, With Bonus Tracks, Remastered}
EAC Rip | FLAC (Img) + Cue + Log ~ 327 Mb | MP3 CBR320 ~ 131 Mb
Full Scans (JPG, 300 dpi) | RAR 5% Recovery
Progressive Rock, Art Rock | Cohesion #MANN 006

Fans of muscular progressive rock will love Solar Fire, a concept album loosely designed around cosmology. The album opens with the majestic "Father of Night, Father of Day," which has the drive and complexity of a prime King Crimson track. As unlikely as it may seem, the track was controversial in Mann's native South Africa because of the "Father of black, father of white" line, implying that apartheid might not extend to infinite space. The album moves on to the progressive rock/jazz fusion of "In the Beginning, Darkness," a swinging, even funky track that benefits from soulful vocals by Doreen Chanter and Irene Chanter of the Grove Singers. The same duo contributes to the title track, a slow piece that begins with a fairly standard rock structure and incorporates a massive progressive jam in the middle. The instrumental suite which follows is a showcase for the combination of angular, sometimes slightly dissonant guitar with fluid keyboard work, and the band rocks straight through with stately grace. Once again, one is reminded of early King Crimson, which was about the only other group to turn out complex, shifting instrumentals of this quality. The album closes with the strange "Earth, the Circle, Pt. 1," which begins almost like a nursery rhyme, switches to a jazz shuffle, and fades out as an odd combination of the two. The album was groundbreaking when it was released and is still a delightful listen. If you like the hard-edged side of Manfred Mann, this may be your favorite album.
~ Richard Foss, All Music

***************

Manfred Mann's Earth Band - Solar Fire (1973) {1998, With Bonus Tracks, Remastered}

Manfred Mann's Earth Band - Solar Fire (1973) {1998, With Bonus Tracks, Remastered}

Track List:

01. Father of Day, Father of Night [0:09:55.15]
02. In the Beginning, Darkness [0:05:21.57]
03. Pluto the Dog [0:02:47.43]
04. Solar Fire [0:05:15.37]
05. Saturn, Lord of the Ring - Mercury the Winged Messenger [0:06:31.20]
06. Earth, the Circle Part 2 [0:03:22.60]
07. Earth, the Circle Part 1 [0:03:55.73]
Bonus Tracks:
08. Joybringer [0:03:24.44]
09. Father of Day, Father of Night (edited Version) [0:03:03.13]

Exact Audio Copy V0.99 prebeta 5 from 4. May 2009

Отчёт EAC об извлечении, выполненном 17. августа 2010, 17:01

Manfred Mann's Earth Band / Solar Fire (The Re-Masters)

Дисковод: Optiarc DVD RW AD-7240S Adapter: 1 ID: 0

Режим чтения : Достоверность
Использование точного потока : Да
Отключение кэша аудио : Да
Использование указателей C2 : Нет

Коррекция смещения при чтении : 48
Способность читать области Lead-in и Lead-out : Нет
Заполнение пропущенных сэмплов тишиной : Да
Удаление блоков с тишиной в начале и конце : Нет
При вычислениях CRC использовались нулевые сэмплы : Да
Интерфейс : Встроенный Win32-интерфейс для Win NT/2000

Выходной формат : Пользовательский кодировщик
Выбранный битрейт : 768 kBit/s
Качество : Высокий
Добавление ID3-тэга : Нет
Утилита сжатия : C:\Program Files\Exact Audio Copy\FLAC\FLAC.EXE
Дополнительные параметры : -6 -V -T "ARTIST=%a" -T "TITLE=%t" -T "ALBUM=%g" -T "DATE=%y" -T "TRACKNUMBER=%n" -T "GENRE=%m" -T "COMMENT=%e" %s -o %d


TOC извлечённого CD

Трек | Старт | Длительность | Начальный сектор | Конечный сектор
––––––––––––––––––––––––––––––––––-
1 | 0:00.00 | 9:55.15 | 0 | 44639
2 | 9:55.15 | 5:21.57 | 44640 | 68771
3 | 15:16.72 | 2:47.43 | 68772 | 81339
4 | 18:04.40 | 5:15.37 | 81340 | 105001
5 | 23:20.02 | 6:31.20 | 105002 | 134346
6 | 29:51.22 | 3:22.60 | 134347 | 149556
7 | 33:14.07 | 3:55.73 | 149557 | 167254
8 | 37:10.05 | 3:24.44 | 167255 | 182598
9 | 40:34.49 | 3:03.13 | 182599 | 196336


Характеристики диапазона извлечения и сообщения об ошибках

Выбранный диапазон

Имя файла E:\music\Музон\Manfred Mann\Solar Fire-1973\Manfred Mann's Earth Band - Solar Fire (The Re-Masters).wav

Пиковый уровень 98.9 %
Качество диапазона 100.0 %
CRC теста 86A2FC22
CRC копии 86A2FC22
Копирование… OK

Ошибок не произошло


AccurateRip: сводка

Трек 1 точное извлечение (доверие 23) [3D55C9CF]
Трек 2 точное извлечение (доверие 23) [1934908A]
Трек 3 точное извлечение (доверие 22) [AB034D8D]
Трек 4 точное извлечение (доверие 23) [F90232E9]
Трек 5 точное извлечение (доверие 22) [07F5C3AE]
Трек 6 точное извлечение (доверие 22) [C96320B3]
Трек 7 точное извлечение (доверие 23) [2B238287]
Трек 8 точное извлечение (доверие 23) [958E7F94]
Трек 9 точное извлечение (доверие 22) [5026DC5A]

Все треки извлечены точно

Конец отчёта

foobar2000 1.3.16 / Dynamic Range Meter 1.1.1
log date: 2018-02-12 23:03:23

––––––––––––––––––––––––––––––––––––––––
Analyzed: Manfred Mann's Earth Band / Solar Fire (The Re-Masters)
––––––––––––––––––––––––––––––––––––––––

DR Peak RMS Duration Track
––––––––––––––––––––––––––––––––––––––––
DR12 -0.09 dB -15.67 dB 9:55 01-Father of Day, Father of Night
DR12 -0.30 dB -14.95 dB 5:22 02-In the Beginning, Darkness
DR12 -0.46 dB -15.99 dB 2:48 03-Pluto the Dog
DR12 -1.42 dB -16.15 dB 5:15 04-Solar Fire
DR12 -0.18 dB -15.31 dB 6:31 05-Saturn, Lord of the Ring - Mercury the Winged Messenger
DR12 -2.60 dB -17.20 dB 3:23 06-Earth, the Circle Part 2
DR12 -1.65 dB -18.18 dB 3:56 07-Earth, the Circle Part 1
DR11 -0.52 dB -14.00 dB 3:25 08-Joybringer
DR11 -1.17 dB -16.26 dB 3:03 09-Father of Day, Father of Night (edited Version)
––––––––––––––––––––––––––––––––––––––––

Number of tracks: 9
Official DR value: DR12

Samplerate: 44100 Hz
Channels: 2
Bits per sample: 16
Bitrate: 919 kbps
Codec: FLAC
================================================================================

[CUETools log; Date: 12.02.2018 23:03:33; Version: 2.1.5]
[CTDB TOCID: piB.wgEb9.g_h734xnXUZxasECw-] found.
Track | CTDB Status
1 | (147/149) Accurately ripped
2 | (147/149) Accurately ripped
3 | (148/149) Accurately ripped
4 | (146/149) Accurately ripped
5 | (147/149) Accurately ripped
6 | (146/149) Accurately ripped
7 | (146/149) Accurately ripped
8 | (147/149) Accurately ripped
9 | (147/149) Accurately ripped
[AccurateRip ID: 00113d79-00793645-840a3909] found.
Track [ CRC | V2 ] Status
01 [3d55c9cf|da673a6b] (032+034/158) Accurately ripped
02 [1934908a|ccf67e79] (032+034/156) Accurately ripped
03 [ab034d8d|f3245400] (031+034/155) Accurately ripped
04 [f90232e9|f6a98ca2] (032+034/156) Accurately ripped
05 [07f5c3ae|a32c2465] (031+034/155) Accurately ripped
06 [c96320b3|27280b8f] (031+034/155) Accurately ripped
07 [2b238287|f39d261c] (032+034/153) Accurately ripped
08 [958e7f94|ee27fb18] (032+034/155) Accurately ripped
09 [5026dc5a|4871c7ee] (030+032/146) Accurately ripped
Offsetted by -1322:
01 [9b4e0b5f] (003/158) Accurately ripped
02 [644b7bfe] (003/156) Accurately ripped
03 [622ae713] (003/155) Accurately ripped
04 [213646c9] (003/156) Accurately ripped
05 [2269d904] (003/155) Accurately ripped
06 [7402b5e7] (003/155) Accurately ripped
07 [dc454ddd] (003/153) Accurately ripped
08 [547edea2] (003/155) Accurately ripped
09 [38919502] (003/146) Accurately ripped
Offsetted by -694:
01 [497c533f] (005/158) Accurately ripped
02 [e1bcead6] (005/156) Accurately ripped
03 [ec90ed27] (005/155) Accurately ripped
04 [61c4d909] (005/156) Accurately ripped
05 [378a9e78] (005/155) Accurately ripped
06 [ad38a53f] (005/155) Accurately ripped
07 [d08cc751] (005/153) Accurately ripped
08 [d6efa326] (004/155) Accurately ripped
09 [4a5b0332] (004/146) Accurately ripped
Offsetted by -36:
01 [d1840d6f] (009/158) Accurately ripped
02 [f98e4412] (009/156) Accurately ripped
03 [bd2b1c49] (009/155) Accurately ripped
04 [b27451a9] (009/156) Accurately ripped
05 [44b5ec8a] (009/155) Accurately ripped
06 [f080a5bb] (009/155) Accurately ripped
07 [7ef84763] (009/153) Accurately ripped
08 [a346cfa0] (009/155) Accurately ripped
09 [cb0e44ea] (009/146) Accurately ripped
Offsetted by 664:
01 [5755ce0f] (017/158) Accurately ripped
02 [b64c4bda] (016/156) Accurately ripped
03 [234184e5] (016/155) Accurately ripped
04 [801ea669] (016/156) Accurately ripped
05 [e0566046] (016/155) Accurately ripped
06 [db7b8b03] (016/155) Accurately ripped
07 [cb96371f] (015/153) Accurately ripped
08 [0a46f40c] (017/155) Accurately ripped
09 [e708e1fa] (016/146) Accurately ripped

Track Peak [ CRC32 ] [W/O NULL] [ LOG ]
– 98,9 [86A2FC22] [A9B56C77] CRC32
01 98,9 [F0574BA6] [E710995F]
02 96,5 [6754053C] [F6641B0C]
03 94,7 [6F3CD953] [BBBF4873]
04 84,8 [4C4313EA] [5AFB3A68]
05 97,9 [7B3E898F] [5659F3EF]
06 74,1 [7F577C02] [D4F5547B]
07 82,6 [0A481A24] [1D5EB408]
08 94,1 [AEBA5B28] [B21BDDB2]
09 87,3 [F7CF001E] [297BFBFE]

Manfred Mann's Earth Band - Solar Fire (1973) {1998, With Bonus Tracks, Remastered}

All thanks go to alonzo

>>> Manfred Mann in my Blog <<<

Download from icerbox.com: