Subcategories

Manfred Mann's Earth Band - 40th Anniversary Box Set [21CD Box Set] (2011) (Repost)

Posted By: gribovar
Manfred Mann's Earth Band - 40th Anniversary Box Set [21CD Box Set] (2011) (Repost)

Manfred Mann's Earth Band - 40th Anniversary Box Set [21CD Box Set] (2011)
EAC Rip | FLAC (image+.cue+log) - 5,68 GB | MP3 CBR 320 kbps (LAME 3.93) - 2,19 GB | Covers - 1,75 GB
Genre: Progressive Rock | RAR 3% Rec. | Label: Creature Music (MMEBBOX1)

To celebrate the 40th anniversary of Manfred Mann's Earth Band, Creature Music has compiled this stunning box set comprising 21 CDs, a 36-page booklet of the band's history with extensive notes for each album, a 32-page book of Manfred's own memories and anecdotes and a poster of the current band. The catalogue CDs have been remastered and repackaged in LP-style sleeves. The albums have the original UK running order and refreshed sleeves. Live In Ersingen is a brand-new live recording from 22 July this year, featuring the band's latest vocalist, Robert Hart. Leftovers is a compilation of the hit singles and rare or previously unavailable recordings.

Manfred Mann's Earth Band - 40th Anniversary Box Set [21CD Box Set] (2011) (Repost)

01. Manfred Mann's Earth Band - Manfred Mann's Earth Band (1972)
EAC Rip | FLAC (image+.cue+log) - 244 MB | MP3 CBR 320 kbps (LAME 3.93) - 98 MB | Covers - 66 MB
Genre: Progressive Rock | RAR 3% Rec. | Label: Creature Music

Tracklist:
01. California Coastline
02. Captain Bobby Scout
03. Sloth
04. Living Without You
05. Tribute
06. Please Mrs Henry
07. Jump Sturdy
08. Prayer
09. Part Tine Man
10. I'm Up And I'm Leaving

Total time: 41:52

Exact Audio Copy V1.0 beta 3 from 29. August 2011

EAC extraction logfile from 8. January 2012, 20:48

Manfred Mann's Earth Band / Manfred Mann's Earth Band

Used drive : HL-DT-STDVDRAM GSA-H60N Adapter: 2 ID: 0

Read mode : Secure
Utilize accurate stream : Yes
Defeat audio cache : Yes
Make use of C2 pointers : No

Read offset correction : 667
Overread into Lead-In and Lead-Out : No
Fill up missing offset samples with silence : Yes
Delete leading and trailing silent blocks : No
Null samples used in CRC calculations : Yes
Used interface : Native Win32 interface for Win NT & 2000

Used output format : Internal WAV Routines
Sample format : 44.100 Hz; 16 Bit; Stereo


TOC of the extracted CD

Track | Start | Length | Start sector | End sector
––––––––––––––––––––––––––––-
1 | 0:00.00 | 2:49.66 | 0 | 12740
2 | 2:49.66 | 6:57.03 | 12741 | 44018
3 | 9:46.69 | 1:27.62 | 44019 | 50605
4 | 11:14.56 | 3:38.36 | 50606 | 66991
5 | 14:53.17 | 5:34.32 | 66992 | 92073
6 | 20:27.49 | 4:36.22 | 92074 | 112795
7 | 25:03.71 | 4:51.34 | 112796 | 134654
8 | 29:55.30 | 5:44.05 | 134655 | 160459
9 | 35:39.35 | 3:06.17 | 160460 | 174426
10 | 38:45.52 | 3:06.43 | 174427 | 188419


Range status and errors

Selected range

Filename C:\Documents and Settings\Admin\Рабочий стол\Rip by ALLexxess\Manfred Mann's Earth Band\2011 40th Anniversary Box Set (21CD Box Set Creature Music)\1972 Manfred Mann's Earth Band\Manfred Mann's Earth Band - Manfred Mann's Earth

Peak level 91.2 %
Extraction speed 5.6 X
Range quality 99.9 %
Test CRC CCD54BF5
Copy CRC CCD54BF5
Copy OK

No errors occurred


AccurateRip summary

Track 1 not present in database
Track 2 not present in database
Track 3 not present in database
Track 4 not present in database
Track 5 not present in database
Track 6 not present in database
Track 7 not present in database
Track 8 not present in database
Track 9 not present in database
Track 10 not present in database

None of the tracks are present in the AccurateRip database

End of status report

==== Log checksum A19E4609639EC8353C0B7CC617B8F48FF909EAE67ABD35608082CB257CF34A86 ====

[CUETools log; Date: 24.02.2018 0:41:15; Version: 2.1.4]
[CTDB TOCID: uwe.ZWoJO8M6ixhUohs5W.wcN_U-] found.
Track | CTDB Status
1 | (33/46) Accurately ripped
2 | (33/46) Accurately ripped
3 | (46/46) Accurately ripped
4 | (33/46) Accurately ripped
5 | (46/46) Accurately ripped
6 | (46/46) Accurately ripped
7 | (33/46) Accurately ripped
8 | (33/46) Accurately ripped
9 | (46/46) Accurately ripped
10 | (46/46) Accurately ripped
[AccurateRip ID: 000fd386-007fcbaa-9009d00a] found.
Track [ CRC | V2 ] Status
01 [d32a8d4c|5b45d46c] (03+14/28) Accurately ripped
02 [449e83b3|e5c8bd89] (03+14/28) Accurately ripped
03 [44955103|8aed3f3c] (03+14/28) Accurately ripped
04 [917b56ab|5bb9ea30] (03+14/28) Accurately ripped
05 [256cbbcf|3d2b4ab4] (03+14/28) Accurately ripped
06 [381855a8|2fb04daf] (03+14/28) Accurately ripped
07 [6a556a74|e3a597ae] (03+14/28) Accurately ripped
08 [f6c52c2c|daa76fc7] (03+14/28) Accurately ripped
09 [c6e74111|7f9e6b9b] (03+14/28) Accurately ripped
10 [0c807e18|f52b7c92] (03+14/28) Accurately ripped
Offsetted by -685:
01 [6985c66c] (00/28) No match (V2 was not tested)
02 [abc6e42a] (00/28) No match (V2 was not tested)
03 [4cba2ff9] (00/28) No match (V2 was not tested)
04 [f7c2c750] (00/28) No match (V2 was not tested)
05 [e0489860] (00/28) No match (V2 was not tested)
06 [c17e5b5f] (00/28) No match (V2 was not tested)
07 [9ebdfe4b] (00/28) No match (V2 was not tested)
08 [a62557df] (00/28) No match (V2 was not tested)
09 [7aa32189] (00/28) No match (V2 was not tested)
10 [a8921a51] (00/28) No match (V2 was not tested)
Offsetted by 6:
01 [8e94438c] (00/28) No match (V2 was not tested)
02 [a6013281] (00/28) No match (V2 was not tested)
03 [0d3373af] (00/28) No match (V2 was not tested)
04 [fcf72995] (00/28) No match (V2 was not tested)
05 [438df011] (00/28) No match (V2 was not tested)
06 [ab7e36f6] (00/28) No match (V2 was not tested)
07 [816b4c02] (00/28) No match (V2 was not tested)
08 [ad7ab4f2] (00/28) No match (V2 was not tested)
09 [d268c901] (00/28) No match (V2 was not tested)
10 [f8d28eaa] (00/28) No match (V2 was not tested)

Track Peak [ CRC32 ] [W/O NULL] [ LOG ]
– 91,2 [CCD54BF5] [8581CF50] CRC32
01 90,5 [F78E4098] [EAA6457C]
02 91,1 [14D17B58] [C2DB6678]
03 62,1 [692D8CAA] [324781DC]
04 88,8 [098FFBED] [CDE66C90]
05 90,0 [A63A9A1B] [0B75D3F9]
06 91,1 [5F10E9D1] [537313A5]
07 91,1 [7CA0BF0E] [BC96BC00]
08 89,9 [FF58844E] [03AF7322]
09 91,2 [F74546C6] [32D9C1C0]
10 68,3 [57AC138B] [A6B3085D]

Manfred Mann's Earth Band - 40th Anniversary Box Set [21CD Box Set] (2011) (Repost)

02. Manfred Mann's Earth Band - Glorified Magnified (1972)
EAC Rip | FLAC (image+.cue+log) - 229 MB | MP3 CBR 320 kbps (LAME 3.93) - 90 MB | Covers - 47 MB
Genre: Progressive Rock | RAR 3% Rec. | Label: Creature Music

Tracklist:
01. Meat
02. Look Around
03. One Way Glass
04. I'm Gonna Have You All
05. Down Home
06. Our Friend George
07. Ashes to the Wind
08. Wind
09. It's All Over Now, Baby Blue
10. Glorified Magnified

Total time: 38:17

Exact Audio Copy V1.0 beta 3 from 29. August 2011

EAC extraction logfile from 8. January 2012, 21:15

Manfred Mann's Earth Band / Glorified Magnified

Used drive : HL-DT-STDVDRAM GSA-H60N Adapter: 2 ID: 0

Read mode : Secure
Utilize accurate stream : Yes
Defeat audio cache : Yes
Make use of C2 pointers : No

Read offset correction : 667
Overread into Lead-In and Lead-Out : No
Fill up missing offset samples with silence : Yes
Delete leading and trailing silent blocks : No
Null samples used in CRC calculations : Yes
Used interface : Native Win32 interface for Win NT & 2000

Used output format : Internal WAV Routines
Sample format : 44.100 Hz; 16 Bit; Stereo


TOC of the extracted CD

Track | Start | Length | Start sector | End sector
––––––––––––––––––––––––––––-
1 | 0:00.00 | 4:03.50 | 0 | 18274
2 | 4:03.50 | 5:10.39 | 18275 | 41563
3 | 9:14.14 | 4:07.62 | 41564 | 60150
4 | 13:22.01 | 5:19.18 | 60151 | 84093
5 | 18:41.19 | 3:17.26 | 84094 | 98894
6 | 21:58.45 | 3:03.04 | 98895 | 112623
7 | 25:01.49 | 2:14.48 | 112624 | 122721
8 | 27:16.22 | 1:59.09 | 122722 | 131655
9 | 29:15.31 | 4:26.48 | 131656 | 151653
10 | 33:42.04 | 4:35.20 | 151654 | 172298


Range status and errors

Selected range

Filename C:\Documents and Settings\Admin\Рабочий стол\Rip by ALLexxess\Manfred Mann's Earth Band\2011 40th Anniversary Box Set (21CD Box Set Creature Music)\1972 Glorified Magnified\Manfred Mann's Earth Band - Glorified Magnified.wav

Peak level 89.5 %
Extraction speed 5.5 X
Range quality 100.0 %
Test CRC 847B3F27
Copy CRC 847B3F27
Copy OK

No errors occurred


AccurateRip summary

Track 1 not present in database
Track 2 not present in database
Track 3 not present in database
Track 4 not present in database
Track 5 not present in database
Track 6 not present in database
Track 7 not present in database
Track 8 not present in database
Track 9 not present in database
Track 10 not present in database

None of the tracks are present in the AccurateRip database

End of status report

==== Log checksum 63314E6C9B1164422139AB315D5766B2AE2A7230C3B04E324834C20FA97ED32C ====

[CUETools log; Date: 20.02.2018 19:02:22; Version: 2.1.4]
[CTDB TOCID: MzaVJt9Mlyk8LvfONXMpscJi4rQ-] found.
Track | CTDB Status
1 | (21/39) Accurately ripped, or (18/39) differs in 5403 samples @00:00:10-00:00:28
2 | (39/39) Accurately ripped
3 | (39/39) Accurately ripped
4 | (39/39) Accurately ripped
5 | (39/39) Accurately ripped
6 | (39/39) Accurately ripped
7 | (39/39) Accurately ripped
8 | (39/39) Accurately ripped
9 | (39/39) Accurately ripped
10 | (38/39) Accurately ripped
[AccurateRip ID: 000f2a8e-0076c0a4-6d08f90a] found.
Track [ CRC | V2 ] Status
01 [2e2da0b5|1d881401] (03+12/26) Accurately ripped
02 [dd843d9f|20418e6d] (03+21/26) Accurately ripped
03 [14ed0466|f20838fa] (03+21/26) Accurately ripped
04 [66a56c07|2920d338] (03+21/26) Accurately ripped
05 [9e13563a|a217901d] (03+21/26) Accurately ripped
06 [5a8245d7|e40c571c] (03+21/26) Accurately ripped
07 [bf426c5d|9f84c586] (03+21/26) Accurately ripped
08 [15834d02|8136f29d] (03+21/26) Accurately ripped
09 [46d8659c|94855f8e] (03+21/26) Accurately ripped
10 [050f2850|b2b95466] (03+21/26) Accurately ripped
Offsetted by -655:
01 [787ce603] (00/26) No match (V2 was not tested)
02 [f2380991] (00/26) No match (V2 was not tested)
03 [f704a8cb] (00/26) No match (V2 was not tested)
04 [b2985284] (00/26) No match (V2 was not tested)
05 [493b4744] (00/26) No match (V2 was not tested)
06 [83729298] (00/26) No match (V2 was not tested)
07 [88a3fc6e] (00/26) No match (V2 was not tested)
08 [cf22e991] (00/26) No match (V2 was not tested)
09 [7dda558c] (00/26) No match (V2 was not tested)
10 [730a18a0] (00/26) No match (V2 was not tested)

Track Peak [ CRC32 ] [W/O NULL] [ LOG ]
– 89,5 [847B3F27] [A99E0176] CRC32
01 77,3 [4BF0163E] [66F95056]
02 81,5 [020C595E] [13769641]
03 83,7 [A506CCB6] [BDB285B6]
04 82,9 [6D1416B3] [90BE4A38]
05 84,0 [6FFCFD67] [DF34A3ED]
06 80,9 [5C6AAFB8] [0AEDDBAA]
07 89,5 [6BBDC2F7] [92EA9415]
08 83,7 [A0631138] [379B4EF3]
09 83,9 [2BE1082C] [C48796BA]
10 84,0 [87EEAFA7] [35D0DA86]

Manfred Mann's Earth Band - 40th Anniversary Box Set [21CD Box Set] (2011) (Repost)

03. Manfred Mann's Earth Band - Messin' (1973)
EAC Rip | FLAC (image+.cue+log) - 222 MB | MP3 CBR 320 kbps (LAME 3.93) - 97 MB | Covers - 66 MB
Genre: Progressive Rock | RAR 3% Rec. | Label: Creature Music

Tracklist:
01. Messin'
02. Buddah
03. Cloudy Eyes
04. Get Your Rocks Off
05. Sadjoy
06. Black And Blue
07. Mardi Gras Day

Total time: 41:09

Exact Audio Copy V1.0 beta 3 from 29. August 2011

EAC extraction logfile from 8. January 2012, 21:50

Manfred Mann's Earth Band / Messin'

Used drive : HL-DT-STDVDRAM GSA-H60N Adapter: 2 ID: 0

Read mode : Secure
Utilize accurate stream : Yes
Defeat audio cache : Yes
Make use of C2 pointers : No

Read offset correction : 667
Overread into Lead-In and Lead-Out : No
Fill up missing offset samples with silence : Yes
Delete leading and trailing silent blocks : No
Null samples used in CRC calculations : Yes
Used interface : Native Win32 interface for Win NT & 2000

Used output format : Internal WAV Routines
Sample format : 44.100 Hz; 16 Bit; Stereo


TOC of the extracted CD

Track | Start | Length | Start sector | End sector
––––––––––––––––––––––––––––-
1 | 0:00.00 | 9:54.32 | 0 | 44581
2 | 9:54.32 | 7:02.55 | 44582 | 76286
3 | 16:57.12 | 5:36.32 | 76287 | 101518
4 | 22:33.44 | 2:51.34 | 101519 | 114377
5 | 25:25.03 | 5:17.20 | 114378 | 138172
6 | 30:42.23 | 7:24.47 | 138173 | 171519
7 | 38:06.70 | 3:02.50 | 171520 | 185219


Range status and errors

Selected range

Filename C:\Documents and Settings\Admin\Рабочий стол\Rip by ALLexxess\Manfred Mann's Earth Band\2011 40th Anniversary Box Set (21CD Box Set Creature Music)\1973 Messin'\Manfred Mann's Earth Band - Messin'.wav

Peak level 88.8 %
Extraction speed 5.7 X
Range quality 100.0 %
Test CRC 4E5652EA
Copy CRC 4E5652EA
Copy OK

No errors occurred


AccurateRip summary

Track 1 not present in database
Track 2 not present in database
Track 3 not present in database
Track 4 not present in database
Track 5 not present in database
Track 6 not present in database
Track 7 not present in database

None of the tracks are present in the AccurateRip database

End of status report

==== Log checksum 9A0EB9323C2985551A25CBEA5264D291B69FC0012AAB889EA141AECD2F647E06 ====

[CUETools log; Date: 20.02.2018 19:56:32; Version: 2.1.4]
[CTDB TOCID: rwMtpUFxIjtLPnC_8gIQLNSd8Gk-] found.
Track | CTDB Status
1 | (29/41) Accurately ripped
2 | (29/41) Accurately ripped
3 | (29/41) Accurately ripped
4 | (29/41) Accurately ripped
5 | (29/41) Accurately ripped
6 | (29/41) Accurately ripped
7 | (29/41) Accurately ripped
[AccurateRip ID: 000cb0bf-00495b06-6309a507] found.
Track [ CRC | V2 ] Status
01 [7291b656|8701431a] (03+15/27) Accurately ripped
02 [4e8d40c6|1d5aa2b0] (03+15/27) Accurately ripped
03 [4d70023a|1311e620] (03+15/27) Accurately ripped
04 [81fd0fac|dad71e43] (03+15/27) Accurately ripped
05 [8e14dbf3|6130c8fd] (03+15/27) Accurately ripped
06 [f9983d52|80a4aa00] (03+15/27) Accurately ripped
07 [9239eb8e|7028f0de] (03+15/27) Accurately ripped
Offsetted by -685:
01 [1c96f22f] (00/27) No match (V2 was not tested)
02 [abd0a786] (00/27) No match (V2 was not tested)
03 [86b17c28] (00/27) No match (V2 was not tested)
04 [38185d99] (00/27) No match (V2 was not tested)
05 [6dce2c52] (00/27) No match (V2 was not tested)
06 [f2c69e93] (00/27) No match (V2 was not tested)
07 [76d76bdc] (00/27) No match (V2 was not tested)
Offsetted by 6:
01 [78ed9a28] (00/27) No match (V2 was not tested)
02 [e2d9a646] (00/27) No match (V2 was not tested)
03 [5ffef1d6] (00/27) No match (V2 was not tested)
04 [a3264e26] (00/27) No match (V2 was not tested)
05 [356b0f91] (00/27) No match (V2 was not tested)
06 [c1f840f4] (00/27) No match (V2 was not tested)
07 [cc1b307a] (00/27) No match (V2 was not tested)

Track Peak [ CRC32 ] [W/O NULL] [ LOG ]
– 88,8 [4E5652EA] [BD22CF8E] CRC32
01 86,7 [F8C5CE04] [F9D6B4E8]
02 87,7 [BBC57066] [D6CEF879]
03 86,8 [965CC28A] [D8395BB8]
04 88,8 [324D0008] [35D2C2A9]
05 88,6 [071DD696] [C556D50E]
06 84,8 [AC1737A9] [C31F03E1]
07 86,3 [AF12B221] [CA690218]

Manfred Mann's Earth Band - 40th Anniversary Box Set [21CD Box Set] (2011) (Repost)

04. Manfred Mann's Earth Band - Solar Fire (1973)
EAC Rip | FLAC (image+.cue+log) - 219 MB | MP3 CBR 320 kbps (LAME 3.93) - 87 MB | Covers - 65 MB
Genre: Progressive Rock | RAR 3% Rec. | Label: Creature Music

Tracklist:
01. Father Of Day, Father Of Night
02. In The Beginning, Darkness
03. Pluto The Dog
04. Solar Fire
05. Saturn, Lord Of The Ring / Mercury, The Winged Messenger
06. Earth, The Circle Part 2
07. Earth, The Circle Part 1

Total time: 37:17

Exact Audio Copy V1.0 beta 3 from 29. August 2011

EAC extraction logfile from 9. January 2012, 10:32

Manfred Mann's Earth Band / Solar Fire

Used drive : HL-DT-STDVDRAM GSA-H60N Adapter: 2 ID: 0

Read mode : Secure
Utilize accurate stream : Yes
Defeat audio cache : Yes
Make use of C2 pointers : No

Read offset correction : 667
Overread into Lead-In and Lead-Out : No
Fill up missing offset samples with silence : Yes
Delete leading and trailing silent blocks : No
Null samples used in CRC calculations : Yes
Used interface : Native Win32 interface for Win NT & 2000

Used output format : Internal WAV Routines
Sample format : 44.100 Hz; 16 Bit; Stereo


TOC of the extracted CD

Track | Start | Length | Start sector | End sector
––––––––––––––––––––––––––––-
1 | 0:00.00 | 9:54.12 | 0 | 44561
2 | 9:54.12 | 5:22.08 | 44562 | 68719
3 | 15:16.20 | 2:51.06 | 68720 | 81550
4 | 18:07.26 | 5:19.31 | 81551 | 105506
5 | 23:26.57 | 6:34.09 | 105507 | 135065
6 | 30:00.66 | 3:25.36 | 135066 | 150476
7 | 33:26.27 | 3:50.62 | 150477 | 167788


Range status and errors

Selected range

Filename C:\Documents and Settings\Admin\Рабочий стол\Rip by ALLexxess\Manfred Mann's Earth Band\2011 40th Anniversary Box Set (21CD Box Set Creature Music)\1973 Solar Fire\Manfred Mann's Earth Band - Solar Fire.wav

Peak level 76.3 %
Extraction speed 5.5 X
Range quality 100.0 %
Test CRC 00CA10FF
Copy CRC 00CA10FF
Copy OK

No errors occurred


AccurateRip summary

Track 1 not present in database
Track 2 not present in database
Track 3 not present in database
Track 4 not present in database
Track 5 not present in database
Track 6 not present in database
Track 7 not present in database

None of the tracks are present in the AccurateRip database

End of status report

==== Log checksum 309AF3698370D81429B7040250CA089E8AA7655615C256506F10E85A4ECE3D82 ====

[CUETools log; Date: 20.02.2018 19:57:19; Version: 2.1.4]
[CTDB TOCID: 3lqStyUgID0kgCitoiDoee70Ed8-] found.
Track | CTDB Status
1 | (88/98) Accurately ripped, or (10/98) differs in 456 samples @00:00:08-00:00:14
2 | (98/98) Accurately ripped
3 | (87/98) Accurately ripped, or (10/98) differs in 853 samples @02:47:59-02:47:61
4 | (98/98) Accurately ripped
5 | (98/98) Accurately ripped
6 | (98/98) Accurately ripped
7 | (97/98) Accurately ripped
[AccurateRip ID: 000b8008-004273ff-5c08bd07] found.
Track [ CRC | V2 ] Status
01 [14fcf7c8|cbf2fb53] (03+15/43) Accurately ripped
02 [99d41e76|2d8b6450] (03+15/43) Accurately ripped
03 [2fc5e93c|94e3953a] (03+15/43) Accurately ripped
04 [5965b16d|683ef225] (03+15/43) Accurately ripped
05 [97a54b55|fd251aad] (03+15/43) Accurately ripped
06 [fee86d17|95e1b555] (03+15/43) Accurately ripped
07 [156aa06b|bedd3ad0] (03+15/43) Accurately ripped
Offsetted by -685:
01 [589e96f1] (00/43) No match (V2 was not tested)
02 [501181cb] (00/43) No match (V2 was not tested)
03 [4dcb2691] (00/43) No match (V2 was not tested)
04 [ca30574d] (00/43) No match (V2 was not tested)
05 [c5ae2947] (00/43) No match (V2 was not tested)
06 [57559ef8] (00/43) No match (V2 was not tested)
07 [d5ee4611] (00/43) No match (V2 was not tested)
Offsetted by -655:
01 [5625dc3b] (00/43) No match (V2 was not tested)
02 [2a31f14d] (00/43) No match (V2 was not tested)
03 [9198983d] (00/43) No match (V2 was not tested)
04 [9e671705] (00/43) No match (V2 was not tested)
05 [10458dd1] (00/43) No match (V2 was not tested)
06 [21025b62] (00/43) No match (V2 was not tested)
07 [1a1cd44d] (00/43) No match (V2 was not tested)
Offsetted by -649:
01 [55a7507d] (00/43) No match (V2 was not tested)
02 [229ed467] (00/43) No match (V2 was not tested)
03 [38c1aef9] (00/43) No match (V2 was not tested)
04 [95a53d5d] (00/43) No match (V2 was not tested)
05 [85970853] (00/43) No match (V2 was not tested)
06 [e2f1b444] (00/43) No match (V2 was not tested)
07 [f48c8a59] (00/43) No match (V2 was not tested)

Track Peak [ CRC32 ] [W/O NULL] [ LOG ]
– 76,3 [00CA10FF] [CC1B13B4] CRC32
01 73,6 [2CC790E7] [D6709134]
02 73,5 [5EFA7D4F] [2CC28887]
03 68,3 [BEF2BB32] [524728BE]
04 73,2 [71A74147] [67823228]
05 76,3 [B85C9702] [C38652D4]
06 73,2 [07C8ABDE] [AEC02AFE]
07 60,2 [B2B92612] [DDBF62BA]

Manfred Mann's Earth Band - 40th Anniversary Box Set [21CD Box Set] (2011) (Repost)

05. Manfred Mann's Earth Band - The Good Earth (1974)
EAC Rip | FLAC (image+.cue+log) - 227 MB | MP3 CBR 320 kbps (LAME 3.93) - 89 MB | Covers - 68 MB
Genre: Progressive Rock | RAR 3% Rec. | Label: Creature Music

Tracklist:
01. Give Me The Good Earth
02. Launching Place
03. I'll Be Gone
04. Eart Hymn
05. Sky High
06. Be Not Too Hard
07. Earth Hymn Part 2

Total time: 38:08

Exact Audio Copy V1.0 beta 3 from 29. August 2011

EAC extraction logfile from 9. January 2012, 10:57

Manfred Mann's Earth Band / The Good Earth

Used drive : HL-DT-STDVDRAM GSA-H60N Adapter: 2 ID: 0

Read mode : Secure
Utilize accurate stream : Yes
Defeat audio cache : Yes
Make use of C2 pointers : No

Read offset correction : 667
Overread into Lead-In and Lead-Out : No
Fill up missing offset samples with silence : Yes
Delete leading and trailing silent blocks : No
Null samples used in CRC calculations : Yes
Used interface : Native Win32 interface for Win NT & 2000

Used output format : Internal WAV Routines
Sample format : 44.100 Hz; 16 Bit; Stereo


TOC of the extracted CD

Track | Start | Length | Start sector | End sector
––––––––––––––––––––––––––––-
1 | 0:00.00 | 8:29.36 | 0 | 38210
2 | 8:29.36 | 5:52.02 | 38211 | 64612
3 | 14:21.38 | 3:42.09 | 64613 | 81271
4 | 18:03.47 | 6:21.10 | 81272 | 109856
5 | 24:24.57 | 5:16.04 | 109857 | 133560
6 | 29:40.61 | 4:12.66 | 133561 | 152526
7 | 33:53.52 | 4:14.12 | 152527 | 171588


Range status and errors

Selected range

Filename C:\Documents and Settings\Admin\Рабочий стол\Rip by ALLexxess\Manfred Mann's Earth Band\2011 40th Anniversary Box Set (21CD Box Set Creature Music)\1974 The Good Earth\Manfred Mann's Earth Band - The Good Earth.wav

Peak level 85.0 %
Extraction speed 5.4 X
Range quality 99.9 %
Test CRC 10BEC196
Copy CRC 10BEC196
Copy OK

No errors occurred


AccurateRip summary

Track 1 not present in database
Track 2 not present in database
Track 3 not present in database
Track 4 not present in database
Track 5 not present in database
Track 6 not present in database
Track 7 not present in database

None of the tracks are present in the AccurateRip database

End of status report

==== Log checksum E6AB8D947FC5821F36E601FB90BA1EEF7BF297A771475FD68C41FE33B9E95099 ====

[CUETools log; Date: 20.02.2018 19:58:15; Version: 2.1.4]
[CTDB TOCID: BAmyinIk5VWem1FkzsG_gw70Dvo-] found.
Track | CTDB Status
1 | (44/53) Accurately ripped, or (9/53) differs in 18910 samples @00:00:10-00:00:31
2 | (44/53) Accurately ripped, or (9/53) differs in 25 samples @05:52:01-05:52:02
3 | (44/53) Accurately ripped, or (9/53) differs in 580 samples @00:00:00
4 | (53/53) Accurately ripped
5 | (53/53) Accurately ripped
6 | (44/53) Accurately ripped, or (9/53) differs in 20 samples @04:12:65-04:12:66
7 | (44/53) Accurately ripped, or (9/53) differs in 675 samples @00:00:00
[AccurateRip ID: 000b780e-0042ee62-5508ef07] found.
Track [ CRC | V2 ] Status
01 [efccc31c|21b27ef7] (03+16/30) Accurately ripped
02 [c4114e3f|2a7551fd] (03+16/30) Accurately ripped
03 [47029aee|e1f169d5] (03+16/30) Accurately ripped
04 [629faf04|c524da59] (03+21/30) Accurately ripped
05 [33e389a5|de92d9f5] (03+21/30) Accurately ripped
06 [09462d09|1642048e] (03+16/30) Accurately ripped
07 [7cb44062|1f03f660] (03+16/30) Accurately ripped
Offsetted by 6:
01 [0299c63a] (00/30) No match (V2 was not tested)
02 [ca4ed6fd] (00/30) No match (V2 was not tested)
03 [1bc7eb9a] (00/30) No match (V2 was not tested)
04 [37faa982] (00/30) No match (V2 was not tested)
05 [9151a817] (00/30) No match (V2 was not tested)
06 [95278855] (00/30) No match (V2 was not tested)
07 [1b0d698e] (00/30) No match (V2 was not tested)

Track Peak [ CRC32 ] [W/O NULL] [ LOG ]
– 85,0 [10BEC196] [EC37FA60] CRC32
01 83,7 [A404B6B0] [EA30C63D]
02 81,0 [9A130098] [034496C0]
03 84,0 [D6F34E1B] [F20E431E]
04 78,6 [C6EAFDA1] [6F74FDCD]
05 85,0 [BD84ED23] [BA19255F]
06 83,7 [F3659D2E] [3570F94B]
07 78,3 [7173DD0B] [E54333A2]

Manfred Mann's Earth Band - 40th Anniversary Box Set [21CD Box Set] (2011) (Repost)

06. Manfred Mann's Earth Band - Nightingales And Bombers (1975)
EAC Rip | FLAC (image+.cue+log) - 226 MB | MP3 CBR 320 kbps (LAME 3.93) - 89 MB | Covers - 64 MB
Genre: Progressive Rock | RAR 3% Rec. | Label: Creature Music

Tracklist:
01. Spirits In The Night
02. Countdown
03. Time Is Right
04. Crossfade
05. Visionary Mountains
06. Nightingales And Bombers
07. Fat Nelly
08. As Above So Below

Total time: 38:06

Exact Audio Copy V1.0 beta 3 from 29. August 2011

EAC extraction logfile from 9. January 2012, 11:22

Manfred Mann's Earth Band / Nightingales & Bombers

Used drive : HL-DT-STDVDRAM GSA-H60N Adapter: 2 ID: 0

Read mode : Secure
Utilize accurate stream : Yes
Defeat audio cache : Yes
Make use of C2 pointers : No

Read offset correction : 667
Overread into Lead-In and Lead-Out : No
Fill up missing offset samples with silence : Yes
Delete leading and trailing silent blocks : No
Null samples used in CRC calculations : Yes
Used interface : Native Win32 interface for Win NT & 2000

Used output format : Internal WAV Routines
Sample format : 44.100 Hz; 16 Bit; Stereo


TOC of the extracted CD

Track | Start | Length | Start sector | End sector
––––––––––––––––––––––––––––-
1 | 0:00.00 | 6:28.30 | 0 | 29129
2 | 6:28.30 | 3:07.15 | 29130 | 43169
3 | 9:35.45 | 6:34.66 | 43170 | 72785
4 | 16:10.36 | 3:41.08 | 72786 | 89368
5 | 19:51.44 | 5:43.04 | 89369 | 115097
6 | 25:34.48 | 4:56.09 | 115098 | 137306
7 | 30:30.57 | 3:21.74 | 137307 | 152455
8 | 33:52.56 | 4:13.20 | 152456 | 171450


Range status and errors

Selected range

Filename C:\Documents and Settings\Admin\Рабочий стол\Rip by ALLexxess\Manfred Mann's Earth Band\2011 40th Anniversary Box Set (21CD Box Set Creature Music)\1975 Nightingales And Bombers\Manfred Mann's Earth Band - Nightingales & Bomber

Peak level 90.1 %
Extraction speed 5.6 X
Range quality 100.0 %
Test CRC 6A9D5D1E
Copy CRC 6A9D5D1E
Copy OK

No errors occurred


AccurateRip summary

Track 1 not present in database
Track 2 not present in database
Track 3 not present in database
Track 4 not present in database
Track 5 not present in database
Track 6 not present in database
Track 7 not present in database
Track 8 not present in database

None of the tracks are present in the AccurateRip database

End of status report

==== Log checksum B42F214184D91CABFA55BBA95F47FF80727015913BE071911C3DA108B4D6F450 ====

[CUETools log; Date: 20.02.2018 19:58:59; Version: 2.1.4]
[CTDB TOCID: ppX0Vy8cbEp7IfLktlZEcO7WKG8-] found.
Track | CTDB Status
1 | (51/61) Accurately ripped, or (10/61) differs in 17048 samples @00:00:10-00:00:32
2 | (61/61) Accurately ripped
3 | (61/61) Accurately ripped
4 | (61/61) Accurately ripped
5 | (51/61) Accurately ripped, or (10/61) differs in 47 samples @05:43:03-05:43:04
6 | (51/61) Accurately ripped, or (10/61) differs in 1026 samples @00:00:00,04:56:08-04:56:16
7 | (51/61) Accurately ripped, or (10/61) differs in 124 samples @00:00:00-00:00:07
8 | (61/61) Accurately ripped
[AccurateRip ID: 000c5f0f-00517c2c-6708ee08] found.
Track [ CRC | V2 ] Status
01 [b61c77d1|36f2f8df] (03+17/29) Accurately ripped
02 [88dd0cd3|7a523594] (03+22/29) Accurately ripped
03 [9a967ddc|fd9c3f32] (03+22/29) Accurately ripped
04 [4b0d0449|88636f26] (03+22/29) Accurately ripped
05 [51499318|ae4f0f52] (03+17/29) Accurately ripped
06 [838f4df6|e2231b72] (03+17/29) Accurately ripped
07 [e465d06d|eae0badb] (03+17/29) Accurately ripped
08 [50693ddf|76217a8b] (03+22/29) Accurately ripped
Offsetted by -655:
01 [643463e5] (00/29) No match (V2 was not tested)
02 [4d28e435] (00/29) No match (V2 was not tested)
03 [51094f18] (00/29) No match (V2 was not tested)
04 [9143aaaa] (00/29) No match (V2 was not tested)
05 [be7c667f] (00/29) No match (V2 was not tested)
06 [23e8ef4a] (00/29) No match (V2 was not tested)
07 [df4fe91b] (00/29) No match (V2 was not tested)
08 [e621294f] (00/29) No match (V2 was not tested)

Track Peak [ CRC32 ] [W/O NULL] [ LOG ]
– 90,1 [6A9D5D1E] [6031A3B0] CRC32
01 90,1 [0D6C6545] [CE261C58]
02 89,8 [770ACFAA] [485BAB44]
03 90,0 [BAB6F600] [34E9EECA]
04 82,1 [27E5B3B1] [FBAFC953]
05 90,0 [BE143E10] [1D2563FB]
06 90,0 [A8F102B9] [45427FC6]
07 90,0 [4C826FA0] [8711880B]
08 89,6 [198F1BE1] [9A5750B4]

Manfred Mann's Earth Band - 40th Anniversary Box Set [21CD Box Set] (2011) (Repost)

07. Manfred Mann's Earth Band - The Roaring Silence (1976)
EAC Rip | FLAC (image+.cue+log) - 252 MB | MP3 CBR 320 kbps (LAME 3.93) - 94 MB | Covers - 68 MB
Genre: Progressive Rock | RAR 3% Rec. | Label: Creature Music

Tracklist:
01. Blinded By The Light
02. Singing The Dolphin Through
03. Waiter Theres A Yawn In My Ear
04. The Road To Babylon
05. This Side Of Paradise
06. Starbird
07. Questions

Total time: 39:55

Exact Audio Copy V1.0 beta 3 from 29. August 2011

EAC extraction logfile from 9. January 2012, 11:54

Manfred Mann's Earth Band / The Roaring Silence

Used drive : HL-DT-STDVDRAM GSA-H60N Adapter: 2 ID: 0

Read mode : Secure
Utilize accurate stream : Yes
Defeat audio cache : Yes
Make use of C2 pointers : No

Read offset correction : 667
Overread into Lead-In and Lead-Out : No
Fill up missing offset samples with silence : Yes
Delete leading and trailing silent blocks : No
Null samples used in CRC calculations : Yes
Used interface : Native Win32 interface for Win NT & 2000

Used output format : Internal WAV Routines
Sample format : 44.100 Hz; 16 Bit; Stereo


TOC of the extracted CD

Track | Start | Length | Start sector | End sector
––––––––––––––––––––––––––––-
1 | 0:00.00 | 7:07.54 | 0 | 32078
2 | 7:07.54 | 8:20.30 | 32079 | 69608
3 | 15:28.09 | 5:39.34 | 69609 | 95067
4 | 21:07.43 | 6:52.34 | 95068 | 126001
5 | 28:00.02 | 4:47.09 | 126002 | 147535
6 | 32:47.11 | 3:11.14 | 147536 | 161874
7 | 35:58.25 | 3:56.18 | 161875 | 179592


Range status and errors

Selected range

Filename C:\Documents and Settings\Admin\Рабочий стол\Rip by ALLexxess\Manfred Mann's Earth Band\2011 40th Anniversary Box Set (21CD Box Set Creature Music)\1976 The Roaring Silence\Manfred Mann's Earth Band - The Roaring Silence.wav

Peak level 84.0 %
Extraction speed 5.6 X
Range quality 100.0 %
Test CRC 5C71804D
Copy CRC 5C71804D
Copy OK

No errors occurred


AccurateRip summary

Track 1 not present in database
Track 2 not present in database
Track 3 not present in database
Track 4 not present in database
Track 5 not present in database
Track 6 not present in database
Track 7 not present in database

None of the tracks are present in the AccurateRip database

End of status report

==== Log checksum 994B1F5C4B7E633447A358C9090C22C610DAB125A05E353B595C59883065262F ====

[CUETools log; Date: 20.02.2018 19:59:45; Version: 2.1.4]
[CTDB TOCID: YGUfw9B_0aH6rVHvtTkUvwMDk2I-] found.
Track | CTDB Status
1 | (54/77) Accurately ripped, or (9/77) differs in 5678 samples @00:00:20-00:00:30, or (13/77) differs in 5693 samples @00:00:19-00:00:30
2 | (75/77) Accurately ripped
3 | (75/77) Accurately ripped
4 | (76/77) Accurately ripped
5 | (76/77) Accurately ripped
6 | (76/77) Accurately ripped
7 | (76/77) Accurately ripped
[AccurateRip ID: 000c62f2-00484d31-62095a07] found.
Track [ CRC | V2 ] Status
01 [fca6029a|fe145fc3] (03+13/41) Accurately ripped
02 [3cb77086|92a0e07f] (03+17/40) Accurately ripped
03 [ef2bf469|7e4fd0fa] (03+17/40) Accurately ripped
04 [06b4af46|2801d6c5] (03+17/40) Accurately ripped
05 [3ae60069|a11312b4] (03+17/40) Accurately ripped
06 [bf46985a|073e9c1d] (03+17/40) Accurately ripped
07 [79368f87|865fee99] (03+17/40) Accurately ripped
Offsetted by -685:
01 [f76460a6] (00/41) No match (V2 was not tested)
02 [a1e045be] (00/40) No match (V2 was not tested)
03 [f94c7b8b] (00/40) No match (V2 was not tested)
04 [6a999da3] (00/40) No match (V2 was not tested)
05 [3737b586] (00/40) No match (V2 was not tested)
06 [d746e79a] (00/40) No match (V2 was not tested)
07 [c152e253] (00/40) No match (V2 was not tested)
Offsetted by 6:
01 [b8535c0e] (00/41) No match (V2 was not tested)
02 [5b44bd17] (00/40) No match (V2 was not tested)
03 [887b3a10] (00/40) No match (V2 was not tested)
04 [df106052] (00/40) No match (V2 was not tested)
05 [3d425d11] (00/40) No match (V2 was not tested)
06 [c2f12d20] (00/40) No match (V2 was not tested)
07 [4038ad6d] (00/40) No match (V2 was not tested)

Track Peak [ CRC32 ] [W/O NULL] [ LOG ]
– 84,0 [5C71804D] [9C1FECB1] CRC32
01 79,9 [EBC5633D] [55D4C81E]
02 77,0 [E51E85B0] [B51446E4]
03 84,0 [959C6312] [B7A333DA]
04 82,3 [F723802B] [D6B9A7E5]
05 80,4 [7C3A9D0F] [3B470A36]
06 82,0 [606D7C2B] [8FCF3F0F]
07 82,8 [D25925A6] [35034C14]

Manfred Mann's Earth Band - 40th Anniversary Box Set [21CD Box Set] (2011) (Repost)

08. Manfred Mann's Earth Band - Watch (1978)
EAC Rip | FLAC (image+.cue+log) - 248 MB | MP3 CBR 320 kbps (LAME 3.93) - 92 MB | Covers - 67 MB
Genre: Progressive Rock | RAR 3% Rec. | Label: Creature Music

Tracklist:
01. Circles
02. Drowning On Dry Land / Fish Soup
03. Chicago Institute
04. California
05. Davy's On The Road Again
06. Martha's Madman
07. Mighty Quinn

Total time: 39:17

Exact Audio Copy V1.0 beta 3 from 29. August 2011

EAC extraction logfile from 9. January 2012, 12:18

Manfred Mann's Earth Band / Watch

Used drive : HL-DT-STDVDRAM GSA-H60N Adapter: 2 ID: 0

Read mode : Secure
Utilize accurate stream : Yes
Defeat audio cache : Yes
Make use of C2 pointers : No

Read offset correction : 667
Overread into Lead-In and Lead-Out : No
Fill up missing offset samples with silence : Yes
Delete leading and trailing silent blocks : No
Null samples used in CRC calculations : Yes
Used interface : Native Win32 interface for Win NT & 2000

Used output format : Internal WAV Routines
Sample format : 44.100 Hz; 16 Bit; Stereo


TOC of the extracted CD

Track | Start | Length | Start sector | End sector
––––––––––––––––––––––––––––-
1 | 0:00.00 | 4:49.51 | 0 | 21725
2 | 4:49.51 | 6:00.31 | 21726 | 48756
3 | 10:50.07 | 5:47.36 | 48757 | 74817
4 | 16:37.43 | 5:33.07 | 74818 | 99799
5 | 22:10.50 | 5:55.37 | 99800 | 126461
6 | 28:06.12 | 4:52.26 | 126462 | 148387
7 | 32:58.38 | 6:18.04 | 148388 | 176741


Range status and errors

Selected range

Filename C:\Documents and Settings\Admin\Рабочий стол\Rip by ALLexxess\Manfred Mann's Earth Band\2011 40th Anniversary Box Set (21CD Box Set Creature Music)\1978 Watch\Manfred Mann's Earth Band - Watch.wav

Peak level 91.0 %
Extraction speed 5.5 X
Range quality 99.9 %
Test CRC 6A6B38B6
Copy CRC 6A6B38B6
Copy OK

No errors occurred


AccurateRip summary

Track 1 not present in database
Track 2 not present in database
Track 3 not present in database
Track 4 not present in database
Track 5 not present in database
Track 6 not present in database
Track 7 not present in database

None of the tracks are present in the AccurateRip database

End of status report

==== Log checksum F253F2513CA4130FDC583B6E11FA74CDB15C16F6B48F6B44923197ABD36E2065 ====

[CUETools log; Date: 20.02.2018 21:07:49; Version: 2.1.4]
[CTDB TOCID: gEypdfqIRx6fg_4qD9JuVgmr3yM-] found.
Track | CTDB Status
1 | (62/62) Accurately ripped
2 | (62/62) Accurately ripped
3 | (62/62) Accurately ripped
4 | (62/62) Accurately ripped
5 | (62/62) Accurately ripped
6 | (62/62) Accurately ripped
7 | (62/62) Accurately ripped
[AccurateRip ID: 000aa175-004013fc-68093407] found.
Track [ CRC | V2 ] Status
01 [37e1434f|e6f179aa] (03+21/30) Accurately ripped
02 [d6c4e55f|e26b35ec] (03+21/30) Accurately ripped
03 [b6e8ec52|85c741e4] (03+21/30) Accurately ripped
04 [c4a3c2d9|ff9fb862] (03+21/30) Accurately ripped
05 [95cc869b|c22bdf34] (03+21/30) Accurately ripped
06 [e77c9766|bfeb5de0] (03+21/30) Accurately ripped
07 [2bba3702|db5b2c8b] (03+21/30) Accurately ripped
Offsetted by 6:
01 [25aadd70] (00/30) No match (V2 was not tested)
02 [2e5a13d5] (00/30) No match (V2 was not tested)
03 [e821eea8] (00/30) No match (V2 was not tested)
04 [ebfae4b0] (00/30) No match (V2 was not tested)
05 [517e3351] (00/30) No match (V2 was not tested)
06 [bf6d4365] (00/30) No match (V2 was not tested)
07 [6e2730c1] (00/30) No match (V2 was not tested)

Track Peak [ CRC32 ] [W/O NULL] [ LOG ]
– 91,0 [6A6B38B6] [41C7485A] CRC32
01 91,0 [8B0CF88E] [A4F9B2EC]
02 86,7 [B2524D34] [28FA8772]
03 85,6 [255B9850] [FC29638C]
04 88,7 [69D09965] [B43B01D3]
05 90,0 [F4A5D622] [3850CAA4]
06 85,3 [C58D93E6] [B55EE040]
07 86,3 [A856CE39] [37B8ED85]

Manfred Mann's Earth Band - 40th Anniversary Box Set [21CD Box Set] (2011) (Repost)

09. Manfred Mann's Earth Band - Angel Station (1979)
EAC Rip | FLAC (image+.cue+log) - 235 MB | MP3 CBR 320 kbps (LAME 3.93) - 91 MB | Covers - 67 MB
Genre: Progressive Rock | RAR 3% Rec. | Label: Creature Music

Tracklist:
01. Don't Kill It Carol
02. You Angel You
03. Hollywood Town
04. 'Belle' Of The Earth
05. Platform End
06. Angels At My Gate
07. You Are - I Am
08. Waiting For The Rain
09. Resurrection

Total time: 38:48

Exact Audio Copy V1.0 beta 3 from 29. August 2011

EAC extraction logfile from 9. January 2012, 12:42

Manfred Mann's Earth Band / Angel Station

Used drive : HL-DT-STDVDRAM GSA-H60N Adapter: 2 ID: 0

Read mode : Secure
Utilize accurate stream : Yes
Defeat audio cache : Yes
Make use of C2 pointers : No

Read offset correction : 667
Overread into Lead-In and Lead-Out : No
Fill up missing offset samples with silence : Yes
Delete leading and trailing silent blocks : No
Null samples used in CRC calculations : Yes
Used interface : Native Win32 interface for Win NT & 2000

Used output format : Internal WAV Routines
Sample format : 44.100 Hz; 16 Bit; Stereo


TOC of the extracted CD

Track | Start | Length | Start sector | End sector
––––––––––––––––––––––––––––-
1 | 0:00.00 | 6:17.35 | 0 | 28309
2 | 6:17.35 | 4:02.29 | 28310 | 46488
3 | 10:19.64 | 5:10.49 | 46489 | 69787
4 | 15:30.38 | 2:45.29 | 69788 | 82191
5 | 18:15.67 | 1:32.46 | 82192 | 89137
6 | 19:48.38 | 4:50.17 | 89138 | 110904
7 | 24:38.55 | 5:11.59 | 110905 | 134288
8 | 29:50.39 | 6:17.57 | 134289 | 162620
9 | 36:08.21 | 2:39.51 | 162621 | 174596


Range status and errors

Selected range

Filename C:\Documents and Settings\Admin\Рабочий стол\Rip by ALLexxess\Manfred Mann's Earth Band\2011 40th Anniversary Box Set (21CD Box Set Creature Music)\1979 Angel Station\Manfred Mann's Earth Band - Angel Station.wav

Peak level 91.3 %
Extraction speed 5.5 X
Range quality 100.0 %
Test CRC EDBEA0CF
Copy CRC EDBEA0CF
Copy OK

No errors occurred


AccurateRip summary

Track 1 not present in database
Track 2 not present in database
Track 3 not present in database
Track 4 not present in database
Track 5 not present in database
Track 6 not present in database
Track 7 not present in database
Track 8 not present in database
Track 9 not present in database

None of the tracks are present in the AccurateRip database

End of status report

==== Log checksum 38291AF99E84B6F850DD5267B58EBBB7B8280E552076BD07A79CCA6E04A571AC ====

[CUETools log; Date: 20.02.2018 22:16:22; Version: 2.1.4]
[CTDB TOCID: ZvV5VuXI.UTL_h3PUDGLUUGSmI8-] found.
Track | CTDB Status
1 | (52/52) Accurately ripped
2 | (52/52) Accurately ripped
3 | (52/52) Accurately ripped
4 | (52/52) Accurately ripped
5 | (52/52) Accurately ripped
6 | (52/52) Accurately ripped
7 | (52/52) Accurately ripped
8 | (52/52) Accurately ripped
9 | (52/52) Accurately ripped
[AccurateRip ID: 000db519-0062e552-72091709] found.
Track [ CRC | V2 ] Status
01 [32ef63de|5bdffd22] (03+21/26) Accurately ripped
02 [59a09a11|124f0321] (03+21/26) Accurately ripped
03 [12471400|41ec3a09] (03+21/26) Accurately ripped
04 [a5bae2ff|ccf6d196] (03+21/26) Accurately ripped
05 [b53a37ed|87d0c67a] (03+21/26) Accurately ripped
06 [9a1d03a7|41934931] (03+21/26) Accurately ripped
07 [abaf2f23|731959ec] (03+21/26) Accurately ripped
08 [8aae460a|0b53a783] (03+21/26) Accurately ripped
09 [8eca82e8|2f300668] (03+21/26) Accurately ripped
Offsetted by 6:
01 [025665c8] (00/26) No match (V2 was not tested)
02 [74897355] (00/26) No match (V2 was not tested)
03 [39136811] (00/26) No match (V2 was not tested)
04 [3f3d65d8] (00/26) No match (V2 was not tested)
05 [a35b16d7] (00/26) No match (V2 was not tested)
06 [3eb2aa6a] (00/26) No match (V2 was not tested)
07 [46381cc7] (00/26) No match (V2 was not tested)
08 [5ad8d562] (00/26) No match (V2 was not tested)
09 [a67e081c] (00/26) No match (V2 was not tested)

Track Peak [ CRC32 ] [W/O NULL] [ LOG ]
– 91,3 [EDBEA0CF] [41A45620] CRC32
01 91,3 [8F70562D] [632493E5]
02 86,7 [D280E380] [0FEFA861]
03 91,3 [F4662AFC] [4C42A037]
04 91,3 [F484E21F] [ED05EBBB]
05 91,3 [3FD89CE5] [2A3805A8]
06 91,3 [1D439637] [963FB57E]
07 91,3 [64314DDC] [AB647CF7]
08 91,3 [E013895A] [FA68764A]
09 88,0 [62629A4D] [2B076DA8]

Manfred Mann's Earth Band - 40th Anniversary Box Set [21CD Box Set] (2011) (Repost)

10. Manfred Mann's Earth Band - Chance (1980)
EAC Rip | FLAC (image+.cue+log) - 239 MB | MP3 CBR 320 kbps (LAME 3.93) - 93 MB | Covers - 62 MB
Genre: Progressive Rock | RAR 3% Rec. | Label: Creature Music

Tracklist:
01. Lies (Through The 80's)
02. On The Run
03. For You
04. Adolescent Dream
05. Fritz The Blank
06. Stranded
07. Hello, I Am Your Heart
08. No Guarantee
09. Heart On The Street

Total time: 39:44

Exact Audio Copy V1.0 beta 3 from 29. August 2011

EAC extraction logfile from 9. January 2012, 17:55

Manfred Mann's Earth Band / Chance

Used drive : HL-DT-STDVDRAM GSA-H60N Adapter: 2 ID: 0

Read mode : Secure
Utilize accurate stream : Yes
Defeat audio cache : Yes
Make use of C2 pointers : No

Read offset correction : 667
Overread into Lead-In and Lead-Out : No
Fill up missing offset samples with silence : Yes
Delete leading and trailing silent blocks : No
Null samples used in CRC calculations : Yes
Used interface : Native Win32 interface for Win NT & 2000

Used output format : Internal WAV Routines
Sample format : 44.100 Hz; 16 Bit; Stereo


TOC of the extracted CD

Track | Start | Length | Start sector | End sector
––––––––––––––––––––––––––––-
1 | 0:00.00 | 4:37.12 | 0 | 20786
2 | 4:37.12 | 3:51.32 | 20787 | 38143
3 | 8:28.44 | 5:43.06 | 38144 | 63874
4 | 14:11.50 | 2:46.57 | 63875 | 76381
5 | 16:58.32 | 2:51.55 | 76382 | 89261
6 | 19:50.12 | 5:50.73 | 89262 | 115584
7 | 25:41.10 | 5:20.43 | 115585 | 139627
8 | 31:01.53 | 3:50.21 | 139628 | 156898
9 | 34:51.74 | 4:52.09 | 156899 | 178807


Range status and errors

Selected range

Filename C:\Documents and Settings\Admin\Рабочий стол\Rip by ALLexxess\Manfred Mann's Earth Band\2011 40th Anniversary Box Set (21CD Box Set Creature Music)\1980 Chance\Manfred Mann's Earth Band - Chance.wav

Peak level 91.2 %
Extraction speed 5.5 X
Range quality 99.9 %
Test CRC C9F27138
Copy CRC C9F27138
Copy OK

No errors occurred


AccurateRip summary

Track 1 not present in database
Track 2 not present in database
Track 3 not present in database
Track 4 not present in database
Track 5 not present in database
Track 6 not present in database
Track 7 not present in database
Track 8 not present in database
Track 9 not present in database

None of the tracks are present in the AccurateRip database

End of status report

==== Log checksum EFDEB87B856B5FAA48C90C64EC87E1CE46B560B56C03287985FEDB15F5305B66 ====

[CUETools log; Date: 20.02.2018 22:19:14; Version: 2.1.4]
[CTDB TOCID: XSBHK.F69HTRG8TVjgu0EWN2YPI-] found.
Track | CTDB Status
1 | (40/41) Accurately ripped
2 | (41/41) Accurately ripped
3 | (41/41) Accurately ripped
4 | (41/41) Accurately ripped
5 | (41/41) Accurately ripped
6 | (41/41) Accurately ripped
7 | (41/41) Accurately ripped
8 | (41/41) Accurately ripped
9 | (41/41) Accurately ripped
[AccurateRip ID: 000d6b0a-00627fef-67095009] found.
Track [ CRC | V2 ] Status
01 [7616a6ab|7d7a375f] (03+20/26) Accurately ripped
02 [4dbd7991|5ed752ca] (03+20/26) Accurately ripped
03 [fff2a319|ab130cb2] (03+20/26) Accurately ripped
04 [3543462a|059a6b70] (03+20/26) Accurately ripped
05 [cdc455cb|bb2d895d] (03+20/26) Accurately ripped
06 [4bdf5393|7db8433e] (03+20/26) Accurately ripped
07 [beddeb91|b4a5616e] (03+20/26) Accurately ripped
08 [72c1af1f|3e127cbe] (03+20/26) Accurately ripped
09 [bba2b841|0791a7eb] (03+20/26) Accurately ripped
Offsetted by -655:
01 [9644e184] (00/26) No match (V2 was not tested)
02 [3101dd32] (00/26) No match (V2 was not tested)
03 [e445e42b] (00/26) No match (V2 was not tested)
04 [740094a1] (00/26) No match (V2 was not tested)
05 [34b74255] (00/26) No match (V2 was not tested)
06 [a2d257fa] (00/26) No match (V2 was not tested)
07 [3c81058f] (00/26) No match (V2 was not tested)
08 [1f8d5e6b] (00/26) No match (V2 was not tested)
09 [780b85cf] (00/26) No match (V2 was not tested)

Track Peak [ CRC32 ] [W/O NULL] [ LOG ]
– 91,2 [C9F27138] [49B2E568] CRC32
01 91,2 [C9AC228D] [F8E2BD08]
02 91,1 [2E068A18] [EFAECDF5]
03 85,1 [CF6A82F4] [89099BBA]
04 91,1 [F06EF777] [61FDD1A9]
05 86,0 [A92FCA39] [B7128D13]
06 91,1 [13E478E5] [BDE2CFEB]
07 90,7 [3E2BF972] [6D45B11E]
08 83,1 [B87BCDCF] [30107FBC]
09 91,1 [BF7BD996] [0073D04D]

Manfred Mann's Earth Band - 40th Anniversary Box Set [21CD Box Set] (2011) (Repost)

11. Manfred Mann's Earth Band - Somewhere In Afrika (1982)
EAC Rip | FLAC (image+.cue+log) - 240 MB | MP3 CBR 320 kbps (LAME 3.93) - 88 MB | Covers - 65 MB
Genre: Progressive Rock | RAR 3% Rec. | Label: Creature Music

Tracklist:
01. Tribal Statistics
02. Eyes Of Nostradamus
03. Third World Service
04. Demolition Man
05. Brothers And Sisters Of Azania
06. Africa Suite: A. Brothers And Sisters Of Africa
07. Africa Suite: B. To Bantustan
08. Africa Suite: C. Koze Kobenini
09. Africa Suite: D. Lalela
10. Redemption Song (No Kwazulu)
11. Somewhere In Africa

Total time: 37:41

Exact Audio Copy V1.0 beta 3 from 29. August 2011

EAC extraction logfile from 9. January 2012, 18:31

Manfred Mann's Earth Band / Somewhere In Afrika

Used drive : HL-DT-STDVDRAM GSA-H60N Adapter: 2 ID: 0

Read mode : Secure
Utilize accurate stream : Yes
Defeat audio cache : Yes
Make use of C2 pointers : No

Read offset correction : 667
Overread into Lead-In and Lead-Out : No
Fill up missing offset samples with silence : Yes
Delete leading and trailing silent blocks : No
Null samples used in CRC calculations : Yes
Used interface : Native Win32 interface for Win NT & 2000

Used output format : Internal WAV Routines
Sample format : 44.100 Hz; 16 Bit; Stereo


TOC of the extracted CD

Track | Start | Length | Start sector | End sector
––––––––––––––––––––––––––––-
1 | 0:00.00 | 4:16.16 | 0 | 19215
2 | 4:16.16 | 3:29.73 | 19216 | 34963
3 | 7:46.14 | 5:20.42 | 34964 | 59005
4 | 13:06.56 | 3:45.37 | 59006 | 75917
5 | 16:52.18 | 2:50.20 | 75918 | 88687
6 | 19:42.38 | 3:07.43 | 88688 | 102755
7 | 22:50.06 | 2:36.62 | 102756 | 114517
8 | 25:26.68 | 1:24.68 | 114518 | 120885
9 | 26:51.61 | 1:34.00 | 120886 | 127935
10 | 28:25.61 | 7:36.53 | 127936 | 162188
11 | 36:02.39 | 1:38.15 | 162189 | 169553


Range status and errors

Selected range

Filename C:\Documents and Settings\Admin\Рабочий стол\Rip by ALLexxess\Manfred Mann's Earth Band\2011 40th Anniversary Box Set (21CD Box Set Creature Music)\1982 Somewhere In Afrika\Manfred Mann's Earth Band - Somewhere In Afrika.wav

Peak level 90.1 %
Extraction speed 5.5 X
Range quality 100.0 %
Test CRC F03567B1
Copy CRC F03567B1
Copy OK

No errors occurred


AccurateRip summary

Track 1 not present in database
Track 2 not present in database
Track 3 not present in database
Track 4 not present in database
Track 5 not present in database
Track 6 not present in database
Track 7 not present in database
Track 8 not present in database
Track 9 not present in database
Track 10 not present in database
Track 11 not present in database

None of the tracks are present in the AccurateRip database

End of status report

==== Log checksum 4F346D78192EDAB14AAD2BF3B307F7655DD7F5C025F1DBE2347C92234C0E5A88 ====

[CUETools log; Date: 20.02.2018 22:19:59; Version: 2.1.4]
[CTDB TOCID: 03ouoITBLbeLa9N54X0LZ5BZwsQ-] found.
Track | CTDB Status
1 | (37/38) Accurately ripped
2 | (37/38) Accurately ripped
3 | (38/38) Accurately ripped
4 | (38/38) Accurately ripped
5 | (38/38) Accurately ripped
6 | (38/38) Accurately ripped
7 | (38/38) Accurately ripped
8 | (38/38) Accurately ripped
9 | (38/38) Accurately ripped
10 | (38/38) Accurately ripped
11 | (38/38) Accurately ripped
[AccurateRip ID: 001069af-008b0bf4-9208d40b] found.
Track [ CRC | V2 ] Status
01 [8fe557a0|cb52aca4] (03+21/24) Accurately ripped
02 [2e4e2df7|07d0b97d] (03+21/24) Accurately ripped
03 [e7e55794|f86290cd] (03+21/24) Accurately ripped
04 [251b6392|cab335bd] (03+21/24) Accurately ripped
05 [ac7a2286|6b761445] (03+21/24) Accurately ripped
06 [a022c207|cd31099d] (03+21/24) Accurately ripped
07 [70b458af|16c29fa1] (03+21/24) Accurately ripped
08 [6157abd8|0aecca33] (03+21/24) Accurately ripped
09 [5aa6bf94|45a75916] (03+21/24) Accurately ripped
10 [eb5e9e8f|afed626a] (03+21/24) Accurately ripped
11 [6ea5056a|7e422676] (03+21/24) Accurately ripped

Track Peak [ CRC32 ] [W/O NULL] [ LOG ]
– 90,1 [F03567B1] [55EEF05C] CRC32
01 90,1 [DCABA0F4] [0856679A]
02 90,1 [C3F73085] [E3B77A5B]
03 90,1 [84BB48D4] [31E73E93]
04 90,1 [9AE2FB70] [493C251E]
05 76,4 [87C4B500] [DFC837FA]
06 81,5 [560FDDBE] [93EDA226]
07 90,1 [75DD2955] [B7EA3613]
08 79,5 [7601E235] [304FE788]
09 90,1 [6FD7C941] [AA6813F1]
10 90,1 [C0937BB9] [4CBFEC38]
11 85,6 [1591808B] [90D57B20]

Manfred Mann's Earth Band - 40th Anniversary Box Set [21CD Box Set] (2011) (Repost)

12. Manfred Mann's Earth Band - Live In Budapest (1984)
EAC Rip | FLAC (image+.cue+log) - 275 MB | MP3 CBR 320 kbps (LAME 3.93) - 98 MB | Covers - 66 MB
Genre: Progressive Rock | RAR 3% Rec. | Label: Creature Music

Tracklist:
01. Spirits In The Night
02. Demolition Man
03. For You
04. Davy's On The Road Again
05. Lies (Through The 80's)
06. Blinded By The Light
07. Redemption Song (No Kwazulu)
08. Mighty Quinn

Total time: 41:58

Exact Audio Copy V1.0 beta 3 from 29. August 2011

EAC extraction logfile from 9. January 2012, 19:10

Manfred Mann's Earth Band / Live In Budapest

Used drive : HL-DT-STDVDRAM GSA-H60N Adapter: 2 ID: 0

Read mode : Secure
Utilize accurate stream : Yes
Defeat audio cache : Yes
Make use of C2 pointers : No

Read offset correction : 667
Overread into Lead-In and Lead-Out : No
Fill up missing offset samples with silence : Yes
Delete leading and trailing silent blocks : No
Null samples used in CRC calculations : Yes
Used interface : Native Win32 interface for Win NT & 2000

Used output format : Internal WAV Routines
Sample format : 44.100 Hz; 16 Bit; Stereo


TOC of the extracted CD

Track | Start | Length | Start sector | End sector
––––––––––––––––––––––––––––-
1 | 0:00.00 | 6:04.38 | 0 | 27337
2 | 6:04.38 | 4:26.69 | 27338 | 47356
3 | 10:31.32 | 6:49.35 | 47357 | 78066
4 | 17:20.67 | 4:40.27 | 78067 | 99093
5 | 22:01.19 | 4:35.71 | 99094 | 119789
6 | 26:37.15 | 7:46.51 | 119790 | 154790
7 | 34:23.66 | 3:24.28 | 154791 | 170118
8 | 37:48.19 | 4:09.51 | 170119 | 188844


Range status and errors

Selected range

Filename C:\Documents and Settings\Admin\Рабочий стол\Rip by ALLexxess\Manfred Mann's Earth Band\2011 40th Anniversary Box Set (21CD Box Set Creature Music)\1984 Live In Budapest\Manfred Mann's Earth Band - Live In Budapest.wav

Peak level 91.2 %
Extraction speed 5.7 X
Range quality 100.0 %
Test CRC 11113686
Copy CRC 11113686
Copy OK

No errors occurred


AccurateRip summary

Track 1 not present in database
Track 2 not present in database
Track 3 not present in database
Track 4 not present in database
Track 5 not present in database
Track 6 not present in database
Track 7 not present in database
Track 8 not present in database

None of the tracks are present in the AccurateRip database

End of status report

==== Log checksum B98F9EB72F467C4A4B8B53628A07745BDBD473BE7E6D77F2FCF215086C80C087 ====

[CUETools log; Date: 20.02.2018 22:22:16; Version: 2.1.4]
[CTDB TOCID: iUGt1uqdTs5XvEXhpk58b6cOBco-] found.
Track | CTDB Status
1 | (40/40) Accurately ripped
2 | (40/40) Accurately ripped
3 | (40/40) Accurately ripped
4 | (40/40) Accurately ripped
5 | (40/40) Accurately ripped
6 | (40/40) Accurately ripped
7 | (40/40) Accurately ripped
8 | (40/40) Accurately ripped
[AccurateRip ID: 000d8299-00598738-5d09d508] found.
Track [ CRC | V2 ] Status
01 [8d702d67|dbf769bd] (03+21/26) Accurately ripped
02 [fdc1af03|ff43c6e5] (03+21/26) Accurately ripped
03 [c5bcc628|03a35865] (03+21/26) Accurately ripped
04 [f04e0fa0|d03a8c39] (03+21/26) Accurately ripped
05 [d333460b|85118702] (03+21/26) Accurately ripped
06 [f7e1c230|f0b4184a] (03+21/26) Accurately ripped
07 [e3ae588d|1d3aa06c] (03+21/26) Accurately ripped
08 [1a5bd7f2|36812aa5] (03+21/26) Accurately ripped
Offsetted by 6:
01 [e8e76381] (00/26) No match (V2 was not tested)
02 [a5899bf0] (00/26) No match (V2 was not tested)
03 [aefefa3b] (00/26) No match (V2 was not tested)
04 [8186e877] (00/26) No match (V2 was not tested)
05 [5128a66b] (00/26) No match (V2 was not tested)
06 [3bfb6985] (00/26) No match (V2 was not tested)
07 [1ca26d7b] (00/26) No match (V2 was not tested)
08 [fac39875] (00/26) No match (V2 was not tested)

Track Peak [ CRC32 ] [W/O NULL] [ LOG ]
– 91,2 [11113686] [8C6C760E] CRC32
01 91,2 [7EABBF9D] [ADEBBFDB]
02 91,2 [E6BCADF2] [DF3CF221]
03 91,2 [F63ADC25] [706B851C]
04 91,2 [7FC68AE2] [6C3159ED]
05 91,2 [BCC3366A] [372F53B2]
06 91,2 [502352D5] [95B0CDDD]
07 84,6 [07374F82] [DB9ABF48]
08 91,2 [CBD33782] [5A19EDAB]

Manfred Mann's Earth Band - 40th Anniversary Box Set [21CD Box Set] (2011) (Repost)

13. Manfred Mann's Earth Band - Criminal Tango (1986)
EAC Rip | FLAC (image+.cue+log) - 242 MB | MP3 CBR 320 kbps (LAME 3.93) - 88 MB | Covers - 68 MB
Genre: Progressive Rock | RAR 3% Rec. | Label: Creature Music

Tracklist:
01. Going Underground
02. Who Are The Mystery Kids
03. Banquet
04. Killer On The Loose
05. Do Anything You Wanna Do
06. Rescue
07. You Got Me Right Through The Heart
08. Bulldog
09. Crossfire

Total time: 37:37

Exact Audio Copy V1.0 beta 3 from 29. August 2011

EAC extraction logfile from 9. January 2012, 19:37

Manfred Mann's Earth Band / Criminal Tango

Used drive : HL-DT-STDVDRAM GSA-H60N Adapter: 2 ID: 0

Read mode : Secure
Utilize accurate stream : Yes
Defeat audio cache : Yes
Make use of C2 pointers : No

Read offset correction : 667
Overread into Lead-In and Lead-Out : No
Fill up missing offset samples with silence : Yes
Delete leading and trailing silent blocks : No
Null samples used in CRC calculations : Yes
Used interface : Native Win32 interface for Win NT & 2000

Used output format : Internal WAV Routines
Sample format : 44.100 Hz; 16 Bit; Stereo


TOC of the extracted CD

Track | Start | Length | Start sector | End sector
––––––––––––––––––––––––––––-
1 | 0:00.00 | 5:18.47 | 0 | 23896
2 | 5:18.47 | 3:45.01 | 23897 | 40772
3 | 9:03.48 | 5:17.26 | 40773 | 64573
4 | 14:20.74 | 4:01.20 | 64574 | 82668
5 | 18:22.19 | 4:14.26 | 82669 | 101744
6 | 22:36.45 | 3:00.37 | 101745 | 115281
7 | 25:37.07 | 3:53.44 | 115282 | 132800
8 | 29:30.51 | 4:24.12 | 132801 | 152612
9 | 33:54.63 | 3:42.11 | 152613 | 169273


Range status and errors

Selected range

Filename C:\Documents and Settings\Admin\Рабочий стол\Rip by ALLexxess\Manfred Mann's Earth Band\2011 40th Anniversary Box Set (21CD Box Set Creature Music)\1986 Criminal Tango\Manfred Mann's Earth Band - Criminal Tango.wav

Peak level 88.7 %
Extraction speed 5.4 X
Range quality 99.9 %
Test CRC 862ED24F
Copy CRC 862ED24F
Copy OK

No errors occurred


AccurateRip summary

Track 1 not present in database
Track 2 not present in database
Track 3 not present in database
Track 4 not present in database
Track 5 not present in database
Track 6 not present in database
Track 7 not present in database
Track 8 not present in database
Track 9 not present in database

None of the tracks are present in the AccurateRip database

End of status report

==== Log checksum EF6289C75E22B13C69081CB7F6E790D7AA648C5B0736822DB35C277C9FB5D88F ====

[CUETools log; Date: 20.02.2018 22:23:21; Version: 2.1.4]
[CTDB TOCID: HDOYFI0XyDei1f05iY6tz6LbzNI-] found.
Track | CTDB Status
1 | (45/45) Accurately ripped
2 | (45/45) Accurately ripped
3 | (45/45) Accurately ripped
4 | (45/45) Accurately ripped
5 | (45/45) Accurately ripped
6 | (45/45) Accurately ripped
7 | (45/45) Accurately ripped
8 | (45/45) Accurately ripped
9 | (45/45) Accurately ripped
[AccurateRip ID: 000d7bac-00617898-6a08d009] found.
Track [ CRC | V2 ] Status
01 [dce7348f|281e7d29] (03+20/27) Accurately ripped
02 [1fa71920|9382cec7] (03+20/27) Accurately ripped
03 [c1a683b7|25e4f023] (03+20/27) Accurately ripped
04 [cde3419b|3a5c653d] (03+20/27) Accurately ripped
05 [464c6ba7|1e42484a] (03+20/27) Accurately ripped
06 [9cbd497c|98818a48] (03+20/27) Accurately ripped
07 [d757d91e|cc12d281] (03+20/27) Accurately ripped
08 [a5bc2199|589333ef] (03+20/27) Accurately ripped
09 [5eba3497|1fe55d4e] (03+20/27) Accurately ripped
Offsetted by 6:
01 [5795d773] (00/27) No match (V2 was not tested)
02 [191e35d0] (00/27) No match (V2 was not tested)
03 [6e9c6edd] (00/27) No match (V2 was not tested)
04 [a4bb6d22] (00/27) No match (V2 was not tested)
05 [fe37fd8b] (00/27) No match (V2 was not tested)
06 [948059ab] (00/27) No match (V2 was not tested)
07 [5cac48ff] (00/27) No match (V2 was not tested)
08 [75fb90aa] (00/27) No match (V2 was not tested)
09 [b2715905] (00/27) No match (V2 was not tested)

Track Peak [ CRC32 ] [W/O NULL] [ LOG ]
– 88,7 [862ED24F] [B12B9749] CRC32
01 83,2 [157CB999] [C7AEE9EF]
02 85,3 [CF8AC9DF] [83CD189A]
03 84,2 [67591318] [C46AA113]
04 84,9 [E9EEEC8B] [862ABD4D]
05 84,1 [A29388AF] [17457BF2]
06 84,2 [CE607AC3] [F42CEDC1]
07 88,7 [3D938C88] [9BFD879E]
08 87,7 [98158032] [6E1BD0F0]
09 83,9 [CA38D735] [0A9F702B]

Manfred Mann's Earth Band - 40th Anniversary Box Set [21CD Box Set] (2011) (Repost)

14. Manfred Mann's Earth Band - Masque (1987)
EAC Rip | FLAC (image+.cue+log) - 245 MB | MP3 CBR 320 kbps (LAME 3.93) - 92 MB | Covers - 43 MB
Genre: Progressive Rock | RAR 3% Rec. | Label: Creature Music

Tracklist:
01. Joybringer (From Jupiter)
02. Sister Billies Bounce (Including Sister Sadie & Billies Bounce)
03. What You Give Is What You Get (Start)
04. Telegram To Monica
05. Billies Orno Bounce (Including Billies Bounce)
06. A Couple Of Mates (From Mars & Jupiter)
07. Neptune (Icebringer)
08. Rivers Run Dry
09. Hymn (From Jupiter)
10. We're Going Wrong
11. Planets Schmanets
12. Geronimo's Cadillac

Total time: 39:13

Exact Audio Copy V1.0 beta 3 from 29. August 2011

EAC extraction logfile from 10. January 2012, 18:41

Manfred Mann's Earth Band / Masque

Used drive : HL-DT-STDVDRAM GSA-H60N Adapter: 2 ID: 0

Read mode : Secure
Utilize accurate stream : Yes
Defeat audio cache : Yes
Make use of C2 pointers : No

Read offset correction : 667
Overread into Lead-In and Lead-Out : No
Fill up missing offset samples with silence : Yes
Delete leading and trailing silent blocks : No
Null samples used in CRC calculations : Yes
Used interface : Native Win32 interface for Win NT & 2000

Used output format : Internal WAV Routines
Sample format : 44.100 Hz; 16 Bit; Stereo


TOC of the extracted CD

Track | Start | Length | Start sector | End sector
––––––––––––––––––––––––––––-
1 | 0:00.00 | 2:28.16 | 0 | 11115
2 | 2:28.16 | 2:16.55 | 11116 | 21370
3 | 4:44.71 | 2:36.08 | 21371 | 33078
4 | 7:21.04 | 5:39.47 | 33079 | 58550
5 | 13:00.51 | 3:14.72 | 58551 | 73172
6 | 16:15.48 | 3:20.50 | 73173 | 88222
7 | 19:36.23 | 1:08.40 | 88223 | 93362
8 | 20:44.63 | 3:04.57 | 93363 | 107219
9 | 23:49.45 | 3:58.58 | 107220 | 125127
10 | 27:48.28 | 3:59.38 | 125128 | 143090
11 | 31:47.66 | 2:41.56 | 143091 | 155221
12 | 34:29.47 | 4:43.16 | 155222 | 176462


Range status and errors

Selected range

Filename C:\Documents and Settings\Admin\Рабочий стол\Rip by ALLexxess\Manfred Mann's Earth Band\2011 40th Anniversary Box Set (21CD Box Set Creature Music)\1987 Masque\Manfred Mann's Earth Band - Masque.wav

Peak level 91.2 %
Extraction speed 5.6 X
Range quality 100.0 %
Test CRC 0832D6D1
Copy CRC 0832D6D1
Copy OK

No errors occurred


AccurateRip summary

Track 1 not present in database
Track 2 not present in database
Track 3 not present in database
Track 4 not present in database
Track 5 not present in database
Track 6 not present in database
Track 7 not present in database
Track 8 not present in database
Track 9 not present in database
Track 10 not present in database
Track 11 not present in database
Track 12 not present in database

None of the tracks are present in the AccurateRip database

End of status report

==== Log checksum 4035C70FAE0C5DC46F0F5B8DB2D176A8EEBE03F860BB7BDEF862C5F98B67C773 ====

[CUETools log; Date: 20.02.2018 22:24:14; Version: 2.1.4]
[CTDB TOCID: gpfhlvEpEbBQGpcHGiA8dhqW3i0-] found.
Track | CTDB Status
1 | (47/47) Accurately ripped
2 | (47/47) Accurately ripped
3 | (47/47) Accurately ripped
4 | (47/47) Accurately ripped
5 | (46/47) Accurately ripped
6 | (47/47) Accurately ripped
7 | (46/47) Accurately ripped
8 | (47/47) Accurately ripped
9 | (46/47) Accurately ripped
10 | (47/47) Accurately ripped
11 | (47/47) Accurately ripped
12 | (46/47) Accurately ripped
[AccurateRip ID: 00109230-009c9568-9d09300c] found.
Track [ CRC | V2 ] Status
01 [41a695b9|cbdd32f7] (03+19/27) Accurately ripped
02 [133966bf|50b58e94] (03+19/27) Accurately ripped
03 [25f29fc3|13f46e2d] (03+20/28) Accurately ripped
04 [23da89a7|959b299f] (03+19/27) Accurately ripped
05 [fe7b08df|ddb083df] (03+20/28) Accurately ripped
06 [5d42a3db|eee2851f] (03+20/28) Accurately ripped
07 [9e423737|9805d7b7] (03+20/27) Accurately ripped
08 [7537987e|f9497c11] (03+20/28) Accurately ripped
09 [bb577fec|626c3ca8] (03+20/28) Accurately ripped
10 [8b3e9ea5|975953ca] (03+20/28) Accurately ripped
11 [534a5b51|0cd6b789] (03+20/28) Accurately ripped
12 [ae9792ef|384c50b9] (03+20/28) Accurately ripped
Offsetted by 6:
01 [a6e03f01] (00/27) No match (V2 was not tested)
02 [c42d7ebf] (00/27) No match (V2 was not tested)
03 [432a5509] (00/28) No match (V2 was not tested)
04 [c5623aa3] (00/27) No match (V2 was not tested)
05 [fca56937] (00/28) No match (V2 was not tested)
06 [321719df] (00/28) No match (V2 was not tested)
07 [a9f728ff] (00/27) No match (V2 was not tested)
08 [09630122] (00/28) No match (V2 was not tested)
09 [d812105a] (00/28) No match (V2 was not tested)
10 [1593fa1f] (00/28) No match (V2 was not tested)
11 [03f1260f] (00/28) No match (V2 was not tested)
12 [3065a103] (00/28) No match (V2 was not tested)

Track Peak [ CRC32 ] [W/O NULL] [ LOG ]
– 91,2 [0832D6D1] [8DDB0F76] CRC32
01 91,2 [EDD9EB43] [5CE24E9D]
02 91,2 [3D57CD67] [5AD54595]
03 91,1 [6513B34B] [BCC40137]
04 91,2 [A0E84B39] [5647ED61]
05 83,8 [E2058294] [196B519D]
06 91,1 [2A0E2DD3] [E3312BC3]
07 68,3 [FAA9BA9E] [4794C4B8]
08 91,1 [88949F97] [FDCDD0DE]
09 91,1 [10F8E661] [4F6D325C]
10 91,1 [849D8B6B] [CDDCF838]
11 78,5 [CB0B0613] [DEBEDC84]
12 91,2 [85C292F1] [B08D10D3]

Manfred Mann's Earth Band - 40th Anniversary Box Set [21CD Box Set] (2011) (Repost)

15. Manfred Mann's Earth Band - Plains Music (1991)
EAC Rip | FLAC (image+.cue+log) - 187 MB | MP3 CBR 320 kbps (LAME 3.93) - 88 MB | Covers - 50 MB
Genre: Progressive Rock | RAR 3% Rec. | Label: Creature Music

Tracklist:
01. Kiowa
02. Medicine Song
03. Wounded Knee
04. Sikelele
05. Hunting Bow (Reprise)
06. Salmon Fishing
07. Laguna
08. Intrumedicine Song
09. Sikelele II
10. Hunting Bow

Total time: 37:19

Exact Audio Copy V1.0 beta 3 from 29. August 2011

EAC extraction logfile from 10. January 2012, 19:13

Manfred Mann's Earth Band / Plains Music

Used drive : HL-DT-STDVDRAM GSA-H60N Adapter: 2 ID: 0

Read mode : Secure
Utilize accurate stream : Yes
Defeat audio cache : Yes
Make use of C2 pointers : No

Read offset correction : 667
Overread into Lead-In and Lead-Out : No
Fill up missing offset samples with silence : Yes
Delete leading and trailing silent blocks : No
Null samples used in CRC calculations : Yes
Used interface : Native Win32 interface for Win NT & 2000

Used output format : Internal WAV Routines
Sample format : 44.100 Hz; 16 Bit; Stereo


TOC of the extracted CD

Track | Start | Length | Start sector | End sector
––––––––––––––––––––––––––––-
1 | 0:00.00 | 3:15.20 | 0 | 14644
2 | 3:15.20 | 4:14.43 | 14645 | 33737
3 | 7:29.63 | 4:51.38 | 33738 | 55600
4 | 12:21.26 | 4:56.09 | 55601 | 77809
5 | 17:17.35 | 3:42.72 | 77810 | 94531
6 | 21:00.32 | 1:33.35 | 94532 | 101541
7 | 22:33.67 | 4:03.58 | 101542 | 119824
8 | 26:37.50 | 4:07.35 | 119825 | 138384
9 | 30:45.10 | 3:57.41 | 138385 | 156200
10 | 34:42.51 | 2:36.68 | 156201 | 167968


Range status and errors

Selected range

Filename C:\Documents and Settings\Admin\Рабочий стол\Rip by ALLexxess\Manfred Mann's Earth Band\2011 40th Anniversary Box Set (21CD Box Set Creature Music)\1991 Plains Music\Manfred Mann's Earth Band - Plains Music.wav

Peak level 91.0 %
Extraction speed 5.6 X
Range quality 100.0 %
Test CRC 1EA741CB
Copy CRC 1EA741CB
Copy OK

No errors occurred


AccurateRip summary

Track 1 not present in database
Track 2 not present in database
Track 3 not present in database
Track 4 not present in database
Track 5 not present in database
Track 6 not present in database
Track 7 not present in database
Track 8 not present in database
Track 9 not present in database
Track 10 not present in database

None of the tracks are present in the AccurateRip database

End of status report

==== Log checksum B5F3851C88472D05D099C4628666DE8B925D1904F367F33D3521CE9913C072B2 ====

[CUETools log; Date: 20.02.2018 22:26:33; Version: 2.1.4]
[CTDB TOCID: gHRgdXiReLaLap8UX7MPdM9bq3Y-] found.
Track | CTDB Status
1 | (41/41) Accurately ripped
2 | (41/41) Accurately ripped
3 | (41/41) Accurately ripped
4 | (41/41) Accurately ripped
5 | (41/41) Accurately ripped
6 | (41/41) Accurately ripped
7 | (41/41) Accurately ripped
8 | (41/41) Accurately ripped
9 | (41/41) Accurately ripped
10 | (41/41) Accurately ripped
[AccurateRip ID: 000ea6f8-00747b0f-8b08bf0a] found.
Track [ CRC | V2 ] Status
01 [7b5b7968|3d31aa18] (03+20/25) Accurately ripped
02 [a57f51ce|28683c3f] (03+20/25) Accurately ripped
03 [591c5814|a464528a] (03+20/25) Accurately ripped
04 [d035c291|943d90ca] (03+20/25) Accurately ripped
05 [21559d29|5b60599d] (03+20/25) Accurately ripped
06 [ffbc9760|4c31ebad] (03+20/25) Accurately ripped
07 [ef39ccad|ac967f6d] (03+20/25) Accurately ripped
08 [79fb4865|72d8bd2d] (03+20/25) Accurately ripped
09 [26dfd068|0ee3a97e] (03+20/25) Accurately ripped
10 [9b28aa71|a4065abd] (03+20/25) Accurately ripped
Offsetted by 6:
01 [22f358a3] (00/25) No match (V2 was not tested)
02 [64df0db8] (00/25) No match (V2 was not tested)
03 [ce747329] (00/25) No match (V2 was not tested)
04 [0e115bce] (00/25) No match (V2 was not tested)
05 [3249c613] (00/25) No match (V2 was not tested)
06 [9e5e62b2] (00/25) No match (V2 was not tested)
07 [f661b999] (00/25) No match (V2 was not tested)
08 [fd99d450] (00/25) No match (V2 was not tested)
09 [60736964] (00/25) No match (V2 was not tested)
10 [2991ca48] (00/25) No match (V2 was not tested)

Track Peak [ CRC32 ] [W/O NULL] [ LOG ]
– 91,0 [1EA741CB] [6D878727] CRC32
01 81,5 [BB39AF34] [EBE3A5E9]
02 91,0 [593873C4] [8F57A204]
03 85,1 [974F93F8] [A78F3AFD]
04 78,5 [47C9C08D] [2CB0C825]
05 87,9 [A7080AFA] [96CBDD05]
06 71,6 [D2FB2789] [66249E32]
07 72,1 [F6609EF2] [694AF210]
08 75,8 [366E5A31] [F1628203]
09 85,1 [2F81166B] [C740D947]
10 73,9 [CFF51E56] [58AB59F2]

Manfred Mann's Earth Band - 40th Anniversary Box Set [21CD Box Set] (2011) (Repost)

16. Manfred Mann's Earth Band - Soft Vengeance (1996)
EAC Rip | FLAC (image+.cue+log) - 357 MB | MP3 CBR 320 kbps (LAME 3.93) - 127 MB | Covers - 50 MB
Genre: Progressive Rock | RAR 3% Rec. | Label: Creature Music

Tracklist:
01. Pleasure And Pain
02. Play With Fire
03. Nothing Ever Happens
04. Shelter From The Storm
05. Tumbling Ball
06. The Price I Pay
07. Lose The Touch
08. Adults Only
09. Wherever Love Drops
10. The Complete History Of Sexual Jealousy
11. 99 Lbs
12. Miss You
13. Nature Of The Beast
14. Wherever Love Drops (Part 2)

Total time: 54:04

Exact Audio Copy V1.0 beta 3 from 29. August 2011

EAC extraction logfile from 10. January 2012, 19:44

Manfred Mann's Earth Band / Soft Vengeance

Used drive : HL-DT-STDVDRAM GSA-H60N Adapter: 2 ID: 0

Read mode : Secure
Utilize accurate stream : Yes
Defeat audio cache : Yes
Make use of C2 pointers : No

Read offset correction : 667
Overread into Lead-In and Lead-Out : No
Fill up missing offset samples with silence : Yes
Delete leading and trailing silent blocks : No
Null samples used in CRC calculations : Yes
Used interface : Native Win32 interface for Win NT & 2000

Used output format : Internal WAV Routines
Sample format : 44.100 Hz; 16 Bit; Stereo


TOC of the extracted CD

Track | Start | Length | Start sector | End sector
––––––––––––––––––––––––––––-
1 | 0:00.00 | 5:39.17 | 0 | 25441
2 | 5:39.17 | 3:58.08 | 25442 | 43299
3 | 9:37.25 | 4:09.71 | 43300 | 62045
4 | 13:47.21 | 6:05.48 | 62046 | 89468
5 | 19:52.69 | 5:35.56 | 89469 | 114649
6 | 25:28.50 | 4:05.68 | 114650 | 133092
7 | 29:34.43 | 3:31.40 | 133093 | 148957
8 | 33:06.08 | 3:36.32 | 148958 | 165189
9 | 36:42.40 | 1:06.04 | 165190 | 170143
10 | 37:48.44 | 3:30.09 | 170144 | 185902
11 | 41:18.53 | 2:37.37 | 185903 | 197714
12 | 43:56.15 | 3:33.54 | 197715 | 213743
13 | 47:29.69 | 4:35.03 | 213744 | 234371
14 | 52:04.72 | 1:59.54 | 234372 | 243350


Range status and errors

Selected range

Filename C:\Documents and Settings\Admin\Рабочий стол\Rip by ALLexxess\Manfred Mann's Earth Band\2011 40th Anniversary Box Set (21CD Box Set Creature Music)\1996 Soft Vengeance\Manfred Mann's Earth Band - Soft Vengeance.wav

Peak level 91.2 %
Extraction speed 6.0 X
Range quality 99.9 %
Test CRC C5B42397
Copy CRC C5B42397
Copy OK

No errors occurred


AccurateRip summary

Track 1 not present in database
Track 2 not present in database
Track 3 not present in database
Track 4 not present in database
Track 5 not present in database
Track 6 not present in database
Track 7 not present in database
Track 8 not present in database
Track 9 not present in database
Track 10 not present in database
Track 11 not present in database
Track 12 not present in database
Track 13 not present in database
Track 14 not present in database

None of the tracks are present in the AccurateRip database

End of status report

==== Log checksum 9CE919254A9E704E75A48CBF2A0EC2A440842212F7375F5B3197B623B8E0D101 ====

[CUETools log; Date: 20.02.2018 22:27:20; Version: 2.1.4]
[CTDB TOCID: LDBMXGP.Ft8Y1X82ODCSl3W48_g-] found.
Track | CTDB Status
1 | (38/38) Accurately ripped
2 | (38/38) Accurately ripped
3 | (38/38) Accurately ripped
4 | (38/38) Accurately ripped
5 | (38/38) Accurately ripped
6 | (38/38) Accurately ripped
7 | (38/38) Accurately ripped
8 | (38/38) Accurately ripped
9 | (38/38) Accurately ripped
10 | (38/38) Accurately ripped
11 | (38/38) Accurately ripped
12 | (38/38) Accurately ripped
13 | (38/38) Accurately ripped
14 | (38/38) Accurately ripped
[AccurateRip ID: 001eef71-01407c49-c90cac0e] found.
Track [ CRC | V2 ] Status
01 [0cf127ef|4565dc39] (03+21/24) Accurately ripped
02 [458b13f3|fb1731fc] (03+21/24) Accurately ripped
03 [6fad2c0e|21375a94] (03+21/24) Accurately ripped
04 [d2e1f6a0|dea7d8f9] (03+21/24) Accurately ripped
05 [22cf549e|fd075d1a] (03+21/24) Accurately ripped
06 [1a27da13|5d93bb41] (03+21/24) Accurately ripped
07 [bf3497c1|bc6e742a] (03+21/24) Accurately ripped
08 [10a08e59|2d7cb565] (03+21/24) Accurately ripped
09 [75a39fd5|b80a0125] (03+21/24) Accurately ripped
10 [7817f16f|8fb57dfe] (03+21/24) Accurately ripped
11 [ea788e30|3edf65bc] (03+21/24) Accurately ripped
12 [71b90c72|346728db] (03+21/24) Accurately ripped
13 [5f43f6d4|9fa8c740] (03+21/24) Accurately ripped
14 [e317fbb5|31e0651a] (03+21/24) Accurately ripped

Track Peak [ CRC32 ] [W/O NULL] [ LOG ]
– 91,1 [C5B42397] [9A4587C1] CRC32
01 91,1 [B525F807] [0AE69D58]
02 91,1 [C6789FBA] [D02A6744]
03 86,6 [5ABDC4E6] [BF22F465]
04 91,1 [7D6B1642] [EED51F2A]
05 91,1 [1FF40DA3] [019FC38F]
06 88,9 [44AEF405] [B0A610A0]
07 91,1 [CEE67109] [B1E46450]
08 91,1 [B03CEBEE] [C05BB42C]
09 59,2 [967BD9BA] [AA277476]
10 90,6 [86406296] [DAA8916F]
11 90,6 [8757EDD6] [97A1468B]
12 91,1 [B380F354] [198C8882]
13 87,8 [AAC54BFC] [003CC52A]
14 66,2 [D9E2B170] [A1A11349]

Manfred Mann's Earth Band - 40th Anniversary Box Set [21CD Box Set] (2011) (Repost)

17. Manfred Mann's Earth Band - Mann Alive (1998)
EAC Rip | WavPack (image+.cue+log) - 655 MB | MP3 CBR 320 kbps (LAME 3.93) - 250 MB | Covers - 34 MB
Genre: Progressive Rock | RAR 3% Rec. | Label: Creature Music

CD 1 Tracklist:
01. Martha's Madman
02. Times They Are a Changin
03. You Angel You
04. Father of Day, Father of Night
05. For You
06. It's a Fine Line
07. Demolition Man
08. Nothing Ever Happens
09. She Was
10. Blinded by the Light
11. Davy's on the Road Again

Total time: 01:07:38

CD 2 Tracklist:
01. I'll Give You…
02. Shelter From The Storm
03. Redemption Song
04. The Mighty Quinn
05. Demolition Mann (Short Version)
06. Blinded By The Light (Short Version)
07. Redemption Song (Alternate Version)
08. Instrumedicine Song
09. Sikelele 1

Total time: 38:45

Exact Audio Copy V1.0 beta 3 from 29. August 2011

EAC extraction logfile from 8. September 2012, 17:24

Manfred Mann's Earth Band / Mann Alive [MMCD19] (CD1)

Used drive : Optiarc DVD RW AD-7200S Adapter: 5 ID: 1

Read mode : Secure
Utilize accurate stream : Yes
Defeat audio cache : Yes
Make use of C2 pointers : No

Read offset correction : 48
Overread into Lead-In and Lead-Out : No
Fill up missing offset samples with silence : Yes
Delete leading and trailing silent blocks : No
Null samples used in CRC calculations : Yes
Used interface : Installed external ASPI interface

Used output format : User Defined Encoder
Selected bitrate : 1024 kBit/s
Quality : High
Add ID3 tag : No
Command line compressor : D:\Program Files (x86)\Exact Audio Copy\wavpack.exe
Additional command line options : -hlmx2 %source% %dest%


TOC of the extracted CD

Track | Start | Length | Start sector | End sector
––––––––––––––––––––––––––––-
1 | 0:00.00 | 10:06.47 | 0 | 45496
2 | 10:06.47 | 6:35.02 | 45497 | 75123
3 | 16:41.49 | 4:10.10 | 75124 | 93883
4 | 20:51.59 | 10:26.06 | 93884 | 140839
5 | 31:17.65 | 3:43.68 | 140840 | 157632
6 | 35:01.58 | 1:32.31 | 157633 | 164563
7 | 36:34.14 | 7:17.14 | 164564 | 197352
8 | 43:51.28 | 4:44.37 | 197353 | 218689
9 | 48:35.65 | 3:38.31 | 218690 | 235070
10 | 52:14.21 | 8:59.71 | 235071 | 275566
11 | 61:14.17 | 6:24.18 | 275567 | 304384


Range status and errors

Selected range

Filename D:\eac\Manfred Mann's Earth Band 1\Manfred Mann's Earth Band - Mann Alive [MMCD19] (CD1).wav

Peak level 91.2 %
Extraction speed 4.1 X
Range quality 100.0 %
Test CRC A1D30ABE
Copy CRC A1D30ABE
Copy OK

No errors occurred


AccurateRip summary

Track 1 accurately ripped (confidence 3) [C3BC4D38] (AR v1)
Track 2 accurately ripped (confidence 3) [5DF380F3] (AR v1)
Track 3 accurately ripped (confidence 3) [0ACF4338] (AR v1)
Track 4 accurately ripped (confidence 3) [BEDD83EE] (AR v1)
Track 5 accurately ripped (confidence 3) [9539FBD2] (AR v1)
Track 6 accurately ripped (confidence 3) [72943119] (AR v1)
Track 7 accurately ripped (confidence 3) [A429B54E] (AR v1)
Track 8 accurately ripped (confidence 3) [6391868D] (AR v1)
Track 9 accurately ripped (confidence 3) [84730E31] (AR v1)
Track 10 accurately ripped (confidence 3) [038C2509] (AR v1)
Track 11 accurately ripped (confidence 3) [07358BB6] (AR v1)

All tracks accurately ripped

End of status report

–– CUETools DB Plugin V2.1.3

[CTDB TOCID: QUOJPOWVjCswxX.gHOWvHbkIres-] found, Submit result: QUOJPOWVjCswxX.gHOWvHbkIres- has been confirmed
[3e718505] (1/5) Differs in 376 samples @67:23:03,67:23:23,67:23:43-67:23:44,67:23:62
[fb329c1d] (4/5) Accurately ripped
You can use CUETools to repair this rip.


==== Log checksum 5D542AC448175C91F0BF0B6561B1225AEF062F2AE94912D6C9038E3F3EE17B08 ====

[CUETools log; Date: 20.02.2018 20:45:11; Version: 2.1.4]
[CTDB TOCID: QUOJPOWVjCswxX.gHOWvHbkIres-] found.
Track | CTDB Status
1 | (40/40) Accurately ripped
2 | (40/40) Accurately ripped
3 | (40/40) Accurately ripped
4 | (40/40) Accurately ripped
5 | (40/40) Accurately ripped
6 | (40/40) Accurately ripped
7 | (40/40) Accurately ripped
8 | (40/40) Accurately ripped
9 | (39/40) Accurately ripped
10 | (39/40) Accurately ripped
11 | (38/40) Accurately ripped
[AccurateRip ID: 001d1f80-00f54aba-940fda0b] found.
Track [ CRC | V2 ] Status
01 [c3bc4d38|a58a2ec9] (04+21/27) Accurately ripped
02 [5df380f3|4f5f2075] (04+21/27) Accurately ripped
03 [0acf4338|a8b436ce] (04+21/27) Accurately ripped
04 [bedd83ee|b63ccfa6] (04+21/27) Accurately ripped
05 [9539fbd2|a3080efe] (04+21/27) Accurately ripped
06 [72943119|cb669bbc] (04+21/27) Accurately ripped
07 [a429b54e|30914925] (04+21/27) Accurately ripped
08 [6391868d|1e488fe6] (04+21/27) Accurately ripped
09 [84730e31|0f33404b] (04+21/27) Accurately ripped
10 [038c2509|4da2e873] (04+22/28) Accurately ripped
11 [07358bb6|538bf9ff] (04+22/28) Accurately ripped
Offsetted by 6:
01 [2231acca] (00/27) No match (V2 was not tested)
02 [fe4ea482] (00/27) No match (V2 was not tested)
03 [0540d45d] (00/27) No match (V2 was not tested)
04 [c336d869] (00/27) No match (V2 was not tested)
05 [e65ed986] (00/27) No match (V2 was not tested)
06 [c4692c94] (00/27) No match (V2 was not tested)
07 [5238e1d7] (00/27) No match (V2 was not tested)
08 [c950420e] (00/27) No match (V2 was not tested)
09 [98dfe435] (00/27) No match (V2 was not tested)
10 [c10c6bea] (00/28) No match (V2 was not tested)
11 [86e6229b] (00/28) No match (V2 was not tested)

Track Peak [ CRC32 ] [W/O NULL] [ LOG ]
– 91,2 [A1D30ABE] [767446AD] CRC32
01 82,4 [48175057] [95635C7B]
02 91,2 [DE48EE72] [23DA83AA]
03 90,4 [F9C106AF] [5F5A7A14]
04 91,1 [7C460B8A] [793D678C]
05 91,1 [30D1A5B0] [A076A6A0]
06 69,6 [3EE89B44] [2C22D671]
07 87,7 [F556BFF4] [C4BD2D7F]
08 91,2 [7D790C17] [C455C749]
09 84,3 [EDC72888] [0C533AED]
10 89,2 [4493ADBF] [2C2FF8EA]
11 86,9 [D8ED8F89] [D5C8D076]

Exact Audio Copy V1.0 beta 3 from 29. August 2011

EAC extraction logfile from 8. September 2012, 17:55

Manfred Mann's Earth Band / Mann Alive [MMCD19] (CD2)

Used drive : Optiarc DVD RW AD-7200S Adapter: 5 ID: 1

Read mode : Secure
Utilize accurate stream : Yes
Defeat audio cache : Yes
Make use of C2 pointers : No

Read offset correction : 48
Overread into Lead-In and Lead-Out : No
Fill up missing offset samples with silence : Yes
Delete leading and trailing silent blocks : No
Null samples used in CRC calculations : Yes
Used interface : Installed external ASPI interface

Used output format : User Defined Encoder
Selected bitrate : 1024 kBit/s
Quality : High
Add ID3 tag : No
Command line compressor : D:\Program Files (x86)\Exact Audio Copy\wavpack.exe
Additional command line options : -hlmx2 %source% %dest%


TOC of the extracted CD

Track | Start | Length | Start sector | End sector
––––––––––––––––––––––––––––-
1 | 0:00.00 | 2:12.68 | 0 | 9967
2 | 2:12.68 | 6:26.72 | 9968 | 38989
3 | 8:39.65 | 3:36.47 | 38990 | 55236
4 | 12:16.37 | 6:56.17 | 55237 | 86453
5 | 19:12.54 | 3:01.58 | 86454 | 100086
6 | 22:14.37 | 4:54.53 | 100087 | 122189
7 | 27:09.15 | 3:51.37 | 122190 | 139551
8 | 31:00.52 | 4:04.39 | 139552 | 157890
9 | 35:05.16 | 3:39.32 | 157891 | 174347


Range status and errors

Selected range

Filename D:\eac\Manfred Mann's Earth Band 1\CD2\Manfred Mann's Earth Band - Mann Alive [MMCD19] (CD2).wav

Peak level 91.1 %
Extraction speed 3.5 X
Range quality 99.9 %
Test CRC E6EA95EF
Copy CRC E6EA95EF
Copy OK

No errors occurred


AccurateRip summary

Track 1 accurately ripped (confidence 3) [DA5CE717] (AR v1)
Track 2 accurately ripped (confidence 3) [4F677468] (AR v1)
Track 3 accurately ripped (confidence 3) [61253D8D] (AR v1)
Track 4 accurately ripped (confidence 3) [4A1D9C94] (AR v1)
Track 5 accurately ripped (confidence 3) [DA3CCF0B] (AR v1)
Track 6 accurately ripped (confidence 3) [1634059E] (AR v1)
Track 7 accurately ripped (confidence 3) [F30D5A1D] (AR v1)
Track 8 accurately ripped (confidence 3) [71BD0A7C] (AR v1)
Track 9 accurately ripped (confidence 3) [07DC5E57] (AR v1)

All tracks accurately ripped

End of status report

–– CUETools DB Plugin V2.1.3

[CTDB TOCID: 7eRrNeV6mt9Y_J57ivJqUlFBjQg-] found, Submit result: 7eRrNeV6mt9Y_J57ivJqUlFBjQg- has been confirmed
[bb9ef08d] (7/7) Accurately ripped


==== Log checksum 65B749CAB4BB00305C3F02C36C77C60B38541EA118DD00353B56843824E70A98 ====

[CUETools log; Date: 20.02.2018 20:45:36; Version: 2.1.4]
[CTDB TOCID: 7eRrNeV6mt9Y_J57ivJqUlFBjQg-] found.
Track | CTDB Status
1 | (42/42) Accurately ripped
2 | (42/42) Accurately ripped
3 | (42/42) Accurately ripped
4 | (42/42) Accurately ripped
5 | (42/42) Accurately ripped
6 | (42/42) Accurately ripped
7 | (42/42) Accurately ripped
8 | (42/42) Accurately ripped
9 | (42/42) Accurately ripped
[AccurateRip ID: 000d7fed-006397ac-62091409] found.
Track [ CRC | V2 ] Status
01 [da5ce717|ebdfd917] (04+23/27) Accurately ripped
02 [4f677468|8ccb96c6] (04+23/27) Accurately ripped
03 [61253d8d|ab49bfbe] (04+23/27) Accurately ripped
04 [4a1d9c94|bb99f920] (04+23/27) Accurately ripped
05 [da3ccf0b|bf89c8dd] (04+23/27) Accurately ripped
06 [1634059e|7d989596] (04+23/27) Accurately ripped
07 [f30d5a1d|d3533466] (04+23/27) Accurately ripped
08 [71bd0a7c|9169fa25] (04+23/27) Accurately ripped
09 [07dc5e57|61a3add6] (04+23/27) Accurately ripped

Track Peak [ CRC32 ] [W/O NULL] [ LOG ]
– 91,1 [E6EA95EF] [FFACA57C] CRC32
01 85,7 [09562471] [1A841153]
02 83,6 [FF4EA680] [1E20B07E]
03 72,3 [14A081CD] [8A75ACA0]
04 91,1 [D4C429A5] [9FED4CF8]
05 91,1 [B1EFE72B] [426299FD]
06 90,6 [B699877F] [06BD98E2]
07 91,1 [D5EDBFA4] [ADF16339]
08 89,8 [FED867E3] [B1F30FB7]
09 91,1 [38EA347B] [C1148387]

Manfred Mann's Earth Band - 40th Anniversary Box Set [21CD Box Set] (2011) (Repost)

18. Manfred Mann's Earth Band - 2006 (2004)
EAC Rip | FLAC (image+.cue+log) - 278 MB | MP3 CBR 320 kbps (LAME 3.93) - 113 MB | Covers - 65 MB
Genre: Progressive Rock | RAR 3% Rec. | Label: Creature Music

Tracklist:
01. Demons And Dragons (With Thomas D)
02. Two Bridges (Interlude)
03. Down In Mexico
04. Happenstance (Instrumental)
05. The History Of Sexual Jealousy
06. Black Eyes
07. Mars
08. Get Me Out Of This
09. Frog
10. Two Friends
11. Monkmann
12. Marche Slave (Instrumental Interlude)
13. Independent Woman (With Thomas D)
14. Dragons (Reprise)

Total time: 48:16

Exact Audio Copy V1.0 beta 3 from 29. August 2011

EAC extraction logfile from 11. January 2012, 20:00

Manfred Mann / 2006

Used drive : HL-DT-STDVDRAM GSA-H60N Adapter: 2 ID: 0

Read mode : Secure
Utilize accurate stream : Yes
Defeat audio cache : Yes
Make use of C2 pointers : No

Read offset correction : 667
Overread into Lead-In and Lead-Out : No
Fill up missing offset samples with silence : Yes
Delete leading and trailing silent blocks : No
Null samples used in CRC calculations : Yes
Used interface : Native Win32 interface for Win NT & 2000

Used output format : Internal WAV Routines
Sample format : 44.100 Hz; 16 Bit; Stereo


TOC of the extracted CD

Track | Start | Length | Start sector | End sector
––––––––––––––––––––––––––––-
1 | 0:00.00 | 3:29.36 | 0 | 15710
2 | 3:29.36 | 1:22.28 | 15711 | 21888
3 | 4:51.64 | 3:31.50 | 21889 | 37763
4 | 8:23.39 | 3:02.62 | 37764 | 51475
5 | 11:26.26 | 4:47.06 | 51476 | 73006
6 | 16:13.32 | 2:10.48 | 73007 | 82804
7 | 18:24.05 | 3:56.42 | 82805 | 100546
8 | 22:20.47 | 5:35.53 | 100547 | 125724
9 | 27:56.25 | 4:29.04 | 125725 | 145903
10 | 32:25.29 | 5:24.57 | 145904 | 170260
11 | 37:50.11 | 3:10.22 | 170261 | 184532
12 | 41:00.33 | 1:42.65 | 184533 | 192247
13 | 42:43.23 | 3:31.03 | 192248 | 208075
14 | 46:14.26 | 2:01.25 | 208076 | 217175


Range status and errors

Selected range

Filename C:\Documents and Settings\Admin\Рабочий стол\Rip by ALLexxess\Manfred Mann's Earth Band\2011 40th Anniversary Box Set (21CD Box Set Creature Music)\2004 2006\Manfred Mann - 2006.wav

Peak level 99.9 %
Extraction speed 5.8 X
Range quality 99.9 %
Test CRC FC2267CE
Copy CRC FC2267CE
Copy OK

No errors occurred


AccurateRip summary

Track 1 not present in database
Track 2 not present in database
Track 3 not present in database
Track 4 not present in database
Track 5 not present in database
Track 6 not present in database
Track 7 not present in database
Track 8 not present in database
Track 9 not present in database
Track 10 not present in database
Track 11 not present in database
Track 12 not present in database
Track 13 not present in database
Track 14 not present in database

None of the tracks are present in the AccurateRip database

End of status report

==== Log checksum 02D3CF040770D1A5A957C374613D01ACBA251A6E65ACB726DF9C646708907C33 ====

[CUETools log; Date: 20.02.2018 22:29:13; Version: 2.1.4]
[CTDB TOCID: hTgCtmZRxlocDaoK4V5q0p6erfY-] found.
Track | CTDB Status
1 | (34/34) Accurately ripped
2 | (34/34) Accurately ripped
3 | (33/34) Accurately ripped
4 | (34/34) Accurately ripped
5 | (34/34) Accurately ripped
6 | (34/34) Accurately ripped
7 | (34/34) Accurately ripped
8 | (34/34) Accurately ripped
9 | (34/34) Accurately ripped
10 | (34/34) Accurately ripped
11 | (34/34) Accurately ripped
12 | (34/34) Accurately ripped
13 | (34/34) Accurately ripped
14 | (34/34) Accurately ripped
[AccurateRip ID: 0018d3f2-010db44b-c90b4f0e] found.
Track [ CRC | V2 ] Status
01 [c494150e|64b70ce8] (03+20/23) Accurately ripped
02 [6493d738|da868b5d] (03+20/23) Accurately ripped
03 [bc95af29|00573c76] (03+20/23) Accurately ripped
04 [f40f556b|e76b63a9] (03+20/23) Accurately ripped
05 [025a0f79|6179b5b3] (03+20/23) Accurately ripped
06 [24576067|5454bf51] (03+20/23) Accurately ripped
07 [30d9267a|e01f65c7] (03+20/23) Accurately ripped
08 [4f5e3973|d83b0fc2] (03+20/23) Accurately ripped
09 [bce81dd0|37049aa8] (03+20/23) Accurately ripped
10 [264a9d98|8493ae8c] (03+20/23) Accurately ripped
11 [0a81e454|69c969b5] (03+20/23) Accurately ripped
12 [5bc0c0c7|cc2e561b] (03+20/23) Accurately ripped
13 [691904a2|d01a53d8] (03+20/23) Accurately ripped
14 [7c1c1f49|51af63b4] (03+20/23) Accurately ripped

Track Peak [ CRC32 ] [W/O NULL] [ LOG ]
– 99,9 [FC2267CE] [DC9708EF] CRC32
01 91,2 [7D111CFF] [C32AD070]
02 77,0 [7CBCEFA2] [44A358FE]
03 81,6 [627C047F] [DB07500A]
04 80,4 [3708A2F9] [5614741F]
05 89,7 [98DB909C] [B097AADA]
06 99,9 [3D31B7C5] [C2F0EA0A]
07 87,8 [EB55481A] [1DB004C7]
08 90,1 [90D136E5] [56003FD5]
09 67,6 [C3CD7EB5] [093B547E]
10 92,4 [0BEBF33D] [C9AA8F8E]
11 75,0 [2CBB8A93] [9D7A8E4E]
12 68,6 [E6F2008E] [5DEB98DB]
13 76,8 [C0BF3145] [B703F799]
14 87,0 [3B514C8C] [6D14A7CB]

Manfred Mann's Earth Band - 40th Anniversary Box Set [21CD Box Set] (2011) (Repost)

19. Manfred Mann's Earth Band - Leftovers (2011)
EAC Rip | FLAC (image+.cue+log) - 430 MB | MP3 CBR 320 kbps (LAME 3.93) - 171 MB | Covers - 67 MB
Genre: Progressive Rock | RAR 3% Rec. | Label: Creature Music

Tracklist:
01. Joybringer (7'' Version)
02. Big Betty
03. DownHome (Alternate Edit)
04. Our Friend George (Alternate Edit)
05. Geronimo's Cadillac (Scandi Mix)
06. Davy's On The Road Again (7'' Version)
07. Joybringer (Unreleased Version)
08. Nothing Ever Happens (Radio Mix)
09. Blinded By The Light (7'' Version)
10. Runner
11. Crossfire (Alternate Edit)
12. For You (Workhouse Acoustic Mix)
13. Sikelele (Workhouse Mix)
14. What You Give Is What You Get (Alternate Edit)
15. Demons & Dragons
16. Geronimo's Cadillac (Unreleased Version)
17. Hillbrow

Total time: 01:12:51

Exact Audio Copy V1.0 beta 3 from 29. August 2011

EAC extraction logfile from 11. January 2012, 21:40

Manfred Mann's Earth Band / Leftovers

Used drive : HL-DT-STDVDRAM GSA-H60N Adapter: 2 ID: 0

Read mode : Secure
Utilize accurate stream : Yes
Defeat audio cache : Yes
Make use of C2 pointers : No

Read offset correction : 667
Overread into Lead-In and Lead-Out : No
Fill up missing offset samples with silence : Yes
Delete leading and trailing silent blocks : No
Null samples used in CRC calculations : Yes
Used interface : Native Win32 interface for Win NT & 2000

Used output format : Internal WAV Routines
Sample format : 44.100 Hz; 16 Bit; Stereo


TOC of the extracted CD

Track | Start | Length | Start sector | End sector
––––––––––––––––––––––––––––-
1 | 0:00.00 | 3:25.17 | 0 | 15391
2 | 3:25.17 | 4:58.41 | 15392 | 37782
3 | 8:23.58 | 3:01.49 | 37783 | 51406
4 | 11:25.32 | 4:22.51 | 51407 | 71107
5 | 15:48.08 | 4:00.63 | 71108 | 89170
6 | 19:48.71 | 3:38.29 | 89171 | 105549
7 | 23:27.25 | 3:48.24 | 105550 | 122673
8 | 27:15.49 | 3:38.16 | 122674 | 139039
9 | 30:53.65 | 3:49.46 | 139040 | 156260
10 | 34:43.36 | 4:39.27 | 156261 | 177212
11 | 39:22.63 | 5:57.03 | 177213 | 203990
12 | 45:19.66 | 3:08.66 | 203991 | 218156
13 | 48:28.57 | 3:59.01 | 218157 | 236082
14 | 52:27.58 | 6:59.53 | 236083 | 267560
15 | 59:27.36 | 3:30.00 | 267561 | 283310
16 | 62:57.36 | 4:24.50 | 283311 | 303160
17 | 67:22.11 | 5:28.10 | 303161 | 327770


Range status and errors

Selected range

Filename C:\Documents and Settings\Admin\Рабочий стол\Rip by ALLexxess\Manfred Mann's Earth Band\2011 40th Anniversary Box Set (21CD Box Set Creature Music)\2011 Leftovers\Manfred Mann's Earth Band - Leftovers.wav

Peak level 90.0 %
Extraction speed 5.6 X
Range quality 100.0 %
Test CRC 5162703B
Copy CRC 5162703B
Copy OK

No errors occurred


AccurateRip summary

Track 1 not present in database
Track 2 not present in database
Track 3 not present in database
Track 4 not present in database
Track 5 not present in database
Track 6 not present in database
Track 7 not present in database
Track 8 not present in database
Track 9 not present in database
Track 10 not present in database
Track 11 not present in database
Track 12 not present in database
Track 13 not present in database
Track 14 not present in database
Track 15 not present in database
Track 16 not present in database
Track 17 not present in database

None of the tracks are present in the AccurateRip database

End of status report

==== Log checksum C11C0C7897EE5B3FD2E76CDDF3A6CB12083EA114551881546E0A0257EF3EA00B ====

[CUETools log; Date: 20.02.2018 22:30:11; Version: 2.1.4]
[CTDB TOCID: wKPkwZ3OspKsG.fxdxrvMz2ELmA-] found.
Track | CTDB Status
1 | (38/39) Accurately ripped
2 | (38/39) Accurately ripped
3 | (39/39) Accurately ripped
4 | (39/39) Accurately ripped
5 | (39/39) Accurately ripped
6 | (38/39) Accurately ripped
7 | (39/39) Accurately ripped
8 | (39/39) Accurately ripped
9 | (39/39) Accurately ripped
10 | (39/39) Accurately ripped
11 | (39/39) Accurately ripped
12 | (39/39) Accurately ripped
13 | (39/39) Accurately ripped
14 | (39/39) Accurately ripped
15 | (39/39) Accurately ripped
16 | (39/39) Accurately ripped
17 | (39/39) Accurately ripped
[AccurateRip ID: 002acf82-0223fd18-f9111211] found.
Track [ CRC | V2 ] Status
01 [3653dfbd|edf12898] (03+20/23) Accurately ripped
02 [1e3600ec|e1e4e698] (03+20/23) Accurately ripped
03 [4b5c330e|3dcccb13] (03+20/23) Accurately ripped
04 [43426d7f|7ad8c7b0] (03+20/23) Accurately ripped
05 [44310ac2|55dce6e7] (03+20/23) Accurately ripped
06 [33bd9977|e79c7907] (03+20/23) Accurately ripped
07 [eb65d20c|4dbe1295] (03+20/23) Accurately ripped
08 [1a3d8f29|96d480eb] (03+20/23) Accurately ripped
09 [bbc30ec4|9cd01488] (03+20/23) Accurately ripped
10 [f295800a|9904f050] (03+20/23) Accurately ripped
11 [6831b1c7|4278bd27] (03+20/23) Accurately ripped
12 [6006ae39|5a963c77] (03+20/23) Accurately ripped
13 [1dcae7e1|5560b25b] (03+20/23) Accurately ripped
14 [7cc73ec4|d5390d23] (03+20/23) Accurately ripped
15 [fea042ce|1665af8e] (03+20/23) Accurately ripped
16 [8206c49f|71e2ce46] (03+20/23) Accurately ripped
17 [7d23677c|b885aab9] (03+20/23) Accurately ripped

Track Peak [ CRC32 ] [W/O NULL] [ LOG ]
– 90,0 [5162703B] [8961F806] CRC32
01 78,9 [8622D2C1] [601237A4]
02 84,9 [CD02F6DC] [BD06E815]
03 67,7 [5BD704F7] [C32A3A67]
04 78,5 [5F5E4EF7] [0887FD7B]
05 83,4 [0F9A0CBE] [75D5DE3F]
06 90,0 [729C05F8] [1F2CC7F4]
07 84,4 [F7D914A0] [00D1D811]
08 72,6 [1B41DE7F] [CF943E54]
09 87,6 [E2F8DF1A] [025A461E]
10 82,0 [C5B53681] [C054EEE6]
11 76,6 [A2EAF358] [84EFD773]
12 50,1 [1D14693C] [C5B7F97F]
13 75,5 [8515E301] [F81C2636]
14 76,7 [A025BEA8] [30CBA5C0]
15 87,5 [FD6B5225] [2488F420]
16 77,8 [68EE9F2C] [4E353085]
17 82,4 [30AF1909] [E8EA17FA]

Manfred Mann's Earth Band - 40th Anniversary Box Set [21CD Box Set] (2011) (Repost)

20. Manfred Mann's Earth Band - Live In Ersingen 2011 (2011)
EAC Rip | FLAC (image+.cue+log) - 438 MB | MP3 CBR 320 kbps (LAME 3.93) - 158 MB | Covers - 64 MB
Genre: Progressive Rock | RAR 3% Rec. | Label: Creature Music

Tracklist:
01. Martha's Madman
02. Dancing In The Dark
03. For You
04. Father Of Day, Father Of Night
05. Don't Kill It Carol
06. Blinded By The Light
07. Davy's On The Road Again
08. Mighty Quinn

Total time: 01:07:01

Exact Audio Copy V1.0 beta 3 from 29. August 2011

EAC extraction logfile from 11. January 2012, 20:38

Manfred Mann's Earth Band / Live In Ersingen 2011

Used drive : HL-DT-STDVDRAM GSA-H60N Adapter: 2 ID: 0

Read mode : Secure
Utilize accurate stream : Yes
Defeat audio cache : Yes
Make use of C2 pointers : No

Read offset correction : 667
Overread into Lead-In and Lead-Out : No
Fill up missing offset samples with silence : Yes
Delete leading and trailing silent blocks : No
Null samples used in CRC calculations : Yes
Used interface : Native Win32 interface for Win NT & 2000

Used output format : Internal WAV Routines
Sample format : 44.100 Hz; 16 Bit; Stereo


TOC of the extracted CD

Track | Start | Length | Start sector | End sector
––––––––––––––––––––––––––––-
1 | 0:00.00 | 10:21.67 | 0 | 46641
2 | 10:21.67 | 8:38.36 | 46642 | 85527
3 | 19:00.28 | 4:42.14 | 85528 | 106691
4 | 23:42.42 | 8:19.30 | 106692 | 144146
5 | 32:01.72 | 8:03.60 | 144147 | 180431
6 | 40:05.57 | 5:26.10 | 180432 | 204891
7 | 45:31.67 | 9:49.31 | 204892 | 249097
8 | 55:21.23 | 11:39.26 | 249098 | 301548


Range status and errors

Selected range

Filename C:\Documents and Settings\Admin\Рабочий стол\Rip by ALLexxess\Manfred Mann's Earth Band\2011 40th Anniversary Box Set (21CD Box Set Creature Music)\2011 Live In Ersingen\Manfred Mann's Earth Band - Live In Ersingen 2011.wav

Peak level 90.2 %
Extraction speed 5.0 X
Range quality 100.0 %
Test CRC 0B17886A
Copy CRC 0B17886A
Copy OK

No errors occurred


AccurateRip summary

Track 1 not present in database
Track 2 not present in database
Track 3 not present in database
Track 4 not present in database
Track 5 not present in database
Track 6 not present in database
Track 7 not present in database
Track 8 not present in database

None of the tracks are present in the AccurateRip database

End of status report

==== Log checksum DEE3154737F742904FF7B10B46CB7711A00C2E6D87780669D81898BFFDAFC16C ====

[CUETools log; Date: 20.02.2018 22:30:59; Version: 2.1.4]
[CTDB TOCID: wrowtAGiorJqZzKIkkmlRYQrVno-] found.
Track | CTDB Status
1 | (34/34) Accurately ripped
2 | (32/34) Accurately ripped
3 | (34/34) Accurately ripped
4 | (34/34) Accurately ripped
5 | (34/34) Accurately ripped
6 | (34/34) Accurately ripped
7 | (34/34) Accurately ripped
8 | (34/34) Accurately ripped
[AccurateRip ID: 00142044-00851225-560fb408] found.
Track [ CRC | V2 ] Status
01 [bf8ee29c|03dd1539] (03+19/22) Accurately ripped
02 [1a816272|d07d6175] (03+19/22) Accurately ripped
03 [5cf6f281|0f9e4639] (03+19/22) Accurately ripped
04 [8bf6f26e|473808d1] (03+19/22) Accurately ripped
05 [925c6c62|381dadd9] (03+19/22) Accurately ripped
06 [a440205f|dfb9053e] (03+19/22) Accurately ripped
07 [d7db8302|747c7253] (03+19/22) Accurately ripped
08 [e7112f03|ce2ed8e7] (03+19/22) Accurately ripped

Track Peak [ CRC32 ] [W/O NULL] [ LOG ]
– 90,2 [0B17886A] [2A1AEE22] CRC32
01 84,3 [3FBE66B9] [0004F2F2]
02 89,3 [D96D8E2D] [A5041512]
03 87,3 [E84482EA] [E74164B3]
04 90,2 [96FC0708] [E4AD2BA6]
05 89,3 [8536A592] [BE199B44]
06 89,3 [31596847] [85A25368]
07 89,3 [0CC1F5B2] [093E1330]
08 89,3 [CFC47628] [FB79A1E2]

Thanks to allekkss48 & taurus66