Subcategories

Manic Street Preachers - Generation Terrorists (1992) [Japanese Ed.]

Posted By: hill0
Manic Street Preachers - Generation Terrorists (1992) [Japanese Ed.]

Manic Street Preachers - Generation Terrorists (1992)
EAC Rip | FLAC (tracks & cue & log) | 560 MB | MP3 CBR 320 kbps | 229 MB | Scans | 1:16:46
Genre: Alternative Rock/Brit Pop/Hard Rock | Country: UK| Label: Epic/Sony | ESCA-5530

On the back of significant media attention and a "disproportionately high press profile" generated by the band's previously released single "Motown Junk" from 1991, Generation Terrorists was long-awaited by critics thanks to the members' proclamation that their debut would be the "greatest rock album ever" and sell around sixteen million copies around the world, "from Bangkok to Senegal". Recorded between July and December 1991 and released in February 1992, the album did not meet these sales figures but it was nonetheless ultimately certified Gold in the United Kingdom[5] and also charted within the Top 100 in Japan.
Review by Stephen Thomas Erlewine
Debut albums rarely come as ambitious as the Manic Street Preachers' Generation Terrorists. Released in England as a double album (it was trimmed to the length of a single record in America), the album teemed with slogans, political rhetoric, and scarily inarticulate angst. Since the Manics deliver these charged lyrics as heavy guitar-rockers, the music doesn't always hit quite as forcefully as intended. The relatively polished production and big guitar sound occasionally sell the music short, especially the lesser songs, yet the Manics' passion is undeniable, even on the weaker cuts. While the album is loaded with a little bit too much unrealized material in retrospect, its best moments – the fiery "Slash N' Burn," "Little Baby Nothing," the incendiary "Stay Beautiful," the sardonic "You Love Us," and the haunting "Motorcycle Emptiness" – capture the Manics in all their raging glory.

allmusic
amazon
Website


Manic Street Preachers - Generation Terrorists (1992) [Japanese Ed.]


Tracklist:

01. Slash'n Burn
02. Nat West-Barclays-Midlamds-Lloyds
03. Born To End
04. Motorcycle Emptiness
05. You Love Us
06. Love's Sweet Exile
07. Little Baby Nothing
08. Repeat (Stars And Stripes)
09. Tennessee
10. Another Invented Disease
11. Stay Beautiful
12. So Dead
13. Repeat (UK)
14. Spectators Of Suicide
15. Damn Dog
16. Crucifix Kiss
17. Methadone Pretty
18. Condemned To Rock'n Roll
19. A Vision Of Dead Desire (bonus track)

Exact Audio Copy V1.0 beta 3 from 29. August 2011

EAC extraction logfile from 6. March 2015, 11:36

Manic Street Preachers / Generation Terrorists

Used drive : ASUS DRW-24F1ST a Adapter: 4 ID: 0

Read mode : Secure
Utilize accurate stream : Yes
Defeat audio cache : Yes
Make use of C2 pointers : No

Read offset correction : 6
Overread into Lead-In and Lead-Out : No
Fill up missing offset samples with silence : Yes
Delete leading and trailing silent blocks : No
Null samples used in CRC calculations : Yes
Used interface : Native Win32 interface for Win NT & 2000

Used output format : User Defined Encoder
Selected bitrate : 896 kBit/s
Quality : High
Add ID3 tag : Yes
Command line compressor : C:\Program Files (x86)\FLAC Frontend\tools\flac.exe
Additional command line options : -V -8 -T "Date=%year%" -T "Genre=%genre%" %source%

TOC of the extracted CD

Track | Start | Length | Start sector | End sector
––––––––––––––––––––––––––––-
1 | 0:00.00 | 3:58.32 | 0 | 17881
2 | 3:58.32 | 4:32.55 | 17882 | 38336
3 | 8:31.12 | 3:55.53 | 38337 | 56014
4 | 12:26.65 | 6:08.32 | 56015 | 83646
5 | 18:35.22 | 4:19.55 | 83647 | 103126
6 | 22:55.02 | 3:29.00 | 103127 | 118801
7 | 26:24.02 | 5:22.28 | 118802 | 142979
8 | 31:46.30 | 4:09.10 | 142980 | 161664
9 | 35:55.40 | 3:05.42 | 161665 | 175581
10 | 39:01.07 | 3:24.40 | 175582 | 190921
11 | 42:25.47 | 3:10.35 | 190922 | 205206
12 | 45:36.07 | 4:28.68 | 205207 | 225374
13 | 50:05.00 | 3:09.47 | 225375 | 239596
14 | 53:14.47 | 4:41.30 | 239597 | 260701
15 | 57:56.02 | 1:52.40 | 260702 | 269141
16 | 59:48.42 | 3:39.03 | 269142 | 285569
17 | 63:27.45 | 3:57.20 | 285570 | 303364
18 | 67:24.65 | 6:07.12 | 303365 | 330901
19 | 73:32.02 | 3:13.70 | 330902 | 345446

Range status and errors

Selected range

Filename G:\EAC - Hellixxx rip\Manic Street Preachers - 1992 - Generation Terrorists (ESCA-5530).wav

Peak level 97.7 %
Extraction speed 3.5 X
Range quality 100.0 %
Test CRC B8152A0A
Copy CRC B8152A0A
Copy OK

No errors occurred

AccurateRip summary

Track 1 accurately ripped (confidence 1) [BF387F27] (AR v2)
Track 2 accurately ripped (confidence 1) [52CF03B5] (AR v2)
Track 3 accurately ripped (confidence 1) [7C316324] (AR v2)
Track 4 accurately ripped (confidence 1) [87D04680] (AR v2)
Track 5 accurately ripped (confidence 1) [F3C7C422] (AR v2)
Track 6 accurately ripped (confidence 1) [DF0355DB] (AR v2)
Track 7 accurately ripped (confidence 1) [67D0A1D3] (AR v2)
Track 8 accurately ripped (confidence 1) [C6CF0377] (AR v2)
Track 9 accurately ripped (confidence 1) [F7B56DC1] (AR v2)
Track 10 accurately ripped (confidence 1) [82E46294] (AR v2)
Track 11 accurately ripped (confidence 1) [065D0F02] (AR v2)
Track 12 accurately ripped (confidence 1) [3BB5F718] (AR v2)
Track 13 accurately ripped (confidence 1) [1CDCDC08] (AR v2)
Track 14 accurately ripped (confidence 1) [2C08ABAF] (AR v2)
Track 15 accurately ripped (confidence 1) [0E76B6CE] (AR v2)
Track 16 accurately ripped (confidence 1) [7BCD076C] (AR v2)
Track 17 accurately ripped (confidence 1) [123A1431] (AR v2)
Track 18 accurately ripped (confidence 1) [302949C0] (AR v2)
Track 19 accurately ripped (confidence 1) [B055D93B] (AR v2)

All tracks accurately ripped

End of status report

==== Log checksum 3FC288C37420750F0DD90C0B663931E4860E2695992B9176A9EA33059D4CCBEA ====


Personnel

Bass – Nicky Wire
Drums, Percussion, Backing Vocals – Sean Moore
Lead Vocals, Rhythm Guitar, Lead Guitar, Acoustic Guitar – James Dean Bradfield

Producer – Steve Brown
Barcode: 4 988010 553029
Matrix / Runout: DP-5006 1
Other: 92·2·14


All thanks to Hellixxx

Manic Street Preachers - Generation Terrorists (1992) [Japanese Ed.]