Subcategories

Mano Negra - Best Of Mano Negra (1998)

Posted By: Designol
Mano Negra - Best Of Mano Negra (1998)

Mano Negra - Best Of Mano Negra (1998)
EAC | FLAC | Image (Cue&Log) ~ 449 Mb | Mp3 (CBR320) ~ 152 Mb | Scans ~ 110 Mb
Label: Virgin | # 7243 8 46684 2 6 | Time: 01:05:49
World Fusion, French Rock, Rock en Español, Alternative Latin, Ethno-Punk

Best of Mano Negra is a compilation album by Mano Negra, released in 1998. It included their greatest hits from 1988 to 1994. Mano Negra (complete Spanish name: La Mano Negra, sometimes nicknamed La Mano in France) was a music group active from 1987 to 1995 and fronted by Manu Chao. The group was founded in Paris by Chao, his brother (Antoine) and cousin (Santiago), all born of Spanish parents with partly Cuban roots. Their songs were mostly in Spanish, English and French, often switching from one language to the other in the same song or in the middle of a sentence or title (e.g. "Puta's Fever"). They also had a hit song in Arabic. They are considered pioneers of world fusion. Mano Negra incorporated an impressive array of musical styles: punk rock, flamenco, ska, salsa, French chanson, hip hop, raï, rockabilly, reggae and African rhythms.

During their time together in the late '80s and early '90s, the French band with the Spanish name gave real meaning to the term ethno-punk. Imagine the Clash fired not only by reggae and rockabilly, but also rai, dub, hip-hop, and a strongly Latin sensibility, and you have a picture of Mano Negra. This compilation collects tracks from five of their albums that indicate not only the breadth of their vision, but also the musical range, and the passion that informed everything they did. More than the start of rock en Español, this is the full multiculti punk experience. The band may no longer be around, but a listen to this shows that the spirit can't be extinguished. La luta continua….

Review by Chris Nickson, Amazon.com Editorial Review

The Best of Mano Negra showcases the eclectic style that made the band an influential cult favorite among political punks. Mano Negra's combination of Arab, African and punk styles and a socially conscious outlook inspired like-minded artists such as Rage Against the Machine, and this 24-track collection spotlights their incendiary, energetic sound. Tracks include "Mala Vida," "Rock Island Line," "Peligro" and "Mad Man's Dead."

Review by Heather Phares, Allmusic.com

Mano Negra - Best Of Mano Negra (1998)



Tracklist:

01. Mano Negra (1:01)
02. King Kong Five (1:56)
03. Soledad (2:34)
04. Mala Vida (2:52)
05. Sidi H' Bibi (3:24)
06. Rock Island Line (3:07)
07. Noche De Accion (2:47)
08. Guayaquil City (3:01)
09. Peligro (2:53)
10. Sueno De Solentiname (2:50)
11. Indios De Barcelona (2:22)
12. Mad Man's Dead (2:01)
13. Senor Matanza (3:58)
14. Out Of Time Man (3:25)
15. Pas Assez De Toi (2:19)
16. King Of Bongo (3:38)
17. Ronde De Nuit (2:54)
18. Patchanka (3:06)
19. Salga La Luna (3:34)
20. Santa Maradona (3:16)
21. El Sur (1:00)
22. Long Long Nite (Inedit) (4:16)
23. On Telefon (Inedit) (1:36)
24. Darling Darling (2:00)


Exact Audio Copy V0.99 prebeta 5 from 4. May 2009

Отчёт EAC об извлечении, выполненном 16. ноября 2012, 13:02

Mano Negra / Best Of

Дисковод: PIONEER DVD-RW DVR-218L Adapter: 0 ID: 0

Режим чтения : Достоверность
Использование точного потока : Да
Отключение кэша аудио : Да
Использование указателей C2 : Нет

Коррекция смещения при чтении : 6
Способность читать области Lead-in и Lead-out : Нет
Заполнение пропущенных сэмплов тишиной : Да
Удаление блоков с тишиной в начале и конце : Нет
При вычислениях CRC использовались нулевые сэмплы : Да
Интерфейс : Встроенный Win32-интерфейс для Win NT/2000

Выходной формат : Пользовательский кодировщик
Выбранный битрейт : 128 kBit/s
Качество : Высокий
Добавление ID3-тэга : Нет
Утилита сжатия : C:\Program Files (x86)\Exact Audio Copy\Flac\flac.exe
Дополнительные параметры : -5 -V -T "ARTIST=%a" -T "TITLE=%t" -T "ALBUM=%g" -T "DATE=%y" -T "TRACKNUMBER=%n" -T "GENRE=%m" -T "COMMENT=EAC FLAC -5" %s


TOC извлечённого CD

Трек | Старт | Длительность | Начальный сектор | Конечный сектор
––––––––––––––––––––––––––––––––––-
1 | 0:00.00 | 1:00.73 | 0 | 4572
2 | 1:00.73 | 1:55.61 | 4573 | 13258
3 | 2:56.59 | 2:33.56 | 13259 | 24789
4 | 5:30.40 | 2:51.61 | 24790 | 37675
5 | 8:22.26 | 3:23.63 | 37676 | 52963
6 | 11:46.14 | 3:07.32 | 52964 | 67020
7 | 14:53.46 | 2:46.63 | 67021 | 79533
8 | 17:40.34 | 3:01.22 | 79534 | 93130
9 | 20:41.56 | 2:52.53 | 93131 | 106083
10 | 23:34.34 | 2:50.14 | 106084 | 118847
11 | 26:24.48 | 2:21.56 | 118848 | 129478
12 | 28:46.29 | 2:01.17 | 129479 | 138570
13 | 30:47.46 | 3:57.48 | 138571 | 156393
14 | 34:45.19 | 3:24.56 | 156394 | 171749
15 | 38:10.00 | 2:18.67 | 171750 | 182166
16 | 40:28.67 | 3:38.31 | 182167 | 198547
17 | 44:07.23 | 2:53.45 | 198548 | 211567
18 | 47:00.68 | 3:06.11 | 211568 | 225528
19 | 50:07.04 | 3:33.39 | 225529 | 241542
20 | 53:40.43 | 3:15.72 | 241543 | 256239
21 | 56:56.40 | 0:59.64 | 256240 | 260728
22 | 57:56.29 | 4:16.07 | 260729 | 279935
23 | 62:12.36 | 1:36.18 | 279936 | 287153
24 | 63:48.54 | 2:00.18 | 287154 | 296171


Характеристики диапазона извлечения и сообщения об ошибках

Выбранный диапазон

Имя файла F:\_МУЗЫКА\Mano Negra - Best Of - 1998\1998 - Mano Negra - Best Of.wav

Пиковый уровень 100.0 %
Качество диапазона 100.0 %
CRC теста 66DF8593
CRC копии 66DF8593
Копирование… OK

Ошибок не произошло


AccurateRip: сводка

Трек 1 точное извлечение (доверие 57) [6E9C4E54]
Трек 2 точное извлечение (доверие 60) [04A11B25]
Трек 3 точное извлечение (доверие 58) [1293A15D]
Трек 4 точное извлечение (доверие 58) [B2321166]
Трек 5 точное извлечение (доверие 56) [5E9E94CD]
Трек 6 точное извлечение (доверие 54) [E13CEDAC]
Трек 7 точное извлечение (доверие 53) [8E211FB2]
Трек 8 точное извлечение (доверие 55) [E545E12A]
Трек 9 точное извлечение (доверие 53) [5C2375CF]
Трек 10 точное извлечение (доверие 54) [203D6FD2]
Трек 11 точное извлечение (доверие 54) [D46DD35E]
Трек 12 точное извлечение (доверие 53) [EA0C8991]
Трек 13 точное извлечение (доверие 53) [80114F32]
Трек 14 точное извлечение (доверие 59) [8E42C78D]
Трек 15 точное извлечение (доверие 55) [4F71C5AA]
Трек 16 точное извлечение (доверие 54) [23487E70]
Трек 17 точное извлечение (доверие 53) [B6A43544]
Трек 18 точное извлечение (доверие 53) [B70018E4]
Трек 19 точное извлечение (доверие 55) [C4F0467B]
Трек 20 точное извлечение (доверие 52) [8695F252]
Трек 21 точное извлечение (доверие 50) [D78F7C46]
Трек 22 точное извлечение (доверие 50) [13EC79F0]
Трек 23 точное извлечение (доверие 51) [04774662]
Трек 24 точное извлечение (доверие 52) [9CAE26A4]

Все треки извлечены точно

Конец отчёта

[CUETools log; Date: 24.05.2018 17:52:07; Version: 2.1.4]
[CTDB TOCID: Hc18jcuh67UsaP0_o9KJLzEsM4M-] found.
Track | CTDB Status
1 | (244/249) Accurately ripped
2 | (239/249) Accurately ripped
3 | (241/249) Accurately ripped
4 | (239/249) Accurately ripped
5 | (241/249) Accurately ripped
6 | (240/249) Accurately ripped
7 | (238/249) Accurately ripped
8 | (239/249) Accurately ripped
9 | (241/249) Accurately ripped
10 | (241/249) Accurately ripped
11 | (239/249) Accurately ripped
12 | (240/249) Accurately ripped
13 | (239/249) Accurately ripped
14 | (238/249) Accurately ripped
15 | (240/249) Accurately ripped
16 | (238/249) Accurately ripped
17 | (240/249) Accurately ripped
18 | (240/249) Accurately ripped
19 | (240/249) Accurately ripped
20 | (237/249) Accurately ripped
21 | (239/249) Accurately ripped
22 | (233/249) Accurately ripped
23 | (238/249) Accurately ripped
24 | (240/249) Accurately ripped
[AccurateRip ID: 003771fc-03d2e464-520f6c18] found.
Track [ CRC | V2 ] Status
01 [6e9c4e54|e167668a] (063+101/173) Accurately ripped
02 [04a11b25|d5ee7d62] (066+102/177) Accurately ripped
03 [1293a15d|eaf9ad6b] (064+099/172) Accurately ripped
04 [b2321166|c12216be] (064+101/174) Accurately ripped
05 [5e9e94cd|a5c8dfe3] (062+100/171) Accurately ripped
06 [e13cedac|32307233] (060+099/168) Accurately ripped
07 [8e211fb2|814168e5] (059+101/169) Accurately ripped
08 [e545e12a|9d267c56] (061+101/171) Accurately ripped
09 [5c2375cf|b0f72112] (059+101/169) Accurately ripped
10 [203d6fd2|f3774d20] (060+099/168) Accurately ripped
11 [d46dd35e|37a4cab3] (060+100/169) Accurately ripped
12 [ea0c8991|c45a589b] (059+099/167) Accurately ripped
13 [80114f32|3be435a2] (059+099/167) Accurately ripped
14 [8e42c78d|940d55e6] (065+100/174) Accurately ripped
15 [4f71c5aa|2a53054e] (061+101/171) Accurately ripped
16 [23487e70|9c6f6715] (060+100/169) Accurately ripped
17 [b6a43544|c2f659b4] (059+101/169) Accurately ripped
18 [b70018e4|2381cafe] (059+100/168) Accurately ripped
19 [c4f0467b|22bae080] (061+099/169) Accurately ripped
20 [8695f252|160129a8] (058+099/166) Accurately ripped
21 [d78f7c46|a3f6d98a] (056+099/164) Accurately ripped
22 [13ec79f0|a1276f71] (057+100/166) Accurately ripped
23 [04774662|28b7148d] (058+099/166) Accurately ripped
24 [9cae26a4|e806d106] (059+099/167) Accurately ripped
Offsetted by -676:
01 [5dfafc28] (002/173) Accurately ripped
02 [45ecf419] (002/177) Accurately ripped
03 [74811153] (002/172) Accurately ripped
04 [669bb53b] (002/174) Accurately ripped
05 [dd3177a8] (002/171) Accurately ripped
06 [0c47a89a] (002/168) Accurately ripped
07 [92aac1ee] (002/169) Accurately ripped
08 [50f1ac93] (002/171) Accurately ripped
09 [3315084b] (002/169) Accurately ripped
10 [df2e3187] (002/168) Accurately ripped
11 [cb49a6d2] (002/169) Accurately ripped
12 [c95b4a13] (002/167) Accurately ripped
13 [52bf2cc7] (002/167) Accurately ripped
14 [236c8f48] (002/174) Accurately ripped
15 [47b32d91] (002/171) Accurately ripped
16 [4d201c1f] (002/169) Accurately ripped
17 [b76e4b04] (002/169) Accurately ripped
18 [b44c41ae] (002/168) Accurately ripped
19 [4becce9b] (002/169) Accurately ripped
20 [a6bd21b1] (002/166) Accurately ripped
21 [26be8133] (002/164) Accurately ripped
22 [0ab96de4] (002/166) Accurately ripped
23 [9c40d1e8] (002/166) Accurately ripped
24 [daa486b6] (002/167) Accurately ripped
Offsetted by -71:
01 [4365d78b] (002/173) Accurately ripped
02 [e8cfa37c] (002/177) Accurately ripped
03 [913882fa] (002/172) Accurately ripped
04 [dcfb2b95] (002/174) Accurately ripped
05 [990eb2ab] (002/171) Accurately ripped
06 [14cfeb0d] (002/168) Accurately ripped
07 [f869e948] (002/169) Accurately ripped
08 [31f4a66c] (002/171) Accurately ripped
09 [a469f60e] (002/169) Accurately ripped
10 [a0f7a2c3] (002/168) Accurately ripped
11 [83a5d2c3] (002/169) Accurately ripped
12 [b295ae27] (002/167) Accurately ripped
13 [6ab146ea] (002/167) Accurately ripped
14 [1649cf77] (002/174) Accurately ripped
15 [6b7766ce] (002/171) Accurately ripped
16 [7ccd8d4a] (002/169) Accurately ripped
17 [2edd0137] (002/169) Accurately ripped
18 [42de6e09] (002/168) Accurately ripped
19 [6faa5b50] (002/169) Accurately ripped
20 [e174986e] (002/166) Accurately ripped
21 [a33636cd] (002/164) Accurately ripped
22 [31e483af] (002/166) Accurately ripped
23 [04c865e7] (002/166) Accurately ripped
24 [5fe053ab] (002/167) Accurately ripped
Offsetted by -669:
01 [1c7be143] (000/173) No match (V2 was not tested)
02 [0792a624] (000/177) No match (V2 was not tested)
03 [6a1d1d98] (000/172) No match (V2 was not tested)
04 [bc7a421f] (000/174) No match (V2 was not tested)
05 [3507782e] (000/171) No match (V2 was not tested)
06 [b0bae4af] (000/168) No match (V2 was not tested)
07 [de83ba85] (000/169) No match (V2 was not tested)
08 [3e571f69] (000/171) No match (V2 was not tested)
09 [e34ecfa5] (000/169) No match (V2 was not tested)
10 [de2f803f] (000/168) No match (V2 was not tested)
11 [5f45c71e] (000/169) No match (V2 was not tested)
12 [23e0482e] (000/167) No match (V2 was not tested)
13 [2423e749] (000/167) No match (V2 was not tested)
14 [e372e6e6] (000/174) No match (V2 was not tested)
15 [efb24159] (000/171) No match (V2 was not tested)
16 [c1bccdfd] (000/169) No match (V2 was not tested)
17 [8ba8f497] (000/169) No match (V2 was not tested)
18 [c07052fd] (000/168) No match (V2 was not tested)
19 [aa2782eb] (000/169) No match (V2 was not tested)
20 [f692870b] (000/166) No match (V2 was not tested)
21 [2af0f085] (000/164) No match (V2 was not tested)
22 [1e3b9ccd] (000/166) No match (V2 was not tested)
23 [99a614e1] (000/166) No match (V2 was not tested)
24 [2e8294b1] (000/167) No match (V2 was not tested)
Offsetted by -104:
01 [040b03d4] (000/173) No match (V2 was not tested)
02 [b6dba605] (000/177) No match (V2 was not tested)
03 [68ed016b] (000/172) No match (V2 was not tested)
04 [54982f4b] (000/174) No match (V2 was not tested)
05 [2696300d] (000/171) No match (V2 was not tested)
06 [37cf5214] (000/168) No match (V2 was not tested)
07 [ac95aa9c] (000/169) No match (V2 was not tested)
08 [d5dd632a] (000/171) No match (V2 was not tested)
09 [711702e6] (000/169) No match (V2 was not tested)
10 [bd3a1650] (000/168) No match (V2 was not tested)
11 [cf5bb12d] (000/169) No match (V2 was not tested)
12 [892cb322] (000/167) No match (V2 was not tested)
13 [6b3f8b22] (000/167) No match (V2 was not tested)
14 [5ebb0b34] (000/174) No match (V2 was not tested)
15 [f36a70c6] (000/171) No match (V2 was not tested)
16 [9e7f494a] (000/169) No match (V2 was not tested)
17 [001827b7] (000/169) No match (V2 was not tested)
18 [1496d1c6] (000/168) No match (V2 was not tested)
19 [c46cb26b] (000/169) No match (V2 was not tested)
20 [9bd17688] (000/166) No match (V2 was not tested)
21 [c466ef3e] (000/164) No match (V2 was not tested)
22 [afdaaeae] (000/166) No match (V2 was not tested)
23 [9bfe643f] (000/166) No match (V2 was not tested)
24 [d65718bf] (000/167) No match (V2 was not tested)

Track Peak [ CRC32 ] [W/O NULL] [ LOG ]
– 100,0 [66DF8593] [E84BE90B] CRC32
01 97,9 [91577DEE] [744180F9]
02 100,0 [64EA1ED2] [F117F306]
03 100,0 [F3B70AB1] [A98EF447]
04 99,4 [8C2CE45C] [26A477D8]
05 100,0 [5BE59248] [0F4FAF4D]
06 97,9 [15D678F9] [70BE0037]
07 97,9 [A665AA37] [7FD70FC7]
08 97,9 [B752F6C8] [0C68E1F3]
09 97,9 [C2967146] [4FE4CBA5]
10 97,9 [D188DDF7] [9D656BFE]
11 97,9 [CDE6EED4] [13601E23]
12 100,0 [6342A919] [E10E7721]
13 100,0 [B8276F47] [2A5A64CC]
14 97,9 [1D1A735E] [F2CDDC29]
15 97,9 [3310BC0B] [C95BCA81]
16 97,9 [6636268B] [EA8F6D2D]
17 87,3 [99218098] [546148C4]
18 97,9 [0934E03C] [0C97446F]
19 97,9 [5D0E7B4E] [CA5EF98A]
20 87,3 [0F9EE150] [BD2F06A8]
21 97,9 [03146714] [51A6E67D]
22 100,0 [8B873D29] [8B0B8E02]
23 77,8 [A95221BE] [C5F6FC60]
24 97,9 [D6FE58B0] [419C1C63]

foobar2000 1.2 / Dynamic Range Meter 1.1.1
log date: 2018-05-24 18:35:05

––––––––––––––––––––––––––––––––––––––––
Analyzed: Mano Negra / Best Of
––––––––––––––––––––––––––––––––––––––––

DR Peak RMS Duration Track
––––––––––––––––––––––––––––––––––––––––
DR6 -0.18 dB -6.98 dB 1:01 01-Mano Negra
DR7 0.00 dB -8.09 dB 1:56 02-King Kong Five
DR6 0.00 dB -7.65 dB 2:34 03-Soledad
DR8 -0.04 dB -8.52 dB 2:52 04-Mala Vida
DR6 0.00 dB -7.80 dB 3:24 05-Sidi H' Bibi
DR9 -0.18 dB -10.29 dB 3:07 06-Rock Island Line
DR7 -0.18 dB -8.28 dB 2:47 07-Noche De Accion
DR9 -0.18 dB -10.83 dB 3:01 08-Guayaquil City
DR8 -0.18 dB -9.67 dB 2:53 09-Peligro
DR7 -0.18 dB -9.89 dB 2:50 10-Sueno De Solentiname
DR6 -0.18 dB -7.53 dB 2:22 11-Indios De Barcelona
DR6 0.00 dB -6.95 dB 2:01 12-Mad Man's Dead
DR8 0.00 dB -8.97 dB 3:58 13-Senor Matanza
DR8 -0.18 dB -9.47 dB 3:25 14-Out Of Time Man
DR8 -0.18 dB -9.66 dB 2:19 15-Pas Assez De Toi
DR7 -0.18 dB -8.58 dB 3:38 16-King Of Bongo
DR7 -1.18 dB -10.07 dB 2:54 17-Ronde De Nuit
DR7 -0.18 dB -8.56 dB 3:06 18-Patchanka
DR8 -0.18 dB -10.98 dB 3:34 19-Salga La Luna
DR6 -1.18 dB -9.09 dB 3:16 20-Santa Maradona
DR8 -0.18 dB -12.65 dB 1:00 21-El Sur
DR11 0.00 dB -12.70 dB 4:16 22-Long Long Nite (Inedit)
DR7 -2.18 dB -10.66 dB 1:36 23-On Telefon (Inedit)
DR7 -0.18 dB -8.99 dB 2:00 24-Darling Darling
––––––––––––––––––––––––––––––––––––––––

Number of tracks: 24
Official DR value: DR7

Samplerate: 44100 Hz
Channels: 2
Bits per sample: 16
Bitrate: 952 kbps
Codec: FLAC
================================================================================

Mano Negra - Best Of Mano Negra (1998)

Mano Negra - Best Of Mano Negra (1998)

All thanks to original releaser - BolshoeR

More interesting music in My Blog