Subcategories

Manowar: Collection (1982 - 2012) [Vinyl Rip 16/44 & mp3-320]

Posted By: v3122
Manowar: Collection (1982 - 2012) [Vinyl Rip 16/44 & mp3-320]

Manowar: Collection (1982 - 2012)
13 x Vinyl Rip 16/44 | Flac(Image + Cue) > 4262 Mb
MP3 CBR 320Kbps > 1469 Mb | Artwork(jpg) > 876 Mb
Heavy Metal

One of the most internationally successful bands in all of heavy metaldom, Auburn, New York-born power metal outfit Manowar – Eric Adams (vocals), Karl Logan (guitars), Joey DeMaio (bass), and Donnie Hamzik (drums) – have sold over nine million records since their inception in 1980. Steeped in the pageantry of heavy metal, the group's approach was designed to be the raw, primal, Viking antithesis of classic rock, and their music followed suit, based on raw, aggressive riffs, with lyrics that were mostly about fighting, violence, honor, and death. The band issued a pair of well received yet not so widely distributed albums – Battle Hymns (1982) and Into Glory Ride (1983) – before breaking in the U.K. and Europe with 1984's Hail to England and Sign of the Hammer, leading to the group inking a deal with Atlantic and breaking big internationally with 1987's Fighting the World, the latter of which featured guest narration on the track "Defender" from Orson Welles, who had died two years prior, yet recorded his part on a 1982 demo of the song. Released in 1988, Kings of Metal was even bigger and bolder, but it also marked the departure of founding member and guitarist Ross Friedman (Ross the Boss). The ambitious Triumph of Steel arrived in 1992, followed by a string of new releases – Louder Than Hell (1996), Warriors of the World (2002), Gods of War (2007), and The Lord of Steel (2012) – as well as re-recordings of early albums Battle Hymns MMXI (2010) and Kings of Metal MMXIV (2013).

by James Christopher Monger, allmusic
Manowar: Collection (1982 - 2012):

Manowar: Collection (1982 - 2012) [Vinyl Rip 16/44 & mp3-320]

Tracklist VNL01 - Battle Hymns:
JP LP 1982 King Records Co., Ltd., K28P 270

A1. Death Tone [04:52]
A2. Metal Daze [04:20]
A3. Fast Taker [03:57]
A4. Shell Shock [04:06]
B1. Manowar [03:39]
B2. Dark Avenger [06:25]
B3. William's Tale [01:54]
B4. Battle Hymn [07:00]

foobar2000 1.1.18 / Dynamic Range Meter 1.1.1
log date: 2016-12-04 08:27:49

––––––––––––––––––––––––––––––––––––––––
Analyzed: MANOWAR / Battle Hymns
––––––––––––––––––––––––––––––––––––––––

DR Peak RMS Duration Track
––––––––––––––––––––––––––––––––––––––––
DR12 -0.28 dB -14.00 dB 4:53 01-Death Tone
DR12 -0.31 dB -13.56 dB 4:21 02-Metal Daze
DR12 -0.52 dB -14.05 dB 3:58 03-Fast Taker
DR12 -0.90 dB -15.27 dB 4:07 04-Shell Shock
DR12 -0.34 dB -14.01 dB 3:39 05-Manowar
DR12 -0.48 dB -15.30 dB 6:25 06-Dark Avenger
DR13 -4.81 dB -21.02 dB 1:54 07-William's Tale
DR13 -0.15 dB -15.74 dB 7:01 08-Battle Hymn
––––––––––––––––––––––––––––––––––––––––

Number of tracks: 8
Official DR value: DR12

Samplerate: 44100 Hz
Channels: 2
Bits per sample: 16
Bitrate: 969 kbps
Codec: FLAC
================================================================================




Original ripper: bazar
Original format: 24bit/192kHz
Vinyl Condition: Mint
Cleaning:
Direct Drive Turntable: Technics SL-1200MK5
Cartridge: Numark GrooveTool
Amplifier: Esoteric Sounds Rek-O-Kut Professional Phono Pream
ADC: LynxTwo
Postprocessing:

Downsampled to 16/44

Manowar: Collection (1982 - 2012) [Vinyl Rip 16/44 & mp3-320]

Tracklist VNL02 - Into Glory Ride:
UK LP 1983 Music For Nations Records, MFN 6)

A1. Warlord [04:13]
A2. Secret of Steel [05:49]
A3. Gloves of Metal [05:25]
A4. Gates of Valhalla [07:10]
B1. Hatred [07:41]
B2. Revelation (Death's Angel) [06:31]
B3. March for Revenge (By The Soldiers Of Death) [08:29]

foobar2000 1.1.18 / Dynamic Range Meter 1.1.1
log date: 2016-12-04 08:28:02

––––––––––––––––––––––––––––––––––––––––
Analyzed: MANOWAR / Into Glory Ride
––––––––––––––––––––––––––––––––––––––––

DR Peak RMS Duration Track
––––––––––––––––––––––––––––––––––––––––
DR13 -1.90 dB -17.27 dB 4:13 01-Warlord
DR13 -1.78 dB -16.32 dB 5:50 02-Secret of Steel
DR14 -1.72 dB -17.46 dB 5:25 03-Gloves of Metal
DR13 -1.81 dB -17.37 dB 7:11 04-Gates of Valhalla
DR13 -1.83 dB -17.37 dB 7:41 05-Hatred
DR13 -1.76 dB -16.67 dB 6:31 06-Revelation (Death's Angel)
DR12 -1.78 dB -16.22 dB 8:30 07-March for Revenge (By The Soldiers Of Death)
––––––––––––––––––––––––––––––––––––––––

Number of tracks: 7
Official DR value: DR13

Samplerate: 44100 Hz
Channels: 2
Bits per sample: 16
Bitrate: 962 kbps
Codec: FLAC
================================================================================




Original ripper: Oleg-Leshiy
Original format:
Vinyl Condition: NM
Cleaning:
Direct Drive Turntable: Pioneer PL-7L + ZYX R1000 Airy 3 gold
Cartridge:
Amplifier: PS audio Phono Stage + Tube Preamp (Telefunken)
ADC: MOTU MK3, TASCAM HS-P82
Postprocessing:

Downsampled to 16/44

Manowar: Collection (1982 - 2012) [Vinyl Rip 16/44 & mp3-320]

Tracklist VNL03 - Hail To England:
UK LP 1984 Music For Nations Records, MFN 19

A1. Blood Of My Enemy [04:15]
A2. Each Dawn I Die [04:20]
A3. Kill With Power [03:57]
A4. Hail To England [04:24]
B1. Army Of The Immortals [04:24]
B2. Black Arrows [03:06]
B3. Bridge Of Death [09:01]

foobar2000 1.1.18 / Dynamic Range Meter 1.1.1
log date: 2016-12-04 08:28:11

––––––––––––––––––––––––––––––––––––––––
Analyzed: MANOWAR / Hail To England
––––––––––––––––––––––––––––––––––––––––

DR Peak RMS Duration Track
––––––––––––––––––––––––––––––––––––––––
DR12 -1.80 dB -15.48 dB 4:15 01-Blood Of My Enemy
DR12 -1.93 dB -15.34 dB 4:20 02-Each Dawn I Die
DR13 -1.05 dB -15.88 dB 3:57 03-Kill With Power
DR12 -1.79 dB -15.97 dB 4:24 04-Hail To England
DR12 -1.60 dB -16.01 dB 4:24 05-Army Of The Immortals
DR12 -3.27 dB -17.51 dB 3:06 06-Black Arrows
DR13 0.00 dB -17.36 dB 9:01 07-Bridge Of Death
––––––––––––––––––––––––––––––––––––––––

Number of tracks: 7
Official DR value: DR12

Samplerate: 44100 Hz
Channels: 2
Bits per sample: 16
Bitrate: 951 kbps
Codec: FLAC
================================================================================




Original ripper: bazar
Original format: 24bit/192kHz
Vinyl Condition: Mint
Cleaning:
Direct Drive Turntable: Technics SL-1200MK5
Cartridge: Numark GrooveTool
Amplifier: Esoteric Sounds Rek-O-Kut Professional Phono Pream
ADC: LynxTwo
Postprocessing:

Downsampled to 16/44

Manowar: Collection (1982 - 2012) [Vinyl Rip 16/44 & mp3-320]

Tracklist VNL04 - Sign Of The Hammer:
DE LP 1984 10 Records Ltd., 206 639-620

A1. All Men Play On 10 [4:01]
A2. Animals [3:34]
A3. Thor (The Powerhead) [5:24]
A4. Mountains [7:35]
B1. Sign Of The Hammer [4:19]
B2. The Oath [4:55]
B3. Thunderpick [3:32]
B4. Guyana (Cult Of The Damned) [7:07]

foobar2000 1.1.18 / Dynamic Range Meter 1.1.1
log date: 2016-12-04 08:28:22

––––––––––––––––––––––––––––––––––––––––
Analyzed: MANOWAR / Sign Of The Hammer
––––––––––––––––––––––––––––––––––––––––

DR Peak RMS Duration Track
––––––––––––––––––––––––––––––––––––––––
DR12 -1.27 dB -15.19 dB 4:01 01-A1. All Men Play On 10
DR11 -1.35 dB -14.91 dB 3:34 02-A2. Animals
DR11 -1.76 dB -14.82 dB 5:24 03-A3. Thor (The Powerhead)
DR13 -1.84 dB -18.45 dB 7:35 04-A4. Mountains
DR12 -1.15 dB -14.84 dB 4:19 05-B1. Sign Of The Hammer
DR12 -2.07 dB -15.86 dB 4:55 06-B2. The Oath
DR11 -5.86 dB -19.36 dB 3:32 07-B3. Thunderpick
DR12 -1.21 dB -16.25 dB 7:07 08-B4. Guyana (Cult Of The Damned)
––––––––––––––––––––––––––––––––––––––––

Number of tracks: 8
Official DR value: DR12

Samplerate: 44100 Hz
Channels: 2
Bits per sample: 16
Bitrate: 945 kbps
Codec: FLAC
================================================================================




Original ripper: NoOneIsThere
Original format: 24bit/192kHz
Vinyl Condition: VG
Cleaning:
Direct Drive Turntable: Technics SL-1500 + Shure M24H + Type IV
Cartridge:
Amplifier:
ADC: SB E-MU 0404 USB
Postprocessing:

Downsampled to 16/44

Manowar: Collection (1982 - 2012) [Vinyl Rip 16/44 & mp3-320]

Tracklist VNL05 - Fighting The World:
DE LP 1987 Atlantic Records, 790 563-1

A1. Fighting The World [03:53]
A2. Blow Your Speakers [03:42]
A3. Carry On [04:18]
A4. Violence And Bloodshed [03:57]
B1. Defender [06:05]
B2. Drums Of Doom [01:15]
B3. Holy Wa [04:44]
B4. Master Of Revenge [01:34]
B5. Black Wind, Fire And Steel [05:15]

foobar2000 1.1.18 / Dynamic Range Meter 1.1.1
log date: 2016-12-04 08:28:31

––––––––––––––––––––––––––––––––––––––––
Analyzed: MANOWAR / Fighting The World
––––––––––––––––––––––––––––––––––––––––

DR Peak RMS Duration Track
––––––––––––––––––––––––––––––––––––––––
DR13 -0.77 dB -16.28 dB 3:53 01-Fighting The World
DR13 0.00 dB -15.51 dB 3:43 02-Blow Your Speakers
DR13 -0.15 dB -16.31 dB 4:19 03-Carry On
DR13 -0.88 dB -16.15 dB 3:58 04-Violence And Bloodshed
DR14 0.00 dB -17.25 dB 6:06 05-Defender
DR12 -2.42 dB -18.80 dB 1:15 06-Drums Of Doom
DR13 -1.00 dB -16.90 dB 4:45 07-Holy Wa
DR14 -1.75 dB -19.01 dB 1:34 08-Master Of Revenge
DR12 -0.15 dB -15.18 dB 5:15 09-Black Wind, Fire And Steel
––––––––––––––––––––––––––––––––––––––––

Number of tracks: 9
Official DR value: DR13

Samplerate: 44100 Hz
Channels: 2
Bits per sample: 16
Bitrate: 962 kbps
Codec: FLAC
================================================================================




Original ripper: Titura
Original format: 24bit/192kHz
Vinyl Condition: EX
Cleaning:
Direct Drive Turntable: Kenwood KD 770D
Cartridge: Denon DL 110
Amplifier: CA Azur 640P
ADC: E-MU 0404 USB
Postprocessing:

Downsampled to 16/44

Manowar: Collection (1982 - 2012) [Vinyl Rip 16/44 & mp3-320]

Tracklist VNL06 - Kings Of Metal:
(US LP + EP 1988 Atlantic Records • 781 930-1

A1. Wheels Of Fire [04:11]
A2. Kings Of Metal [03:44]
A3. Heart Of Steel [05:11]
A4. Sting Of The Bumblebee [02:49]
A5. The Crown And The Ring (Lament Of The Kings) [04:50]
B1. Kingdom Come [03:56]
B2. Hail And Kill [05:58]
B3. The Warriors Prayer [04:20]
B4. Blood Of The Kings [07:31]
C1. Kings Of Metal [03:43]
D1. Herz Aus Stahl [05:12]
D2. Pleasure Slave (Bonus Track) [05:42]

foobar2000 1.1.18 / Dynamic Range Meter 1.1.1
log date: 2016-12-04 08:28:47

––––––––––––––––––––––––––––––––––––––––
Analyzed: MANOWAR / Kings Of Metal
––––––––––––––––––––––––––––––––––––––––

DR Peak RMS Duration Track
––––––––––––––––––––––––––––––––––––––––
DR11 -1.58 dB -14.89 dB 4:11 01-Wheels Of Fire
DR12 -1.66 dB -14.91 dB 3:44 02-Kings Of Metal
DR11 -2.73 dB -18.36 dB 5:11 03-Heart Of Steel
DR12 -1.53 dB -16.15 dB 2:49 04-Sting Of The Bumblebee
DR11 -2.93 dB -19.79 dB 4:50 05-The Crown And The Ring (Lament Of The Kings)
DR11 -1.69 dB -15.81 dB 3:57 06-Kingdom Come
DR11 -0.85 dB -15.81 dB 5:58 07-Hail And Kill
DR15 -1.79 dB -24.90 dB 4:21 08-The Warriors Prayer
DR12 -2.58 dB -16.41 dB 7:31 09-Blood Of The Kings
DR11 -0.32 dB -13.04 dB 3:43 10-Kings Of Metal
DR11 0.00 dB -15.16 dB 5:12 11-Herz Aus Stahl
DR11 -0.31 dB -13.93 dB 5:42 12-Pleasure Slave (Bonus Track)
––––––––––––––––––––––––––––––––––––––––

Number of tracks: 12
Official DR value: DR12

Samplerate: 44100 Hz
Channels: 2
Bits per sample: 16
Bitrate: 954 kbps
Codec: FLAC
================================================================================




Original ripper: bazar
Original format: 24bit/192kHz
Vinyl Condition: Mint
Direct Drive Turntable: Technics SL-1200MK5
Cleaning:
Cartridge: Numark GrooveTool
Amplifier: Esoteric Sounds Rek-O-Kut Professional Phono Pream
ADC: LynxTwo
Postprocessing:

Downsampled to 16/44

Manowar: Collection (1982 - 2012) [Vinyl Rip 16/44 & mp3-320]

Tracklist VNL07 - The Triumph Of Steel:
(DE 2 x LP 1992 Atlantic Records, 7567-82423-1 DE

AB. Achilles, Agony And Ecstasy In Eight Parts [28:37]
C1. Metal Warriors [03:54]
C2. Ride The Dragon [04:32]
C3. Spirit Horse Of The Cherokee [06:01]
C4. Burning [05:10]
D1. The Power Of Thy Sword [07:51]
D2. The Demon's Whip [07:50]
D3. Master Of The Wind [05:29]

foobar2000 1.1.18 / Dynamic Range Meter 1.1.1
log date: 2016-12-04 08:29:05

––––––––––––––––––––––––––––––––––––––––
Analyzed: MANOWAR / The Triumph Of Steel
––––––––––––––––––––––––––––––––––––––––

DR Peak RMS Duration Track
––––––––––––––––––––––––––––––––––––––––
DR12 0.00 dB -15.68 dB 28:37 01-Achilles, Agony And Ecstasy In Eight Parts
DR13 -0.01 dB -14.67 dB 3:55 02-Metal Warriors
DR12 -0.09 dB -14.68 dB 4:32 03-Ride The Dragon
DR12 -0.51 dB -15.25 dB 6:02 04-Spirit Horse Of The Cherokee
DR13 -0.11 dB -17.44 dB 5:10 05-Burning
DR13 -0.69 dB -16.26 dB 7:51 06-The Power Of Thy Sword
DR12 -0.18 dB -15.81 dB 7:51 07-The Demon's Whip
DR13 -0.57 dB -19.13 dB 5:29 08-Master Of The Wind
––––––––––––––––––––––––––––––––––––––––

Number of tracks: 8
Official DR value: DR12

Samplerate: 44100 Hz
Channels: 2
Bits per sample: 16
Bitrate: 907 kbps
Codec: FLAC
================================================================================




Original ripper: Oleg-Leshiy
Original format: 24bit/192kHz
Vinyl Condition: Mint
Cleaning:
Direct Drive Turntable: Dual 505-4 + AT-OC9/III, Benz-Micro Glider SH
Cartridge:
Amplifier: PS audio Phono Stage + Tube Preamp (Telefunken)
ADC: PS audio Phono Stage + Tube Preamp (Telefunken)
Postprocessing:

Downsampled to 16/44

Manowar: Collection (1982 - 2012) [Vinyl Rip 16/44 & mp3-320]

Tracklist VNL08 - Louder Than Hell:
DE LP 1996 Geffen Records, GEF 24925

A1. Return Of The Warlord [05:24]
A2. Brothers Of Metal Pt.1 [03:59]
A3. The Gods Made Heavy Metal [06:08]
A4. Courage [03:53]
A5. Number 1 [05:13]
B1. Outlaw [03:26]
B2. King [06:31]
B3. Today Is A Good Day To Die [09:45]
B4. My Spirit Lives On [02:14]
B5. The Power [04:11]


foobar2000 1.1.18 / Dynamic Range Meter 1.1.1
log date: 2016-12-04 08:29:19

––––––––––––––––––––––––––––––––––––––––
Analyzed: MANOWAR / Louder Than Hell
––––––––––––––––––––––––––––––––––––––––

DR Peak RMS Duration Track
––––––––––––––––––––––––––––––––––––––––
DR14 -1.92 dB -16.84 dB 5:24 01-Return Of The Warlord
DR14 -1.83 dB -17.84 dB 3:59 02-Brothers Of Metal Pt.1
DR13 -2.72 dB -17.59 dB 6:09 03-The Gods Made Heavy Metal
DR13 -1.82 dB -20.07 dB 3:54 04-Courage
DR13 -1.80 dB -16.05 dB 5:14 05-Number 1
DR13 -1.70 dB -16.56 dB 3:26 06-Outlaw
DR15 -1.81 dB -19.03 dB 6:31 07-King
DR15 -2.64 dB -21.40 dB 9:46 08-Today Is A Good Day To Die
DR12 -7.41 dB -21.93 dB 2:15 09-My Spirit Lives On
DR12 -2.17 dB -15.64 dB 4:12 10-The Power
––––––––––––––––––––––––––––––––––––––––

Number of tracks: 10
Official DR value: DR13

Samplerate: 44100 Hz
Channels: 2
Bits per sample: 16
Bitrate: 916 kbps
Codec: FLAC
================================================================================




Original ripper: Oleg-Leshiy
Original format: 24bit/192kHz
Vinyl Condition: EX
Cleaning:
Direct Drive Turntable: Dual 505-4 + AT-OC9/III, Benz-Micro Glider SH
Cartridge:
Amplifier: PS audio Phono Stage + Tube Preamp (Telefunken)
ADC: MOTU MK3, TASCAM HS-P82
Postprocessing:

Downsampled to 16/44

Manowar: Collection (1982 - 2012) [Vinyl Rip 16/44 & mp3-320]

Tracklist VNL09 - Warriors Of The World:
DE LP 2002 Nuclear Blast Records, NB 0715-1

A1. Call to Arms [05:30]
A2. The Fight for Freedom [04:31]
A3. Nessun Dorma [03:29]
A4. Valhalla [00:35]
A5. Swords in the Wind [05:20]
A6. An American Trilogy [04:17]
B1. The march [04:02]
B2. Warriors of the World United [05:52]
B3. Hand of Doom [05:49]
B4. House of Death [04:24]
B5. Fight Until we Die [04:03]

foobar2000 1.1.18 / Dynamic Range Meter 1.1.1
log date: 2016-12-04 08:29:32

––––––––––––––––––––––––––––––––––––––––
Analyzed: MANOWAR / Warriors Of The World
––––––––––––––––––––––––––––––––––––––––

DR Peak RMS Duration Track
––––––––––––––––––––––––––––––––––––––––
DR12 -1.78 dB -14.69 dB 5:31 01-Call to Arms
DR12 -1.91 dB -16.78 dB 4:31 02-The Fight for Freedom
DR11 -3.15 dB -18.96 dB 3:29 03-Nessun Dorma
DR10 -6.49 dB -17.78 dB 0:35 04-Valhalla
DR11 -2.30 dB -16.02 dB 5:21 05-Swords in the Wind
DR11 -3.05 dB -17.97 dB 4:18 06-An American Trilogy
DR12 -2.65 dB -20.42 dB 4:02 07-The march
DR12 -2.51 dB -16.56 dB 5:52 08-Warriors of the World United
DR12 -1.99 dB -14.98 dB 5:50 09-Hand of Doom
DR12 -2.02 dB -15.94 dB 4:25 10-House of Death
DR11 -2.30 dB -13.81 dB 4:03 11-Fight Until we Die
––––––––––––––––––––––––––––––––––––––––

Number of tracks: 11
Official DR value: DR11

Samplerate: 44100 Hz
Channels: 2
Bits per sample: 16
Bitrate: 940 kbps
Codec: FLAC
================================================================================




Original ripper: Oleg-Leshiy
Original format: 24bit/192kHz
Vinyl Condition: Mint
Cleaning:
Direct Drive Turntable: Dual 505-4 + AT-OC9/III, Benz-Micro Glider SH
Cartridge:
Amplifier: PS audio Phono Stage + Tube Preamp (Telefunken)
ADC: MOTU MK3, TASCAM HS-P82
Postprocessing:

Downsampled to 16/44

Manowar: Collection (1982 - 2012) [Vinyl Rip 16/44 & mp3-320]

Tracklist VNL10 - The Dawn Of Battle:
DE EP 2002 Nuclear Blast Records, NB 1072-1

A1. The Dawn Of Battle [06:47]
B1. I Believe [04:06]
B2. Call To Arms [05:31]

foobar2000 1.1.18 / Dynamic Range Meter 1.1.1
log date: 2016-12-04 08:29:37

––––––––––––––––––––––––––––––––––––––––
Analyzed: MANOWAR / The Dawn Of Battle
––––––––––––––––––––––––––––––––––––––––

DR Peak RMS Duration Track
––––––––––––––––––––––––––––––––––––––––
DR10 -0.67 dB -13.05 dB 6:47 01-The Dawn Of Battle
DR11 -0.39 dB -12.46 dB 4:06 02-I Believe
DR11 -1.69 dB -13.54 dB 5:31 03-Call To Arms
––––––––––––––––––––––––––––––––––––––––

Number of tracks: 3
Official DR value: DR11

Samplerate: 44100 Hz
Channels: 2
Bits per sample: 16
Bitrate: 1039 kbps
Codec: FLAC
================================================================================




Original ripper: bazar
Original format: 24bit/192kHz
Vinyl Condition: Mint
Cleaning:
Direct Drive Turntable: $echnics SL-1200MK5
Cartridge: Numark GrooveTool
Amplifier: Esoteric Sounds Rek-O-Kut Professional Phono Pream
ADC: LynxTwo
Postprocessing:

Downsampled to 16/44

Manowar: Collection (1982 - 2012) [Vinyl Rip 16/44 & mp3-320]

Tracklist VNL11 - Gods Of War:
DE 2 x LP 2007 Magic Circle Music Ltd., MCA 01203-1

A1. Overture To The Hymn Of The Immortal Warriors [06:20]
A2. The Ascension [02:31]
A3. King Of Kings [04:19]
A4. Army Of The Dead, Part I [01:55]
B1. Sleipnir [05:14]
B2. Loki God Of Fire [03:50]
B3. Blood Brothers [04:52]
C1. Overture To Odin [03:43]
C2. The Blood Of Odin [03:58]
C3. Sons Of Odin [06:27]
D1. Glory Majesty Unity [04:50]
D2. Gods Of War [07:27]
D3. Army Of The Dead, Part II [02:22]
E1. Odin [05:28]
E2. Hymn Of The Immortal Warriors [05:30]
E3. Die For Metal (bonus)* [05:17]

foobar2000 1.1.18 / Dynamic Range Meter 1.1.1
log date: 2016-12-04 08:29:57

––––––––––––––––––––––––––––––––––––––––
Analyzed: MANOWAR / Gods Of War
––––––––––––––––––––––––––––––––––––––––

DR Peak RMS Duration Track
––––––––––––––––––––––––––––––––––––––––
DR11 -1.46 dB -15.92 dB 6:21 01-Overture To The Hymn Of The Immortal Warriors
DR11 -2.60 dB -17.92 dB 2:31 02-The Ascension
DR10 -0.24 dB -12.43 dB 4:19 03-King Of Kings
DR9 -4.15 dB -15.95 dB 1:56 04-Army Of The Dead, Part I
DR10 -0.57 dB -12.57 dB 5:14 05-Sleipnir
DR11 -0.17 dB -12.03 dB 3:50 06-Loki God Of Fire
DR11 -1.23 dB -16.35 dB 4:53 07-Blood Brothers
DR10 -2.07 dB -16.50 dB 3:43 08-Overture To Odin
DR11 -3.15 dB -19.33 dB 3:58 09-The Blood Of Odin
DR10 -0.56 dB -12.46 dB 6:27 10-Sons Of Odin
DR13 -4.40 dB -20.66 dB 4:50 11-Glory Majesty Unity
DR11 -0.04 dB -13.76 dB 7:28 12-Gods Of War
DR9 -4.09 dB -16.07 dB 2:23 13-Army Of The Dead, Part II
DR10 -0.33 dB -13.14 dB 5:29 14-Odin
DR11 -0.21 dB -16.17 dB 5:30 15-Hymn Of The Immortal Warriors
DR12 0.00 dB -13.70 dB 5:18 16-Die For Metal
––––––––––––––––––––––––––––––––––––––––

Number of tracks: 16
Official DR value: DR11

Samplerate: 44100 Hz
Channels: 2
Bits per sample: 16
Bitrate: 886 kbps
Codec: FLAC
================================================================================




Original ripper: Oleg-Leshiy
Original format: 24bit/192kHz
Vinyl Condition: NM
Cleaning:
Direct Drive Turntable: Dual 505-4 + AT-OC9/III, Benz-Micro Glider SH
Cartridge:
Amplifier: PS audio Phono Stage + Tube Preamp (Telefunken)
ADC: MOTU MK3, TASCAM HS-P82
Postprocessing:

Downsampled to 16/44

Manowar: Collection (1982 - 2012) [Vinyl Rip 16/44 & mp3-320]

Tracklist VNL12 - Battle Hymns MMXI:
DE LP 2010 Magic Circle Music Ltd., MCA 01238-1

A1. Death Tone [05:08]
A2. Metal Daze [04:34]
A3. Fast Taker [04:08]
A4. Shell Shock [04:14]
A5. Manowar [03:59]
B1. Dark Avenger [06:25]
B2. William's Tale [06:51]
B3. Battle Hymn [04:26]
B4. Fast Taker (bonus)* [03:56]
B5. Death Tone (bonus)* [04:59]

foobar2000 1.1.18 / Dynamic Range Meter 1.1.1
log date: 2016-12-04 08:30:11

––––––––––––––––––––––––––––––––––––––––
Analyzed: MANOWAR / Battle Hymns MMXI
––––––––––––––––––––––––––––––––––––––––

DR Peak RMS Duration Track
––––––––––––––––––––––––––––––––––––––––
DR11 -1.81 dB -14.51 dB 5:09 01-Death Tone
DR11 -2.21 dB -14.50 dB 4:35 02-Metal Daze
DR11 -1.83 dB -14.15 dB 4:09 03-Fast Taker
DR11 -2.85 dB -14.84 dB 4:15 04-Shell Shock
DR11 -3.42 dB -15.53 dB 3:59 05-Manowar
DR10 -2.10 dB -14.47 dB 6:26 06-Dark Avenger
DR11 -1.81 dB -17.00 dB 6:52 07-William's Tale
DR10 -1.76 dB -14.25 dB 4:27 08-Battle Hymn
DR9 -6.49 dB -17.90 dB 3:57 09-Fast Taker
DR10 -5.27 dB -17.95 dB 4:59 10-Death Tone
––––––––––––––––––––––––––––––––––––––––

Number of tracks: 10
Official DR value: DR10

Samplerate: 44100 Hz
Channels: 2
Bits per sample: 16
Bitrate: 953 kbps
Codec: FLAC
================================================================================




Original ripper: Oleg-Leshiy
Original format: 24bit/192kHz
Vinyl Condition: Mint
Cleaning:
Direct Drive Turntable: Dual 505-4 + AT-OC9/III, Benz-Micro Glider SH
Cartridge:
Amplifier: PS audio Phono Stage + Tube Preamp (Telefunken)
ADC: MOTU MK3, TASCAM HS-P82
Postprocessing:

Downsampled to 16/44

Manowar: Collection (1982 - 2012) [Vinyl Rip 16/44 & mp3-320]

Tracklist VNL13 - The Lord Of Steel:
DE 2 x LP 2013 Magic Circle Music Ltd., MCA 01249-1

A1. The Lord Of Steel [04:07]
A2. Born In A Grave [05:02]
A3. Righteous Glory [05:43]
B1. Touch The Sky [03:48]
B2. Black List [06:44]
B3. Annihilation [03:56]
C1. Manowarriors [04:32]
C2. Expendable [03:11]
C3. El Gringo [06:53]
D1. Hail, Kill And Die [03:57]
D2. The Kingdom Of Steel [07:18]

foobar2000 1.1.18 / Dynamic Range Meter 1.1.1
log date: 2016-12-04 08:30:25

––––––––––––––––––––––––––––––––––––––––
Analyzed: MANOWAR / The Lord Of Steel
––––––––––––––––––––––––––––––––––––––––

DR Peak RMS Duration Track
––––––––––––––––––––––––––––––––––––––––
DR11 -1.79 dB -13.65 dB 4:08 01-The Lord Of Steel
DR11 -2.24 dB -14.24 dB 5:02 02-Born In A Grave
DR10 -2.28 dB -15.48 dB 5:43 03-Righteous Glory
DR10 -1.77 dB -12.68 dB 3:48 04-Touch The Sky
DR11 -2.16 dB -15.29 dB 6:45 05-Black List
DR12 -1.81 dB -15.16 dB 3:57 06-Annihilation
DR12 -1.82 dB -14.93 dB 4:32 07-Manowarriors
DR10 -1.80 dB -13.03 dB 3:12 08-Expendable
DR12 -1.82 dB -14.91 dB 6:53 09-El Gringo
DR11 -1.80 dB -14.94 dB 3:58 10-Hail, Kill And Die
DR10 -1.82 dB -15.48 dB 7:19 11-The Kingdom Of Steel
––––––––––––––––––––––––––––––––––––––––

Number of tracks: 11
Official DR value: DR11

Samplerate: 44100 Hz
Channels: 2
Bits per sample: 16
Bitrate: 842 kbps
Codec: FLAC
================================================================================




Original ripper: Oleg-Leshiy
Original format: 24bit/192kHz
Vinyl Condition: NM
Cleaning:
Direct Drive Turntable: Dual 505-4 + AT-OC9/III, Benz-Micro Glider SH
Cartridge:
Amplifier: PS audio Phono Stage + Tube Preamp (Telefunken)
ADC: MOTU MK3, TASCAM HS-P82
Postprocessing:

Downsampled to 16/44

All thanks go to the original releasers



Manowar or Manowar in my Blog

Download Manowar: Collection (1982 - 2012):