Subcategories
Tags
Language
Tags

Marc Bolan & T. Rex - Best of the 20th Century Boy (1986)

Posted By: BlondStyle
Marc Bolan & T. Rex - Best of the 20th Century Boy (1986)

Marc Bolan & T. Rex - Best of the 20th Century Boy (1986)
Rock, Glam Rock, Pop Rock | EAC Rip | FLAC, Img+CUE+LOG+Scans (JPEG) | 01:03:56 | 433,99 Mb
Label: K-Tel (UK) | Cat.# NCD 3325 | Released: 1986
Marc Bolan & T. Rex - Best of the 20th Century Boy (1986)

Best of the 20th Century Boy, it's another retrospective hits compilation. Against all odds, this 20-track disc really is an "ultimate collection," or at least as close as it can possibly get, given the labyrinthine nature of Bolan's catalog.
Marc Bolan & T. Rex - Best of the 20th Century Boy (1986)

Marc Bolan & T. Rex - Best of the 20th Century Boy (1986)


Release of this album/CD: 1986 [CD K-Tel (UK), Cat.# NCD 3325 / UPC: 5012206332521]
℗&© K-tel International (UK) Ltd.
Mastered by Nimbus
Manufactured in the U.K.


Credits:

Compiled By [With The Assistance Of] – John & Shan Bramley
Design [Cover], Artwork – Jerry Evans
Producer – Bonnie & Clyde (tracks: 14), Marc Bolan (tracks: 2, 4, 6, 9 to 13, 15 to 17), Tony Visconti (tracks: 1, 3, 5, 7, 8, 18 to 20)


Tracklist:

01. The Groover (03:25)
02. Dreamy Lady (02:55)
03. Metal Guru (02:29)
04. Laser Love (03:38)
05. Telegram Sam (03:47)
06. Pain and Love (03:44)
07. Children of the Revolution (02:30)
08. Solid Gold Easy Action (02:23)
09. Zip Gun Boogie (03:22)
10. Teenage Dream (05:02)
11. Light of Love (03:16)
12. New York City (03:58)
13. The Soul of My Suit (02:39)
14. Buick McKane & The Babe Shadow (03:31)
15. I Love to Boogie (02:16)
16. Truck on (Tyke) (03:06)
17. London Boys (02:24)
18. Jitterbug Love (02:57)
19. Sunken Rags (02:54)
20. 20th Century Boy (03:40)

Exact Audio Copy V1.0 beta 6 from 9. April 2015

EAC extraction logfile from 24. January 2019, 20:16

Marc Bolan & T.Rex / Best of the 20th Century Boy

Used drive : ATAPI iHAS122 C Adapter: 1 ID: 0

Read mode : Secure
Utilize accurate stream : Yes
Defeat audio cache : Yes
Make use of C2 pointers : No

Read offset correction : 6
Overread into Lead-In and Lead-Out : No
Fill up missing offset samples with silence : Yes
Delete leading and trailing silent blocks : No
Null samples used in CRC calculations : Yes
Used interface : Native Win32 interface for Win NT & 2000

Used output format : Internal WAV Routines
Sample format : 44.100 Hz; 16 Bit; Stereo


TOC of the extracted CD

Track | Start | Length | Start sector | End sector
––––––––––––––––––––––––––––-
1 | 0:00.00 | 3:24.60 | 0 | 15359
2 | 3:24.60 | 2:55.00 | 15360 | 28484
3 | 6:19.60 | 2:28.47 | 28485 | 39631
4 | 8:48.32 | 3:37.45 | 39632 | 55951
5 | 12:26.02 | 3:46.60 | 55952 | 72961
6 | 16:12.62 | 3:44.08 | 72962 | 89769
7 | 19:56.70 | 2:30.20 | 89770 | 101039
8 | 22:27.15 | 2:22.70 | 101040 | 111759
9 | 24:50.10 | 3:22.17 | 111760 | 126926
10 | 28:12.27 | 5:02.18 | 126927 | 149594
11 | 33:14.45 | 3:16.12 | 149595 | 164306
12 | 36:30.57 | 3:57.63 | 164307 | 182144
13 | 40:28.45 | 2:38.65 | 182145 | 194059
14 | 43:07.35 | 3:30.52 | 194060 | 209861
15 | 46:38.12 | 2:16.13 | 209862 | 220074
16 | 48:54.25 | 3:06.35 | 220075 | 234059
17 | 52:00.60 | 2:24.12 | 234060 | 244871
18 | 54:24.72 | 2:56.40 | 244872 | 258111
19 | 57:21.37 | 2:53.53 | 258112 | 271139
20 | 60:15.15 | 3:40.17 | 271140 | 287656


Range status and errors

Selected range

Filename C:\Users\London\Desktop\Marc Bolan & T.Rex - Best of the 20th Century Boy.wav

Peak level 100.0 %
Extraction speed 1.9 X
Range quality 99.9 %
Test CRC 6F551B3F
Copy CRC 6F551B3F
Copy OK

No errors occurred


AccurateRip summary

Track 1 accurately ripped (confidence 4) [DCFE7BB3] (AR v2)
Track 2 accurately ripped (confidence 4) [D613A39F] (AR v2)
Track 3 accurately ripped (confidence 4) [9C8D7A10] (AR v2)
Track 4 accurately ripped (confidence 4) [10DB525E] (AR v2)
Track 5 accurately ripped (confidence 4) [10405F47] (AR v2)
Track 6 accurately ripped (confidence 3) [8B81A794] (AR v2)
Track 7 accurately ripped (confidence 4) [D82AEB42] (AR v2)
Track 8 accurately ripped (confidence 4) [37C37F60] (AR v2)
Track 9 accurately ripped (confidence 4) [8D5D67E2] (AR v2)
Track 10 accurately ripped (confidence 4) [6E461F58] (AR v2)
Track 11 accurately ripped (confidence 4) [23E4E1D0] (AR v2)
Track 12 accurately ripped (confidence 4) [AFC128D6] (AR v2)
Track 13 accurately ripped (confidence 4) [5F420D32] (AR v2)
Track 14 accurately ripped (confidence 4) [AECB3ABD] (AR v2)
Track 15 accurately ripped (confidence 4) [C87C5590] (AR v2)
Track 16 accurately ripped (confidence 4) [C8EC1E5C] (AR v2)
Track 17 accurately ripped (confidence 4) [67E94C03] (AR v2)
Track 18 accurately ripped (confidence 3) [24563458] (AR v2)
Track 19 accurately ripped (confidence 4) [2A260A1C] (AR v2)
Track 20 accurately ripped (confidence 3) [03A33B8F] (AR v2)

All tracks accurately ripped

End of status report

–– CUETools DB Plugin V2.1.6

[CTDB TOCID: lpHgR7vZE.Mw2rNvVZ.e39gJ2dI-] found
Submit result: lpHgR7vZE.Mw2rNvVZ.e39gJ2dI- has been confirmed
Track | CTDB Status
1 | (16/16) Accurately ripped
2 | (16/16) Accurately ripped
3 | (16/16) Accurately ripped
4 | (15/16) Accurately ripped
5 | (15/16) Accurately ripped
6 | (16/16) Accurately ripped
7 | (16/16) Accurately ripped
8 | (16/16) Accurately ripped
9 | (16/16) Accurately ripped
10 | (15/16) Accurately ripped
11 | (16/16) Accurately ripped
12 | (16/16) Accurately ripped
13 | (16/16) Accurately ripped
14 | (16/16) Accurately ripped
15 | (16/16) Accurately ripped
16 | (15/16) Accurately ripped
17 | (16/16) Accurately ripped
18 | (16/16) Accurately ripped
19 | (13/16) Accurately ripped
20 | (15/16) Accurately ripped


==== Log checksum C72A21FCD9FCB1EEBD64F6352AEC5FDBA06689E6591C9B56753D01DECDF2EACC ====

––––––––––––––––––––––––––––––––––––––––
Analyzed: Marc Bolan & T.Rex / Best of the 20th Century Boy
––––––––––––––––––––––––––––––––––––––––

DR Peak RMS Duration Track
––––––––––––––––––––––––––––––––––––––––
DR12 -2.75 dB -16.33 dB 3:25 01-The Groover
DR12 -2.91 dB -18.11 dB 2:55 02-Dreamy Lady
DR12 -2.96 dB -16.33 dB 2:29 03-Metal Guru
DR13 -2.29 dB -17.03 dB 3:38 04-Laser Love
DR12 -1.93 dB -17.04 dB 3:47 05-Telegram Sam
DR14 -2.60 dB -19.01 dB 3:44 06-Pain and Love
DR13 -2.84 dB -16.59 dB 2:30 07-Children of the Revolution
DR12 -3.74 dB -17.98 dB 2:23 08-Solid Gold Easy Action
DR14 0.00 dB -15.88 dB 3:22 09-Zip Gun Boogie
DR13 -2.57 dB -18.36 dB 5:02 10-Teenage Dream
DR12 -2.51 dB -17.03 dB 3:16 11-Light of Love
DR13 -2.43 dB -18.05 dB 3:58 12-New York City
DR12 -3.77 dB -17.48 dB 2:39 13-The Soul of My Suit
DR14 -0.48 dB -15.96 dB 3:31 14-Buick McKane & The Babe Shadow
DR15 -3.76 dB -21.36 dB 2:16 15-I Love to Boogie
DR13 -4.38 dB -19.39 dB 3:06 16-Truck on (Tyke)
DR13 -2.19 dB -16.80 dB 2:24 17-London Boys
DR12 -3.06 dB -16.19 dB 2:57 18-Jitterbug Love
DR12 -3.84 dB -16.91 dB 2:54 19-Sunken Rags
DR11 -2.69 dB -15.74 dB 3:40 20-20th Century Boy
––––––––––––––––––––––––––––––––––––––––

Number of tracks: 20
Official DR value: DR13

Samplerate: 44100 Hz
Channels: 2
Bits per sample: 16
Bitrate: 847 kbps
Codec: FLAC
================================================================================

Thanks to my friend, London

♫~Welcome To My Blog~♫

password: BlondStyle