Subcategories

Marc Bolan & T.Rex - The Best of the BBC Recordings (2008)

Posted By: jclane
Marc Bolan & T.Rex - The Best of the BBC Recordings (2008)

Marc Bolan & T.Rex - The Best of the BBC Recordings (2008)
EAC Rip | FLAC Image + Cue + Log - 278 MB | MP3 CBR @320 kbps - 148 MB | Full scans - 19.3 MB
Label: Polydor Ltd., UK | Catalog.#: 5307590 | Genre: Glam Rock

Glam-rock god Marc Bolan put T. Rex on the rock-&-roll map in the 1970s with such classics as “Jeepster” and “Telegram Sam,” but this collection of their late-'60s/early-'70s BBC recordings paints a picture of a group in transition. While the '60s material is full of hippie-era psych-folk whimsy, you can hear the sandals fall away, replaced by platform heels, as the T. Rex sound is electrified and toughened up on the '70s tracks, until it reaches the classic glam-rock sound of the 'Electric Warrior' era. No one ever sounded quite like T. Rex in any phase of their work, and 'The Best Of The BBC Recordings' offers a unique glimpse into their artistic growth.

Track Listing

01. Top Gear Jingle - 0:13
02. Beltane Walk - 2:23
03. Life's a Gas - 2:19
04. Jeepster - 3:10
05. Iscariot - 1:55
06. Get It On - 4:40
07. Sun Eye - 2:00
08. By the Light of the Magical Moon - 3:09
09. Cadillac - 2:49
10. A Day Laye - 2:01
11. Jewel - 3:21
12. Hot Love - 2:49
13. Girl - 2:14
14. Elemental Child - 6:03
15. Scenescof - 1:41
16. Summertime Blues - 3:34
17. Debora - 3:25
18. Once Upon the Seas of Abyssinia - 2:03
19. Chariots of Silk - 2:32
20. Ride a White Swan - 2:03
21. Electric Boogie - 1:47
22. Untitled (A Ship of Rhythm) - 0:37
23. Sailors of the Highway - 2:47
24. Telegram Sam - 2:47


Exact Audio Copy V1.0 beta 3 from 29. August 2011

EAC extraction logfile from 25. May 2014, 13:45

Marc Bolan & T.Rex / The Best of the BBC Recordings

Used drive : PLEXTOR DVDR PX-716A Adapter: 3 ID: 0

Read mode : Secure
Utilize accurate stream : Yes
Defeat audio cache : Yes
Make use of C2 pointers : No

Read offset correction : 30
Overread into Lead-In and Lead-Out : No
Fill up missing offset samples with silence : Yes
Delete leading and trailing silent blocks : No
Null samples used in CRC calculations : Yes
Used interface : Native Win32 interface for Win NT & 2000

Used output format : User Defined Encoder
Selected bitrate : 1024 kBit/s
Quality : High
Add ID3 tag : No
Command line compressor : C:\Program Files (x86)\Exact Audio Copy\wavpack.exe
Additional command line options : -hlm %source%

TOC of the extracted CD

Track | Start | Length | Start sector | End sector
––––––––––––––––––––––––––––-
1 | 0:00.00 | 0:13.27 | 0 | 1001
2 | 0:13.27 | 2:23.21 | 1002 | 11747
3 | 2:36.48 | 2:19.72 | 11748 | 22244
4 | 4:56.45 | 3:10.39 | 22245 | 36533
5 | 8:07.09 | 1:55.01 | 36534 | 45159
6 | 10:02.10 | 4:40.55 | 45160 | 66214
7 | 14:42.65 | 2:00.73 | 66215 | 75287
8 | 16:43.63 | 3:09.53 | 75288 | 89515
9 | 19:53.41 | 2:49.19 | 89516 | 102209
10 | 22:42.60 | 2:01.11 | 102210 | 111295
11 | 24:43.71 | 3:21.13 | 111296 | 126383
12 | 28:05.09 | 2:49.40 | 126384 | 139098
13 | 30:54.49 | 2:14.11 | 139099 | 149159
14 | 33:08.60 | 6:03.10 | 149160 | 176394
15 | 39:11.70 | 1:41.12 | 176395 | 183981
16 | 40:53.07 | 3:34.48 | 183982 | 200079
17 | 44:27.55 | 3:25.25 | 200080 | 215479
18 | 47:53.05 | 2:03.70 | 215480 | 224774
19 | 49:57.00 | 2:32.02 | 224775 | 236176
20 | 52:29.02 | 2:03.34 | 236177 | 245435
21 | 54:32.36 | 1:47.74 | 245436 | 253534
22 | 56:20.35 | 0:37.63 | 253535 | 256372
23 | 56:58.23 | 2:47.73 | 256373 | 268970
24 | 59:46.21 | 2:47.73 | 268971 | 281568

Range status and errors

Selected range

Filename D:\wwphil\Marc Bolan & T.Rex - The Best of the BBC Recordings\Marc Bolan & T.Rex - The Best of the BBC Recordings.wav

Peak level 96.6 %
Extraction speed 3.7 X
Range quality 99.9 %
Test CRC 3C893D94
Copy CRC 3C893D94
Copy OK

No errors occurred

AccurateRip summary

Track 1 accurately ripped (confidence 3) [F6C02E73] (AR v2)
Track 2 accurately ripped (confidence 3) [DD7962D0] (AR v2)
Track 3 accurately ripped (confidence 3) [01200A20] (AR v2)
Track 4 accurately ripped (confidence 3) [F5CE72F5] (AR v2)
Track 5 accurately ripped (confidence 3) [619112F6] (AR v2)
Track 6 accurately ripped (confidence 3) [F0206C3B] (AR v2)
Track 7 accurately ripped (confidence 3) [280CC4A2] (AR v2)
Track 8 accurately ripped (confidence 3) [3AC98C00] (AR v2)
Track 9 accurately ripped (confidence 3) [43E7BCA2] (AR v2)
Track 10 accurately ripped (confidence 3) [0416DC58] (AR v2)
Track 11 accurately ripped (confidence 3) [4BEF715D] (AR v2)
Track 12 accurately ripped (confidence 3) [D9AD45C2] (AR v2)
Track 13 accurately ripped (confidence 3) [FE43F1C8] (AR v2)
Track 14 accurately ripped (confidence 3) [6E58A186] (AR v2)
Track 15 accurately ripped (confidence 3) [1A2D113E] (AR v2)
Track 16 accurately ripped (confidence 3) [3EBB99A8] (AR v2)
Track 17 accurately ripped (confidence 3) [6C5A4DD4] (AR v2)
Track 18 accurately ripped (confidence 3) [BAA2EBB2] (AR v2)
Track 19 accurately ripped (confidence 3) [64DB80CD] (AR v2)
Track 20 accurately ripped (confidence 3) [EC95994E] (AR v2)
Track 21 accurately ripped (confidence 3) [FA33C2A9] (AR v2)
Track 22 accurately ripped (confidence 3) [19003891] (AR v2)
Track 23 accurately ripped (confidence 3) [8BAB6DCE] (AR v2)
Track 24 accurately ripped (confidence 3) [53E4DBEB] (AR v2)

All tracks accurately ripped

End of status report

==== Log checksum 3E34332828ABD96245FE42AB53CB8E8DE26793C3978697C511AFABAF5FEB0D07 ====


[CUETools log; Date: 5/26/2014 6:07:57 AM; Version: 2.1.4]
[CTDB TOCID: I9FCPvlVttgpamKwCDGoKx8Ua1s-] found.
Track | CTDB Status
1 | (2/2) Accurately ripped
2 | (2/2) Accurately ripped
3 | (2/2) Accurately ripped
4 | (2/2) Accurately ripped
5 | (2/2) Accurately ripped
6 | (2/2) Accurately ripped
7 | (2/2) Accurately ripped
8 | (2/2) Accurately ripped
9 | (2/2) Accurately ripped
10 | (2/2) Accurately ripped
11 | (2/2) Accurately ripped
12 | (2/2) Accurately ripped
13 | (2/2) Accurately ripped
14 | (2/2) Accurately ripped
15 | (2/2) Accurately ripped
16 | (2/2) Accurately ripped
17 | (2/2) Accurately ripped
18 | (2/2) Accurately ripped
19 | (2/2) Accurately ripped
20 | (2/2) Accurately ripped
21 | (2/2) Accurately ripped
22 | (2/2) Accurately ripped
23 | (2/2) Accurately ripped
24 | (2/2) Accurately ripped
[AccurateRip ID: 0035b0a6-03b3894b-820eaa18] found.
Track [ CRC | V2 ] Status
01 [753c6cf1|f6c02e73] (3+3/6) Accurately ripped
02 [7d272c7a|dd7962d0] (3+3/6) Accurately ripped
03 [5a145242|01200a20] (3+3/6) Accurately ripped
04 [af7e328b|f5ce72f5] (3+3/6) Accurately ripped
05 [3881bc82|619112f6] (3+3/6) Accurately ripped
06 [3ec14665|f0206c3b] (3+3/6) Accurately ripped
07 [d9b6530b|280cc4a2] (3+3/6) Accurately ripped
08 [50582aff|3ac98c00] (3+3/6) Accurately ripped
09 [3e621863|43e7bca2] (3+3/6) Accurately ripped
10 [8c164982|0416dc58] (3+3/6) Accurately ripped
11 [fe2abf6c|4bef715d] (3+3/6) Accurately ripped
12 [b73ccb95|d9ad45c2] (3+3/6) Accurately ripped
13 [3b5e5412|fe43f1c8] (3+3/6) Accurately ripped
14 [00d49245|6e58a186] (3+3/6) Accurately ripped
15 [597ad360|1a2d113e] (3+3/6) Accurately ripped
16 [c498d862|3ebb99a8] (3+3/6) Accurately ripped
17 [e2599f15|6c5a4dd4] (3+3/6) Accurately ripped
18 [d7d032f0|baa2ebb2] (3+3/6) Accurately ripped
19 [aa173063|64db80cd] (3+3/6) Accurately ripped
20 [43a89a53|ec95994e] (3+3/6) Accurately ripped
21 [b59485da|fa33c2a9] (3+3/6) Accurately ripped
22 [7eef0cdd|19003891] (3+3/6) Accurately ripped
23 [6fb31319|8bab6dce] (3+3/6) Accurately ripped
24 [7943ae2f|53e4dbeb] (3+3/6) Accurately ripped

Track Peak [ CRC32 ] [W/O NULL] [ LOG ]
– 96.6 [3C893D94] [66376C98] CRC32
01 74.6 [850B263B] [A5E80C65]
02 96.6 [4DFF2C97] [B7B0C395]
03 95.5 [B3B8EB05] [70D52BC0]
04 95.5 [393AFC29] [B288D03B]
05 92.3 [1D9670F2] [9F1B1EDC]
06 95.5 [2A72558D] [2442E1A8]
07 85.7 [DF6E10A1] [A90DC87D]
08 95.5 [348C846C] [56CBC052]
09 95.5 [ABABFB4A] [F18BFD9C]
10 95.5 [06CCD988] [65A5BCC7]
11 95.5 [44736DD0] [E59122DE]
12 96.6 [6462EF63] [48373923]
13 95.5 [72694737] [13D9E534]
14 96.6 [A3E2FDB7] [F42A1E1C]
15 95.5 [50A8E5A8] [B1E315B7]
16 95.5 [FB6B678D] [46FA333D]
17 95.5 [8FC56AF4] [EFB5A28D]
18 95.5 [8667885D] [5757C407]
19 95.5 [A850F0E9] [6244FCB7]
20 95.5 [D6864349] [E8F8334B]
21 95.5 [F2C77B1B] [D82133FD]
22 84.1 [6D97B9BF] [197208A9]
23 96.6 [81647597] [3B239FF6]
24 96.6 [2D60209F] [A5A488F7]


Released Date: April 15, 2008
Format: CD, Compilation
Length: 62:33

Marc Bolan & T.Rex - The Best of the BBC Recordings (2008)
Marc Bolan & T.Rex - The Best of the BBC Recordings (2008)

Ripped by wwphil


All links are interchangeable!

Dead Links? please send me a private message.