Subcategories

Marcus Miller - Renaissance (2012) {3 Deuces} [Re-Up]

Posted By: tiburon
Marcus Miller - Renaissance (2012) {3 Deuces} [Re-Up]

Marcus Miller - Renaissance (2012)
EAC 1.0b3 | FLAC tracks level 8 | Cue+Log+M3U+MD5 | Full Scans 300dpi | 463MB + 5% Recovery
MP3 CBR 320 Kbps | 198MB + 5% Recovery
Genre: Jazz Funk, Fusion

An album entitled Renaissance is long overdue for the widely acclaimed Renaissance Man Marcus Miller. In among the most enviable careers in music, Miller is a two-time Grammy-winner and the composer/producer of ten critically acclaimed and genre-defying albums (seven studio and three live). Even the most devoted follower may be astonished to realise that Renaissance is only his eighth studio project since his 1983 debut, Suddenly, considering the abundance of occasions Miller's name has appeared within album credits and that he has dazzled with performances, compositions and productions in the company of some of the world s most respected and accomplished players and superstars - from the mid-'70s to the present.
Track List
01. Detroit 5:44
02. Redemption 6:09
03. February 4:15
04. Slippin' Into Darkness 9:15
05. Setembro (Brazilian Wedding Song) 6:38
06. Jekyll & Hyde 6:30
07. Interlude: Nocturnal Mist 1:16
08. Revelation 4:46
09. Mr. Clean 5:01
10. Goree (Go-ray) 5:38
11. Cee-Tee-Eye 7:39
12. Tightrope 5:46
13. I'll Be There 3:46
14. Rebop (Bonus Track) 2:03

musicians
Marcus Miller - Fender Jazz bass, Fender fretless bass, bass clarinet, acoustic bass
Louis Cato - drums, djembe
Kris Bowers - piano, Fender Rhodes
Adam Agati - guitar
Alex Han - alto sax
Maurice Brown - trumpet, muted trumpet
Federico Gonzalez Pena - Fender Rhodes, piano
Adam Rogers - guitar, acoustic guitar
Sean Jones - trumpet
Gretchen Parlato - vocals on track 5
Ruben Blades - vocals on track 5
Ramon Yslas - percussion
Bobby Sparks - organ
Paul Jackson, Jr. - guitar on track 11
Dr. John - vocals on track 12

Produced by Marcus Miller


Exact Audio Copy V1.0 beta 3 from 29. August 2011

EAC extraction logfile from 26. June 2012, 17:43

Marcus Miller / Renaissance

Used drive : HL-DT-STDVDRAM GH20NS10 Adapter: 2 ID: 1

Read mode : Secure
Utilize accurate stream : Yes
Defeat audio cache : Yes
Make use of C2 pointers : No

Read offset correction : 667
Overread into Lead-In and Lead-Out : No
Fill up missing offset samples with silence : Yes
Delete leading and trailing silent blocks : No
Null samples used in CRC calculations : Yes
Used interface : Native Win32 interface for Win NT & 2000
Gap handling : Appended to previous track

Used output format : User Defined Encoder
Selected bitrate : 1024 kBit/s
Quality : High
Add ID3 tag : No
Command line compressor : C:\Program Files\Exact Audio Copy\Flac\flac.exe
Additional command line options : -8 -V -T "ARTIST=%artist%" -T "TITLE=%title%" -T "ALBUM=%albumtitle%" -T "DATE=%year%" -T "TRACKNUMBER=%tracknr%" -T "TOTALTRACKS=%numtracks%" -T "GENRE=%genre%" -T "ALBUMARTIST=%albumartist%" -T "ALBUM ARTIST=%albumartist%" -T "COMMENT=EAC Secure Mode, Test & Copy, AccurateRip, FLAC -8" %source%


TOC of the extracted CD

Track | Start | Length | Start sector | End sector
––––––––––––––––––––––––––––-
1 | 0:00.00 | 5:45.72 | 0 | 25946
2 | 5:45.72 | 6:09.41 | 25947 | 53662
3 | 11:55.38 | 4:15.28 | 53663 | 72815
4 | 16:10.66 | 9:17.36 | 72816 | 114626
5 | 25:28.27 | 6:39.25 | 114627 | 144576
6 | 32:07.52 | 6:30.70 | 144577 | 173896
7 | 38:38.47 | 1:16.18 | 173897 | 179614
8 | 39:54.65 | 4:46.43 | 179615 | 201107
9 | 44:41.33 | 5:01.12 | 201108 | 223694
10 | 49:42.45 | 5:38.71 | 223695 | 249115
11 | 55:21.41 | 7:39.70 | 249116 | 283610
12 | 63:01.36 | 5:46.69 | 283611 | 309629
13 | 68:48.30 | 3:50.21 | 309630 | 326900
14 | 72:38.51 | 2:03.00 | 326901 | 336125


Track 1

Filename D:\Marcus Miller - Renaissance (2012) [FLAC]\01 - Detroit.wav

Pre-gap length 0:00:02.00

Peak level 99.9 %
Extraction speed 5.0 X
Track quality 100.0 %
Test CRC 31B65E1A
Copy CRC 31B65E1A
Track not present in AccurateRip database
Copy OK

Track 2

Filename D:\Marcus Miller - Renaissance (2012) [FLAC]\02 - Redemption.wav

Pre-gap length 0:00:01.19

Peak level 98.8 %
Extraction speed 5.6 X
Track quality 100.0 %
Test CRC AFE73D23
Copy CRC AFE73D23
Track not present in AccurateRip database
Copy OK

Track 3

Filename D:\Marcus Miller - Renaissance (2012) [FLAC]\03 - February.wav

Peak level 99.9 %
Extraction speed 5.8 X
Track quality 100.0 %
Test CRC 22C49A26
Copy CRC 22C49A26
Track not present in AccurateRip database
Copy OK

Track 4

Filename D:\Marcus Miller - Renaissance (2012) [FLAC]\04 - Slippin' Into Darkness.wav

Peak level 99.9 %
Extraction speed 7.0 X
Track quality 100.0 %
Test CRC 814DF7C8
Copy CRC 814DF7C8
Track not present in AccurateRip database
Copy OK

Track 5

Filename D:\Marcus Miller - Renaissance (2012) [FLAC]\05 - Setembro (Brazilian Wedding Song).wav

Pre-gap length 0:00:01.56

Peak level 97.5 %
Extraction speed 6.5 X
Track quality 100.0 %
Test CRC E8BE7630
Copy CRC E8BE7630
Track not present in AccurateRip database
Copy OK

Track 6

Filename D:\Marcus Miller - Renaissance (2012) [FLAC]\06 - Jekyll & Hyde.wav

Pre-gap length 0:00:01.22

Peak level 99.9 %
Extraction speed 6.8 X
Track quality 100.0 %
Test CRC 665CFD0B
Copy CRC 665CFD0B
Track not present in AccurateRip database
Copy OK

Track 7

Filename D:\Marcus Miller - Renaissance (2012) [FLAC]\07 - Interlude- Nocturnal Mist.wav

Peak level 84.5 %
Extraction speed 5.4 X
Track quality 100.0 %
Test CRC 9BE7D08C
Copy CRC 9BE7D08C
Track not present in AccurateRip database
Copy OK

Track 8

Filename D:\Marcus Miller - Renaissance (2012) [FLAC]\08 - Revelation.wav

Peak level 99.9 %
Extraction speed 6.5 X
Track quality 100.0 %
Test CRC A6568161
Copy CRC A6568161
Track not present in AccurateRip database
Copy OK

Track 9

Filename D:\Marcus Miller - Renaissance (2012) [FLAC]\09 - Mr. Clean.wav

Peak level 98.8 %
Extraction speed 5.9 X
Track quality 100.0 %
Test CRC 078604FE
Copy CRC 078604FE
Track not present in AccurateRip database
Copy OK

Track 10

Filename D:\Marcus Miller - Renaissance (2012) [FLAC]\10 - Goree (Go-ray).wav

Peak level 99.9 %
Extraction speed 5.3 X
Track quality 99.9 %
Test CRC EC2AEE42
Copy CRC EC2AEE42
Track not present in AccurateRip database
Copy OK

Track 11

Filename D:\Marcus Miller - Renaissance (2012) [FLAC]\11 - Cee-Tee-Eye.wav

Peak level 99.9 %
Extraction speed 8.6 X
Track quality 100.0 %
Test CRC 16294953
Copy CRC 16294953
Track not present in AccurateRip database
Copy OK

Track 12

Filename D:\Marcus Miller - Renaissance (2012) [FLAC]\12 - Tightrope.wav

Peak level 99.9 %
Extraction speed 7.5 X
Track quality 99.9 %
Test CRC D1A98DBF
Copy CRC D1A98DBF
Track not present in AccurateRip database
Copy OK

Track 13

Filename D:\Marcus Miller - Renaissance (2012) [FLAC]\13 - I'll Be There.wav

Peak level 98.8 %
Extraction speed 8.8 X
Track quality 100.0 %
Test CRC CC5E600C
Copy CRC CC5E600C
Track not present in AccurateRip database
Copy OK

Track 14

Filename D:\Marcus Miller - Renaissance (2012) [FLAC]\14 - Rebop.wav

Pre-gap length 0:00:03.61

Peak level 98.8 %
Extraction speed 8.0 X
Track quality 100.0 %
Test CRC 384AE381
Copy CRC 384AE381
Track not present in AccurateRip database
Copy OK


None of the tracks are present in the AccurateRip database

No errors occurred

End of status report

==== Log checksum F84A4406A5D5995DC0710663D329B38AC31A9212B4F6571C147188A65D66E460 ====


––––––––––––––––––––––––––––––––––––––––
Analyzed: Marcus Miller / Renaissance
––––––––––––––––––––––––––––––––––––––––

DR Peak RMS Duration Track
––––––––––––––––––––––––––––––––––––––––
DR7 0.00 dB -9.28 dB 5:46 01-Detroit
DR8 -0.10 dB -10.68 dB 6:10 02-Redemption
DR8 0.00 dB -10.98 dB 4:15 03-February
DR8 0.00 dB -10.59 dB 9:17 04-Slippin' Into Darkness
DR9 -0.22 dB -11.06 dB 6:39 05-Setembro (Brazilian Wedding Song)
DR8 0.00 dB -10.30 dB 6:31 06-Jekyll & Hyde
DR9 -1.46 dB -13.83 dB 1:16 07-Interlude: Nocturnal Mist
DR6 0.00 dB -8.17 dB 4:47 08-Revelation
DR8 -0.10 dB -10.05 dB 5:01 09-Mr. Clean
DR8 0.00 dB -11.23 dB 5:39 10-Goree (Go-ray)
DR9 0.00 dB -11.17 dB 7:40 11-Cee-Tee-Eye
DR8 0.00 dB -9.29 dB 5:47 12-Tightrope
DR11 -0.10 dB -13.79 dB 3:50 13-I'll Be There
DR11 -0.10 dB -13.57 dB 2:03 14-Rebop
––––––––––––––––––––––––––––––––––––––––

Number of tracks: 14
Official DR value: DR8

Samplerate: 44100 Hz
Channels: 2
Bits per sample: 16
Bitrate: 501 kbps
Codec: FLAC
================================================================================

Marcus Miller - Renaissance (2012) {3 Deuces} [Re-Up]
Marcus Miller - Renaissance (2012) {3 Deuces} [Re-Up]
Marcus Miller - Renaissance (2012) {3 Deuces} [Re-Up]