Subcategories

Marillion - Marbles In The Park (2017)

Posted By: popsakov
Marillion - Marbles In The Park (2017)

Marillion - Marbles In The Park (2017)
2CD | EAC Rip | FLAC (Img) + Cue + Log ~ 810 Mb | Scans Included (JPG, 600 dpi) | RAR 5% Recovery
Progressive Rock | e·a·r·@MUSIC / Racket Records #0211709EMU

Recorded Live At Center Parcs, Port Zélande, The Netherlands, Saturday 21 March 2015.. Since 2002 and in a 2-year cycle, Marillion welcome their dedicated fans to a very special weekend: the Marillion weekend. On three nights, Marillion perform three different shows with different setlists consisting of full records played from start to finish, fan favourites and rarities. Fans travel from all over the world to be part of these truly amazing nights. From Friday 20th March to Sunday 22nd March the Marillion weekend took place at Center Parcs, Port Zélande, The Netherlands. On Saturday night Marillion performed one of their best and most successful albums… Marbles! With their imposing live show containing stunning projections and laser effects, Marillion once again proved to be one of the leading audio-visual musicians of the present time.

***************

Marillion - Marbles In The Park (2017)

Marillion - Marbles In The Park (2017)

Track List CD1:

01. The Invisible Man [15:44]
02. Marbles I [1:47]
03. Genie [4:51]
04. Fantastic Place [6:31]
05. The Only Unforgivable Thing [6:52]
06. Marbles II [3:05]
07. Ocean Cloud [17:21]
08. Marbles III [1:49]
09. The Damage [4:43]

Exact Audio Copy V1.1 from 23. June 2015

EAC extraction logfile from 22. January 2017, 13:18

Marillion / Marbles In The Park (CD1)

Used drive : Pioneer BDR-S09XL Adapter: 0 ID: 0

Read mode : Secure
Utilize accurate stream : Yes
Defeat audio cache : Yes
Make use of C2 pointers : No

Read offset correction : 6
Overread into Lead-In and Lead-Out : No
Fill up missing offset samples with silence : Yes
Delete leading and trailing silent blocks : No
Null samples used in CRC calculations : Yes
Used interface : Installed external ASPI interface

Used output format : Internal WAV Routines
Sample format : 44.100 Hz; 16 Bit; Stereo


TOC of the extracted CD

Track | Start | Length | Start sector | End sector
––––––––––––––––––––––––––––-
1 | 0:00.00 | 15:43.72 | 0 | 70796
2 | 15:43.72 | 1:46.74 | 70797 | 78820
3 | 17:30.71 | 4:50.69 | 78821 | 100639
4 | 22:21.65 | 6:31.03 | 100640 | 129967
5 | 28:52.68 | 6:51.66 | 129968 | 160858
6 | 35:44.59 | 3:05.27 | 160859 | 174760
7 | 38:50.11 | 17:20.72 | 174761 | 252832
8 | 56:11.08 | 1:48.44 | 252833 | 260976
9 | 57:59.52 | 4:43.12 | 260977 | 282213


Range status and errors

Selected range

Filename A:\Spots\EAC\Marillion - Marbles In The Park\CD1\Marillion - Marbles In The Park (CD1).wav

Peak level 96.7 %
Extraction speed 7.6 X
Range quality 100.0 %
Test CRC 1A8D88A1
Copy CRC 1A8D88A1
Copy OK

No errors occurred


AccurateRip summary

Track 1 not present in database
Track 2 not present in database
Track 3 not present in database
Track 4 not present in database
Track 5 not present in database
Track 6 not present in database
Track 7 not present in database
Track 8 not present in database
Track 9 not present in database

None of the tracks are present in the AccurateRip database

End of status report

foobar2000 1.2.6 / Dynamic Range Meter 1.1.1
log date: 2017-01-24 01:57:20

––––––––––––––––––––––––––––––––––––––––
Analyzed: Marillion / Marbles In The Park (CD1)
––––––––––––––––––––––––––––––––––––––––

DR Peak RMS Duration Track
––––––––––––––––––––––––––––––––––––––––
DR12 -0.92 dB -16.87 dB 15:44 01-The Invisible Man
DR13 -5.07 dB -22.11 dB 1:47 02-Marbles I
DR12 -1.39 dB -16.65 dB 4:51 03-Genie
DR12 -1.13 dB -16.80 dB 6:31 04-Fantastic Place
DR11 -1.80 dB -15.70 dB 6:52 05-The Only Unforgivable Thing
DR13 -0.79 dB -18.85 dB 3:05 06-Marbles II
DR12 -0.29 dB -17.04 dB 17:21 07-Ocean Cloud
DR11 -4.67 dB -19.09 dB 1:49 08-Marbles III
DR11 -0.82 dB -13.98 dB 4:43 09-The Damage
––––––––––––––––––––––––––––––––––––––––

Number of tracks: 9
Official DR value: DR12

Samplerate: 44100 Hz
Channels: 2
Bits per sample: 16
Bitrate: 788 kbps
Codec: FLAC
================================================================================

[CUETools log; Date: 24.01.2017 1:56:52; Version: 2.1.5]
[CTDB TOCID: xWbDgys99wo0AczjTkWJHQoRHgQ-] found.
Track | CTDB Status
1 | (7/7) Accurately ripped
2 | (7/7) Accurately ripped
3 | (7/7) Accurately ripped
4 | (7/7) Accurately ripped
5 | (7/7) Accurately ripped
6 | (7/7) Accurately ripped
7 | (7/7) Accurately ripped
8 | (7/7) Accurately ripped
9 | (7/7) Accurately ripped
[AccurateRip ID: 001711be-00a4fc78-6d0eb209] disk not present in database.

Track Peak [ CRC32 ] [W/O NULL] [ LOG ]
– 96,7 [1A8D88A1] [F5F773E2] CRC32
01 89,9 [4127E22A] [017C7E89]
02 55,7 [01A13D27] [D1A3B989]
03 85,1 [DEDD7D2C] [CD8FBAF3]
04 87,7 [74D52DB2] [C4A9F43A]
05 81,2 [B8CE4C61] [27559EAC]
06 91,3 [D6A7629E] [E610A4E1]
07 96,7 [2EBD2247] [5E4473CA]
08 58,4 [1F93E890] [058758C4]
09 90,9 [75601282] [B952E271]

Marillion - Marbles In The Park (2017)

Marillion - Marbles In The Park (2017)

Track List CD2:

01. Don't Hurt Yourself [5:40]
02. You're Gone [6:59]
03. Angelina [10:42]
04. Drilling Holes [5:07]
05. Marbles IV [1:25]
06. Neverland [11:04]
07. Out Of This World [7:26]
08. King [7:55]
09. Sounds That Can't Be Made [11:29]

Exact Audio Copy V1.1 from 23. June 2015

EAC extraction logfile from 22. January 2017, 14:43

Marillion / Marbles In The Park (CD2)

Used drive : Pioneer BDR-S09XLT Adapter: 0 ID: 0

Read mode : Secure
Utilize accurate stream : Yes
Defeat audio cache : Yes
Make use of C2 pointers : No

Read offset correction : 6
Overread into Lead-In and Lead-Out : No
Fill up missing offset samples with silence : Yes
Delete leading and trailing silent blocks : No
Null samples used in CRC calculations : Yes
Used interface : Installed external ASPI interface

Used output format : Internal WAV Routines
Sample format : 44.100 Hz; 16 Bit; Stereo


TOC of the extracted CD

Track | Start | Length | Start sector | End sector
––––––––––––––––––––––––––––-
1 | 0:00.00 | 5:40.16 | 0 | 25515
2 | 5:40.16 | 6:59.10 | 25516 | 56950
3 | 12:39.26 | 10:42.08 | 56951 | 105108
4 | 23:21.34 | 5:06.53 | 105109 | 128111
5 | 28:28.12 | 1:25.08 | 128112 | 134494
6 | 29:53.20 | 11:03.45 | 134495 | 184264
7 | 40:56.65 | 7:26.10 | 184265 | 217724
8 | 48:23.00 | 7:54.44 | 217725 | 253318
9 | 56:17.44 | 11:28.45 | 253319 | 304963


Range status and errors

Selected range

Filename A:\Spots\EAC\Marillion - Marbles In The Park\CD2\Marillion - Marbles In The Park (CD2).wav

Peak level 92.8 %
Extraction speed 7.5 X
Range quality 100.0 %
Test CRC 5D94EC76
Copy CRC 5D94EC76
Copy OK

No errors occurred


AccurateRip summary

Track 1 not present in database
Track 2 not present in database
Track 3 not present in database
Track 4 not present in database
Track 5 not present in database
Track 6 not present in database
Track 7 not present in database
Track 8 not present in database
Track 9 not present in database

None of the tracks are present in the AccurateRip database

End of status report

foobar2000 1.2.6 / Dynamic Range Meter 1.1.1
log date: 2017-01-24 01:58:41

––––––––––––––––––––––––––––––––––––––––
Analyzed: Marillion / Marbles In The Park (CD2)
––––––––––––––––––––––––––––––––––––––––

DR Peak RMS Duration Track
––––––––––––––––––––––––––––––––––––––––
DR13 -1.38 dB -15.99 dB 5:40 01-Don't Hurt Yourself
DR12 -0.64 dB -14.97 dB 6:59 02-You're Gone
DR11 -3.71 dB -18.84 dB 10:42 03-Angelina
DR12 -0.72 dB -15.84 dB 5:07 04-Drilling Holes
DR10 -7.18 dB -20.22 dB 1:25 05-Marbles IV
DR12 -0.90 dB -16.22 dB 11:04 06-Neverland
DR12 -2.24 dB -17.62 dB 7:26 07-Out Of This World
DR12 -0.67 dB -17.10 dB 7:55 08-King
DR12 -0.78 dB -15.48 dB 11:29 09-Sounds That Can't Be Made
––––––––––––––––––––––––––––––––––––––––

Number of tracks: 9
Official DR value: DR12

Samplerate: 44100 Hz
Channels: 2
Bits per sample: 16
Bitrate: 807 kbps
Codec: FLAC
================================================================================

[CUETools log; Date: 24.01.2017 1:58:45; Version: 2.1.5]
[CTDB TOCID: 7IK2mGDYDf5yY_0Ocb9BUzO9udA-] found.
Track | CTDB Status
1 | (6/6) Accurately ripped
2 | (6/6) Accurately ripped
3 | (6/6) Accurately ripped
4 | (6/6) Accurately ripped
5 | (6/6) Accurately ripped
6 | (6/6) Accurately ripped
7 | (6/6) Accurately ripped
8 | (6/6) Accurately ripped
9 | (5/6) Accurately ripped
[AccurateRip ID: 00158598-009f784a-790fe209] disk not present in database.

Track Peak [ CRC32 ] [W/O NULL] [ LOG ]
– 92,8 [5D94EC76] [CE2716FB] CRC32
01 85,2 [7C8645C6] [A6579FF0]
02 92,8 [4BBA1B4A] [723768D3]
03 65,2 [3BD6EC5B] [A9C49220]
04 92,0 [BCA7CE4A] [9C572839]
05 43,7 [FFE9172E] [45BB8B8B]
06 90,1 [506B9BFE] [B4B8AAED]
07 77,3 [0666BDA5] [FBB71EFF]
08 92,5 [39730170] [F13E0A48]
09 91,4 [0C280684] [9216A31A]

Marillion - Marbles In The Park (2017)

All thanks go to the original ripper(s) …

> Visit my blog <