Subcategories

Marilyn Manson - Eat Me, Drink Me (2007)

Posted By: gribovar
Marilyn Manson - Eat Me, Drink Me (2007)

Marilyn Manson - Eat Me, Drink Me (2007)
EAC Rip | FLAC (image+.cue+log) - 391 MB | MP3 CBR 320 kbps (LAME 3.93) - 133 MB | Covers - 44 MB
Genre: Alternative/Industrial Metal | RAR 3% Rec. | Label: Interscope Records (602517365230)

It's been a long time since Marilyn Manson truly seemed like a transgressive force, but when you spend a lifetime crafting a persona as a rock & roll boogeyman, it's not only hard to shake that image, it's unlikely that you'd want to shake it. Manson has never shown any indication that he's wanted to change, which somehow came as a surprise to his betrothed, burlesque diva Dita Von Teese, who according to published reports in the wake of their divorce seemed shocked, shocked that Manson wanted to stay up late and take drugs, the kind of eternally adolescent behavior that only rock & roll stars can get away with as they approach 40. Better for Marilyn to sever that marriage and turn toward a true teenager: Evan Rachel Wood, the blandly pretty star of Thirteen who provided MM with a brand-new muse for Eat Me, Drink Me, his sixth studio album. Frankly, Manson probably needed something to shake up his music, which started to become comfortably predictable in the wake of his popular/creative peak of Mechanical Animals, but the stab at soul-baring on Eat Me might not have been the way to do it. But Manson is such a true believer in rock & roll mythos that he's wound up embracing the cliché of the post-divorce confessional album, peppering this album with songs about broken relationships and new love. Personal songs are unusual for Manson, but that doesn't mean he's abandoned his tendency to write about grand concepts. The difference is that this time around, Manson himself is the grand concept - there's no excursions into neo-glam or decadent German glamour - which may give him a lyrical hook, but not a musical one. On a sonic level this is a bit of Manson-by-numbers - all his signatures are in place, from the liberal appropriations of Diamond Dogs to the cheerful immersion in dirges and his tuneless vampire drone - but it feels as if his usual murky menace has lifted, with the music sounding clearer, less affected, and obtuse, while still retaining much of its gothic romanticism and churning heaviness. If anything, Eat Me is a bit too transparent, as its clean arena rock production - all pumped up on steroids, devoid of much grit - makes the album sound safe, a bit too close to Manson cabaret for comfort, especially when he's penning songs whose very titles feel like unwitting self-parodies ("If I Was Your Vampire," "You and Me and the Devil Makes 3," "They Said That Hell's Not Hot"), or when he lazily spews out profanity as the chorus to "Mutilation Is the Sincerest Form of Flattery." These are the moments where Manson seems like the eternal teenager, unwilling and unable to grow up, and they provide a bitter ironic counterpoint to the rest of the record, where he is striving for an emotional honesty he's never attempted before. Put these two halves together, and Eat Me, Drink Me becomes an intriguing muddle, an interesting portrait of Manson at the cusp of middle-age melancholy even if as sheer music it's the least visceral or compelling he's ever been.
Tracklist:
01. If I Was Your Vampire
02. Putting Holes in Happiness
03. The Red Carpet Grave
04. They Said Hell's Not Hot
05. Just a Car Crash Away
06. Heart-Shaped Glasses (When the Heart Guides the Hand)
07. Evidence
08. Are You the Rabbit?
09. Mutilation is the Most Sincere Form of Flattery
10. You and Me and the Devil Makes 3
11. Eat Me, Drink Me
12. Heart-Shaped Glasses (When The Heart Guides The Hand) (Inhuman Remix By Jade E. Puget) (Bonus track)

Total time: 56:30

Exact Audio Copy V0.99 prebeta 5 from 4. May 2009

EAC extraction logfile from 20. January 2010, 13:59

Marilyn Manson / Eat Me, Drink Me

Used drive : MATSHITAUJ-845D Adapter: 0 ID: 1

Read mode : Secure
Utilize accurate stream : Yes
Defeat audio cache : Yes
Make use of C2 pointers : No

Read offset correction : 102
Overread into Lead-In and Lead-Out : No
Fill up missing offset samples with silence : Yes
Delete leading and trailing silent blocks : No
Null samples used in CRC calculations : Yes
Used interface : Native Win32 interface for Win NT & 2000

Used output format : User Defined Encoder
Selected bitrate : 320 kBit/s
Quality : High
Add ID3 tag : No
Command line compressor : C:\Program Files\FLAC\flac.exe
Additional command line options : -V -8 -T "artist=%a" -T "title=%t" -T "album=%g" -T "date=%y" -T "tracknumber=%n" -T "genre=%m" %s


TOC of the extracted CD

Track | Start | Length | Start sector | End sector
––––––––––––––––––––––––––––-
1 | 0:00.00 | 5:56.22 | 0 | 26721
2 | 5:56.22 | 4:31.19 | 26722 | 47065
3 | 10:27.41 | 4:05.01 | 47066 | 65441
4 | 14:32.42 | 4:16.73 | 65442 | 84714
5 | 18:49.40 | 4:54.72 | 84715 | 106836
6 | 23:44.37 | 5:05.60 | 106837 | 129771
7 | 28:50.22 | 5:19.65 | 129772 | 153761
8 | 34:10.12 | 4:14.10 | 153762 | 172821
9 | 38:24.22 | 3:52.50 | 172822 | 190271
10 | 42:16.72 | 4:24.19 | 190272 | 210090
11 | 46:41.16 | 5:41.22 | 210091 | 235687
12 | 52:22.38 | 4:07.60 | 235688 | 254272


Range status and errors

Selected range

Filename D:\Rips\2007 - Eat Me, Drink Me (602517365230)\Marilyn Manson - Eat Me, Drink Me.wav

Peak level 98.7 %
Range quality 99.9 %
Test CRC 1729567B
Copy CRC 1729567B
Copy OK

No errors occurred

End of status report

[CUETools log; Date: 18.04.2019 17:20:43; Version: 2.1.4]
[CTDB TOCID: 8DDVFXgWAlkcOgMMIvT2UbhXJ8w-] found.
Track | CTDB Status
1 | (684/685) Accurately ripped
2 | (684/685) Accurately ripped
3 | (682/685) Accurately ripped
4 | (683/685) Accurately ripped
5 | (682/685) Accurately ripped
6 | (681/685) Accurately ripped
7 | (681/685) Accurately ripped
8 | (683/685) Accurately ripped
9 | (680/685) Accurately ripped
10 | (677/685) Accurately ripped
11 | (680/685) Accurately ripped
12 | (674/685) Accurately ripped
[AccurateRip ID: 00199896-00ed76c0-950d3e0c] found.
Track [ CRC | V2 ] Status
01 [7e0819c7|6c4d64da] (087+136/253) Accurately ripped
02 [e670c225|e4d8ffad] (088+136/249) Accurately ripped
03 [642791ce|b2052cfa] (088+135/248) Accurately ripped
04 [fff8a48a|417b44ee] (088+134/247) Accurately ripped
05 [4f49c839|8e4ae094] (088+135/248) Accurately ripped
06 [e85acbeb|1d94c8c3] (089+135/249) Accurately ripped
07 [71a61d21|269d2c00] (086+135/246) Accurately ripped
08 [0ac98158|b5521825] (088+134/247) Accurately ripped
09 [708b73ad|06716b1d] (088+134/247) Accurately ripped
10 [02f11531|2aadecf3] (088+135/248) Accurately ripped
11 [616ca817|b58b6d49] (088+134/246) Accurately ripped
12 [68cd80a1|faade359] (088+135/245) Accurately ripped
Offsetted by -664:
01 [ad0f6966] (011/253) Accurately ripped
02 [596a0d35] (010/249) Accurately ripped
03 [526c4169] (010/248) Accurately ripped
04 [4a1dfa35] (010/247) Accurately ripped
05 [634fb4a6] (010/248) Accurately ripped
06 [fee2dfa1] (010/249) Accurately ripped
07 [0d2a4c79] (010/246) Accurately ripped
08 [57eeccf1] (010/247) Accurately ripped
09 [d1d436cc] (010/247) Accurately ripped
10 [94cb260a] (010/248) Accurately ripped
11 [baadce7c] (010/246) Accurately ripped
12 [d99e4df0] (009/245) Accurately ripped
Offsetted by -12:
01 [83fb57ec] (002/253) Accurately ripped
02 [3bf94f04] (002/249) Accurately ripped
03 [4f237448] (002/248) Accurately ripped
04 [dc5ff448] (002/247) Accurately ripped
05 [7b30261e] (002/248) Accurately ripped
06 [97f536c2] (002/249) Accurately ripped
07 [b11bdca2] (002/246) Accurately ripped
08 [e8a10bfc] (002/247) Accurately ripped
09 [e0865d3c] (002/247) Accurately ripped
10 [289850ef] (002/248) Accurately ripped
11 [7fb8d5d5] (002/246) Accurately ripped
12 [927225d5] (002/245) Accurately ripped
Offsetted by -676:
01 [7ae82839] (003/253) Accurately ripped
02 [81de60e4] (003/249) Accurately ripped
03 [df397f37] (003/248) Accurately ripped
04 [a7675859] (003/247) Accurately ripped
05 [12ab9764] (003/248) Accurately ripped
06 [fe9225dd] (003/249) Accurately ripped
07 [f6d8631d] (003/246) Accurately ripped
08 [b9718f13] (003/247) Accurately ripped
09 [52f7b115] (003/247) Accurately ripped
10 [845f4135] (003/248) Accurately ripped
11 [21e9c2d9] (000/246) No match (V2 was not tested)
12 [ffeccb90] (002/245) Accurately ripped
Offsetted by 10:
01 [2853ead7] (002/253) Accurately ripped
02 [e15104d8] (000/249) No match (V2 was not tested)
03 [9c455d7e] (000/248) No match (V2 was not tested)
04 [083e7220] (000/247) No match (V2 was not tested)
05 [c3b943ed] (000/248) No match (V2 was not tested)
06 [473fe949] (000/249) No match (V2 was not tested)
07 [5d5d46c9] (000/246) No match (V2 was not tested)
08 [a3ea8ec8] (000/247) No match (V2 was not tested)
09 [c20352c5] (000/247) No match (V2 was not tested)
10 [b2c864e9] (000/248) No match (V2 was not tested)
11 [d8aad425] (000/246) No match (V2 was not tested)
12 [9a9d074d] (000/245) No match (V2 was not tested)

Track Peak [ CRC32 ] [W/O NULL] [ LOG ]
– 98,7 [1729567B] [4A1FA798] CRC32
01 98,7 [DA2BD8D5] [D63C5548]
02 98,7 [EAED9A70] [06EB0C5F]
03 98,7 [D565D01A] [B5FAE4D3]
04 98,7 [A4D6FB34] [881FE63F]
05 98,7 [375479FE] [B841D6CD]
06 98,7 [CB8DD4D2] [0C411166]
07 98,7 [0D79D915] [386F33E5]
08 98,7 [45329093] [1663C17E]
09 98,7 [DC11CE7A] [FBFCF943]
10 98,7 [5633F4BC] [892F23D2]
11 98,7 [114EB165] [7E105B4D]
12 98,7 [39BB4B11] [30B40991]

Thanks to coronaradiata

See also:
Marilyn Manson - Holy Wood (In The Shadow Of The Valley Of Death) (2000) [Japanese Edition]
Marilyn Manson - The Golden Age Of Grotesque (2003) [Japanese Edition]
Marilyn Manson - The High End Of Low (2009) [2CD Japanese Edition]