Subcategories

Mark Knopfler And Friends - Dire Straits And Hillbillies Farewell (2018)

Posted By: popsakov
Mark Knopfler And Friends - Dire Straits And Hillbillies Farewell (2018)

Mark Knopfler And Friends - Dire Straits And Hillbillies Farewell (2018)
EAC Rip | FLAC (Img) + Cue + Log ~ 497 Mb | MP3 CBR320 ~ 198 Mb
Scans Included (JPG, 600 dpi) | RAR 5% Recovery
Rock | Golden Eggs #Egg 18 | Unofficial Release

Highlights of Live at the Shepherd’s Bush Empire, London, UK, 23rd (a), 24th (b) and 25th © of July, 2002. Excellent audience recordings.

Mark Knopfler And Friends - Dire Straits And Hillbillies Farewell (2018)


***************

Mark Knopfler And Friends - Dire Straits And Hillbillies Farewell (2018)

Mark Knopfler And Friends - Dire Straits And Hillbillies Farewell (2018)

Track List:

The Notting Hillbillies Set
01. Calling Elvis [8:09]
02. Run Me Down [4:10]
03. Quality Shoe [4:57]
04. Setting Me Up [4:23]
Dire Straits Set
05. Walk Of Life [5:39]
06. What It Is [5:46]
07. Romeo And Juliet [10:22]
08. Sultans Of Swing [7:00]
09. Oe Oe [1:22]
10. Your Latest Trick [6:15]
11. Why Aye Man [7:10]
12. Money For Nothing [6:14]
13. Going Home [6:05]

Personnel:
Mark Knopfler - Vocals, guitars
Guy Fletcher - Keyboards
Danny Cummings - drums

The Notting Hillbillies part:
Steve Phillips - Vocals, guitars
Brendan Croker - Vocals, guitars
Marcus Cliffe - Bass

Dire Straits part:
John Illsley - bass
Robbie McIntosh - guitars
Geraint Watkins - keyboards, accordion

Guests:
Jools Holland (1)
Bobby Valentino (2)
Chris White - Sax, Flute, Tambourine (3)
Jimmy Nail - vocals (4)

Exact Audio Copy V1.2 from 12. August 2016

EAC extraction logfile from 4. May 2018, 19:53

Mark Knopfler And Friends / Dire Straits And Hillbillies Farewell

Used drive : ASUS SDRW-08D1S-U Adapter: 1 ID: 1

Read mode : Secure
Utilize accurate stream : Yes
Defeat audio cache : Yes
Make use of C2 pointers : No

Read offset correction : 667
Overread into Lead-In and Lead-Out : No
Fill up missing offset samples with silence : Yes
Delete leading and trailing silent blocks : No
Null samples used in CRC calculations : Yes
Used interface : Native Win32 interface for Win NT & 2000

Used output format : User Defined Encoder
Selected bitrate : 128 kBit/s
Quality : High
Add ID3 tag : No
Command line compressor : C:\Program Files (x86)\Exact Audio Copy\Flac\flac.exe
Additional command line options : -V -8 -T "Date=%year%" -T "Genre=%genre%" %source%


TOC of the extracted CD

Track | Start | Length | Start sector | End sector
––––––––––––––––––––––––––––-
1 | 0:00.00 | 8:08.40 | 0 | 36639
2 | 8:08.40 | 4:09.63 | 36640 | 55377
3 | 12:18.28 | 4:56.59 | 55378 | 77636
4 | 17:15.12 | 4:23.06 | 77637 | 97367
5 | 21:38.18 | 5:38.61 | 97368 | 122778
6 | 27:17.04 | 5:46.23 | 122779 | 148751
7 | 33:03.27 | 10:22.17 | 148752 | 195418
8 | 43:25.44 | 7:00.25 | 195419 | 226943
9 | 50:25.69 | 1:21.62 | 226944 | 233080
10 | 51:47.56 | 6:14.64 | 233081 | 261194
11 | 58:02.45 | 7:10.25 | 261195 | 293469
12 | 65:12.70 | 6:14.14 | 293470 | 321533
13 | 71:27.09 | 6:05.09 | 321534 | 348917


Range status and errors

Selected range

Filename C:\Users\Олег\Desktop\Dire Straits And Hillbillies Farewell\Mark Knopfler And Friends - Dire Straits And Hillbillies Farewell.wav

Peak level 97.7 %
Extraction speed 3.3 X
Range quality 100.0 %
Test CRC AC5F193E
Copy CRC AC5F193E
Copy OK

No errors occurred


AccurateRip summary

Track 1 not present in database
Track 2 not present in database
Track 3 not present in database
Track 4 not present in database
Track 5 not present in database
Track 6 not present in database
Track 7 not present in database
Track 8 not present in database
Track 9 not present in database
Track 10 not present in database
Track 11 not present in database
Track 12 not present in database
Track 13 not present in database

None of the tracks are present in the AccurateRip database

End of status report

–– CUETools DB Plugin V2.1.6

[CTDB TOCID: CLobBu78zJkDnlzC0cMxqO4uBqg-] disk not present in database
Submit result: CLobBu78zJkDnlzC0cMxqO4uBqg- has been uploaded


==== Log checksum 07A4B4278CEC5961554D4AB397A28BD7A092BBC5ED8E11293CDAA431B9FC749F ====

foobar2000 1.3.16 / Dynamic Range Meter 1.1.1
log date: 2018-05-04 21:34:12

––––––––––––––––––––––––––––––––––––––––
Analyzed: Mark Knopfler And Friends / Dire Straits And Hillbillies Farewell
––––––––––––––––––––––––––––––––––––––––

DR Peak RMS Duration Track
––––––––––––––––––––––––––––––––––––––––
DR13 -0.20 dB -16.52 dB 8:09 01-Calling Elvis
DR14 -1.14 dB -17.15 dB 4:10 02-Run Me Down
DR15 -0.35 dB -18.15 dB 4:57 03-Quality Shoe
DR14 -1.64 dB -17.56 dB 4:23 04-Setting Me Up
DR15 -1.02 dB -18.20 dB 5:39 05-Walk Of Life
DR14 -0.37 dB -18.00 dB 5:46 06-What It Is
DR14 -0.20 dB -18.11 dB 10:22 07-Romeo And Juliet
DR13 -2.69 dB -17.52 dB 7:00 08-Sultans Of Swing
DR13 -3.05 dB -17.58 dB 1:22 09-Oe Oe
DR13 -0.41 dB -17.38 dB 6:15 10-Your Latest Trick
DR14 -0.20 dB -17.78 dB 7:10 11-Why Aye Man
DR14 -2.27 dB -17.82 dB 6:14 12-Money For Nothing
DR10 -0.38 dB -13.06 dB 6:05 13-Going Home
––––––––––––––––––––––––––––––––––––––––

Number of tracks: 13
Official DR value: DR13

Samplerate: 44100 Hz
Channels: 2
Bits per sample: 16
Bitrate: 833 kbps
Codec: FLAC
================================================================================

Mark Knopfler And Friends - Dire Straits And Hillbillies Farewell (2018)

All thanks go to Alex Fal

>>> My Blog <<<

Download from icerbox.com: