Mark Knopfler & Chet Atkins - Neck And Neck (1990) {2012, K2HD Mastering, Japan}

Posted By: popsakov
Mark Knopfler & Chet Atkins - Neck And Neck (1990) {2012, K2HD Mastering, Japan}

Mark Knopfler & Chet Atkins - Neck And Neck (1990) {2012, K2HD Mastering, Japan}
EAC Rip | FLAC (Img) + Cue + Log ~ 221 Mb | MP3 CBR320 ~ 108 Mb
Scans (JPG, 400 dpi) ~ 101 Mb | RAR 5% Recovery
Country, Folk, Country Rock | Sony Music #88691998902

Neck and Neck is a collaborative album by American guitarist Chet Atkins and British singer-songwriter and guitarist Mark Knopfler, released on October 9, 1990 by Columbia Records. "Poor Boy Blues" was released as a single, and in 1991 won a Grammy Award for Best Country Collaboration with Vocals. That same year, "So Soft Your Goodbye" won a Grammy Award for Best Country Instrumental Performance. Atkins originally recorded "Yakety Axe", a parody of Boots' Randolph's "Yakety Sax", on his 1965 album More of That Guitar Country. This new recording features lyrics and a new arrangement that were composed by Merle Travis. Atkins also previously recorded "I'll See You in My Dreams" on an album with Merle Travis.
~ Wiki


Working with Dire Straits guitarist Mark Knopfler had a rejuvinating influence on Chet Atkins. Knopfler has Atkins moving toward his country roots, but both guitarists still play with a tasteful, jazzy sensibility – however, Atkins has abandoned the overt jazz fusion pretensions that sank most of his '80s records. With its direct, understated approach, Neck and Neck is the most focused and arguably the most rewarding record Atkins has released.
~ Stephen Thomas Erlewine, All Music

Mark Knopfler & Chet Atkins - Neck And Neck (1990) {2012, K2HD Mastering, Japan}


***************

Mark Knopfler & Chet Atkins - Neck And Neck (1990) {2012, K2HD Mastering, Japan}

Track List:

01. Poor Boy Blues [4:03]
02. Sweet Dreams [3:26]
03. There'll Be Some Changes Made [6:28]
04. Just One Time [4:13]
05. So Soft, Your Goodbye [3:18]
06. Yakety Axe [3:24]
07. Tears [3:54]
08. Tahitian Skies [3:18]
09. I'll See You In My Dreams [2:59]
10. The Next Time I'm In Town [3:22]

Exact Audio Copy V1.0 beta 6 from 9. April 2015

EAC extraction logfile from 5. March 2016, 17:25

Mark Knopfler & Chet Atkins / Neck and Neck

Used drive : TSSTcorpCDDVDW SH-224DB Adapter: 1 ID: 0

Read mode : Secure
Utilize accurate stream : Yes
Defeat audio cache : Yes
Make use of C2 pointers : No

Read offset correction : 6
Overread into Lead-In and Lead-Out : No
Fill up missing offset samples with silence : Yes
Delete leading and trailing silent blocks : No
Null samples used in CRC calculations : Yes
Used interface : Native Win32 interface for Win NT & 2000

Used output format : User Defined Encoder
Selected bitrate : 1024 kBit/s
Quality : High
Add ID3 tag : No
Command line compressor : C:\Program Files (x86)\Exact Audio Copy\wavpack.exe
Additional command line options : -hm %source% %dest%


TOC of the extracted CD

Track | Start | Length | Start sector | End sector
––––––––––––––––––––––––––––-
1 | 0:00.00 | 4:03.25 | 0 | 18249
2 | 4:03.25 | 3:25.68 | 18250 | 33692
3 | 7:29.18 | 6:28.25 | 33693 | 62817
4 | 13:57.43 | 4:12.52 | 62818 | 81769
5 | 18:10.20 | 3:18.13 | 81770 | 96632
6 | 21:28.33 | 3:24.37 | 96633 | 111969
7 | 24:52.70 | 3:54.18 | 111970 | 129537
8 | 28:47.13 | 3:18.35 | 129538 | 144422
9 | 32:05.48 | 2:58.60 | 144423 | 157832
10 | 35:04.33 | 3:21.55 | 157833 | 172962


Range status and errors

Selected range

Filename G:\iso\Mark Knopfler & Chet Atkins - Neck and Neck\Mark Knopfler & Chet Atkins - Neck and Neck.wav

Peak level 98.8 %
Extraction speed 2.6 X
Range quality 100.0 %
Test CRC 662EBFAC
Copy CRC 662EBFAC
Copy OK

No errors occurred


AccurateRip summary

Track 1 accurately ripped (confidence 14) [00AC8928] (AR v2)
Track 2 accurately ripped (confidence 15) [17627714] (AR v2)
Track 3 accurately ripped (confidence 14) [F6A440B7] (AR v2)
Track 4 accurately ripped (confidence 14) [28622CE4] (AR v2)
Track 5 accurately ripped (confidence 14) [D31F3A82] (AR v2)
Track 6 accurately ripped (confidence 14) [A09699D3] (AR v2)
Track 7 accurately ripped (confidence 14) [0B1085C8] (AR v2)
Track 8 accurately ripped (confidence 14) [06152828] (AR v2)
Track 9 accurately ripped (confidence 14) [AA50641E] (AR v2)
Track 10 accurately ripped (confidence 14) [C8DF46CF] (AR v2)

All tracks accurately ripped

End of status report

–– CUETools DB Plugin V2.1.6

[CTDB TOCID: 2Q0PnHOSn_Eqc_I25cKsFrx0EMw-] found
Submit result: 2Q0PnHOSn_Eqc_I25cKsFrx0EMw- has been confirmed
Track | CTDB Status
1 | (20/26) Accurately ripped
2 | (20/26) Accurately ripped
3 | (20/26) Accurately ripped
4 | (20/26) Accurately ripped
5 | (20/26) Accurately ripped
6 | (20/26) Accurately ripped
7 | (20/26) Accurately ripped
8 | (20/26) Accurately ripped
9 | (20/26) Accurately ripped
10 | (20/26) Accurately ripped


==== Log checksum 00ACF0AD3706120A9376B17F09295460B582B40D903042365C664A898EAEB585 ====

foobar2000 1.2.6 / Dynamic Range Meter 1.1.1
log date: 2016-10-29 14:03:02

––––––––––––––––––––––––––––––––––––––––
Analyzed: Mark Knopfler & Chet Atkins / Neck and Neck
––––––––––––––––––––––––––––––––––––––––

DR Peak RMS Duration Track
––––––––––––––––––––––––––––––––––––––––
DR12 -0.10 dB -13.33 dB 4:03 01-Poor Boy Blues
DR14 -0.36 dB -18.72 dB 3:26 02-Sweet Dreams
DR13 -0.10 dB -15.24 dB 6:28 03-There'll Be Some Changes Made
DR13 -0.10 dB -14.22 dB 4:13 04-Just One Time
DR13 -3.05 dB -19.62 dB 3:18 05-So Soft, Your Goodbye
DR12 -0.10 dB -13.72 dB 3:24 06-Yakety Axe
DR13 -2.01 dB -19.15 dB 3:54 07-Tears
DR12 -3.42 dB -17.89 dB 3:18 08-Tahitian Skies
DR14 -0.10 dB -16.62 dB 2:59 09-I'll See You In My Dreams
DR12 -0.10 dB -13.90 dB 3:22 10-The Next Time I'm In Town
––––––––––––––––––––––––––––––––––––––––

Number of tracks: 10
Official DR value: DR13

Samplerate: 44100 Hz
Channels: 2
Bits per sample: 16
Bitrate: 759 kbps
Codec: FLAC
================================================================================

[CUETools log; Date: 29.10.2016 14:03:30; Version: 2.1.5]
[CTDB TOCID: 2Q0PnHOSn_Eqc_I25cKsFrx0EMw-] found.
Track | CTDB Status
1 | (25/33) Accurately ripped
2 | (25/33) Accurately ripped
3 | (25/33) Accurately ripped
4 | (25/33) Accurately ripped
5 | (25/33) Accurately ripped
6 | (25/33) Accurately ripped
7 | (25/33) Accurately ripped
8 | (25/33) Accurately ripped
9 | (25/33) Accurately ripped
10 | (25/33) Accurately ripped
[AccurateRip ID: 000f68e3-0079bd54-8409020a] found.
Track [ CRC | V2 ] Status
01 [ec4e8fd7|00ac8928] (00+16/22) Accurately ripped
02 [cc2c10b6|17627714] (00+17/23) Accurately ripped
03 [626f29e7|f6a440b7] (00+16/22) Accurately ripped
04 [d2050615|28622ce4] (00+16/22) Accurately ripped
05 [c295429f|d31f3a82] (00+16/22) Accurately ripped
06 [48a10b74|a09699d3] (00+16/21) Accurately ripped
07 [2541e0df|0b1085c8] (00+16/22) Accurately ripped
08 [43074eb5|06152828] (00+16/22) Accurately ripped
09 [17393567|aa50641e] (00+16/22) Accurately ripped
10 [c458a70c|c8df46cf] (00+16/22) Accurately ripped

Track Peak [ CRC32 ] [W/O NULL] [ LOG ]
– 98,8 [662EBFAC] [C3A70D77] CRC32
01 98,8 [D1769976] [3502B322]
02 95,9 [D6E2A670] [7AFD789B]
03 98,8 [0E3EE953] [11765672]
04 98,8 [7C9F6345] [884414E6]
05 70,4 [DC4F93DD] [6BED7B85]
06 98,8 [F8F7F06C] [9335DA4A]
07 79,3 [E715AEF3] [B166274B]
08 67,4 [2D538E6B] [17F7ABC9]
09 98,8 [336B1039] [9F3F65F0]
10 98,8 [9B8314BE] [FE8E8E6B]

Mark Knopfler & Chet Atkins - Neck And Neck (1990) {2012, K2HD Mastering, Japan}

Mark Knopfler & Chet Atkins - Neck And Neck (1990) {2012, K2HD Mastering, Japan}

All thanks go to shatterhand

> Mark Knopfler & Chet Atkins in my blog <

Download: