Subcategories

Mark Knopfler - Golden Heart (1996) [Vertigo PHCR-1420, Japan]

Posted By: v3122
Mark Knopfler - Golden Heart (1996) [Vertigo PHCR-1420, Japan]

Mark Knopfler - Golden Heart (1996)
EAC | Flac(Image) + Cue + Log & MP3 CBR 320Kbps
Vertigo PHCR-1420 | ~ 447 or 169 Mb | Scans(jpg) -> 46 Mb
Blues Rock, Classic Rock

Mark Knopfler's debut non-soundtrack solo album, Golden Heart, was, in effect, the follow-up to the last Dire Straits studio album, On Every Street (1991). But it was also a compendium of the various musical endeavors in which Knopfler had engaged since emerging as a major figure in 1978. "Imelda" was cast in the mold of "Money for Nothing," with its trademark electric guitar riff and sardonic lyrics about Imelda Marcos, and other songs resembled Dire Straits songs, notably "Cannibals," which recalled "Walk of Life." But "A Night in Summer Long Ago" was presented in a Scots/Irish traditional folk style, complete with a lyric about a knight and a queen and would have fit nicely on Knopfler's soundtrack for The Princess Bride, and "Are We in Trouble Now" was a country ballad featuring pedal steel guitar and the piano playing of Nashville session ace Hargus "Pig" Robbins that would have been appropriate for Knopfler's duo album with Chet Atkins. For all that, there was little on the album that was new or striking, and Knopfler seemed to fall back on familiar guitar techniques while intoning often obscure lyrics. You get the feeling that there was a story behind each song, but except in the cases of "Rudiger," a character study of an autograph hunter, and "Done with Bonaparte," the lament of a 19th century French soldier on the retreat from Moscow, you might have to read Knopfler's interviews to find out what the songs were actually about. Knopfler hadn't used the opportunity of a solo album to challenge himself, and at the same time he had lost the group identity (however illusory) provided by the Dire Straits name. The result was listenable but secondhand.

by William Ruhlman, allmusic
Mark Knopfler - Golden Heart (1996):

Mark Knopfler - Golden Heart (1996) [Vertigo PHCR-1420, Japan]

Tracklist:

[01] Darling Pretty [04:31]
[02] Imelda [05:26]
[03] Golden Heart [05:01]
[04] No Can Do [04:54]
[05] Vic And Ray [04:36]
[06] Don't You Get It [05:17]
[07] A Night In Summer Long Ago [04:43]
[08] Cannibals [03:41]
[09] I'm The Fool [04:28]
[10] Je Suis Désolé [05:15]
[11] Rüdiger [06:03]
[12] Nobody's Got The Gun [05:26]
[13] Done With Bonaparte [05:06]
[14] Are We In Trouble Now [05:55]

Exact Audio Copy V1.2 from 12. August 2016

EAC extraction logfile from 31. October 2017, 13:27

Mark Knopfler / Golden Heart

Used drive : ASUS SDRW-08D1S-U Adapter: 1 ID: 1

Read mode : Secure
Utilize accurate stream : Yes
Defeat audio cache : Yes
Make use of C2 pointers : No

Read offset correction : 667
Overread into Lead-In and Lead-Out : No
Fill up missing offset samples with silence : Yes
Delete leading and trailing silent blocks : No
Null samples used in CRC calculations : Yes
Used interface : Native Win32 interface for Win NT & 2000

Used output format : User Defined Encoder
Selected bitrate : 128 kBit/s
Quality : High
Add ID3 tag : No
Command line compressor : C:\Program Files (x86)\Exact Audio Copy\Flac\flac.exe
Additional command line options : -V -8 -T "Date=%year%" -T "Genre=%genre%" %source%


TOC of the extracted CD

Track | Start | Length | Start sector | End sector
––––––––––––––––––––––––––––-
1 | 0:00.37 | 4:31.10 | 37 | 20371
2 | 4:31.47 | 5:26.13 | 20372 | 44834
3 | 9:57.60 | 5:01.07 | 44835 | 67416
4 | 14:58.67 | 4:54.15 | 67417 | 89481
5 | 19:53.07 | 4:36.25 | 89482 | 110206
6 | 24:29.32 | 5:16.53 | 110207 | 133959
7 | 29:46.10 | 4:43.07 | 133960 | 155191
8 | 34:29.17 | 3:41.25 | 155192 | 171791
9 | 38:10.42 | 4:28.28 | 171792 | 191919
10 | 42:38.70 | 5:14.47 | 191920 | 215516
11 | 47:53.42 | 6:03.30 | 215517 | 242771
12 | 53:56.72 | 5:25.58 | 242772 | 267204
13 | 59:22.55 | 5:06.05 | 267205 | 290159
14 | 64:28.60 | 5:54.47 | 290160 | 316756


Range status and errors

Selected range

Filename C:\Users\Олег\Desktop\Golden Heart\Mark Knopfler - Golden Heart.wav

Peak level 97.6 %
Extraction speed 4.1 X
Range quality 99.9 %
Test CRC 8A0E90AE
Copy CRC 8A0E90AE
Copy OK

No errors occurred


AccurateRip summary

Track 1 accurately ripped (confidence 4) [648C5766] (AR v2)
Track 2 accurately ripped (confidence 4) [2398D01E] (AR v2)
Track 3 accurately ripped (confidence 4) [B6DA8C3F] (AR v2)
Track 4 accurately ripped (confidence 4) [25E4727E] (AR v2)
Track 5 accurately ripped (confidence 4) [7863283F] (AR v2)
Track 6 accurately ripped (confidence 4) [2BF3971F] (AR v2)
Track 7 accurately ripped (confidence 4) [EB492FF8] (AR v2)
Track 8 accurately ripped (confidence 4) [2B868808] (AR v2)
Track 9 accurately ripped (confidence 4) [DABBE933] (AR v2)
Track 10 accurately ripped (confidence 4) [0ABB81C1] (AR v2)
Track 11 accurately ripped (confidence 4) [C446864C] (AR v2)
Track 12 accurately ripped (confidence 4) [D4D1AB70] (AR v2)
Track 13 accurately ripped (confidence 4) [BCAE8331] (AR v2)
Track 14 accurately ripped (confidence 4) [93860AE2] (AR v2)

All tracks accurately ripped

End of status report

–– CUETools DB Plugin V2.1.6

[CTDB TOCID: h1yN9yQ4GxEXyEWCE8oGkaxJbSA-] found
Submit result: h1yN9yQ4GxEXyEWCE8oGkaxJbSA- has been confirmed
Track | CTDB Status
1 | (10/10) Accurately ripped
2 | (10/10) Accurately ripped
3 | (10/10) Accurately ripped
4 | (10/10) Accurately ripped
5 | (10/10) Accurately ripped
6 | (10/10) Accurately ripped
7 | (10/10) Accurately ripped
8 | (10/10) Accurately ripped
9 | (10/10) Accurately ripped
10 | (10/10) Accurately ripped
11 | (10/10) Accurately ripped
12 | (10/10) Accurately ripped
13 | (10/10) Accurately ripped
14 | ( 9/10) Accurately ripped


==== Log checksum EDAD14D385B7D1E3C3BC31E21D8ACD8A9855353058693C7361D1A1AB6D7AEF9F ====


[CUETools log; Date: 08.11.2017 20:37:03; Version: 2.1.5]
Pregap length 00:00:37.
[AccurateRip ID: 00235d39-0179f379-d3107f0e] found.
Track [ CRC | V2 ] Status
01 [66b0938e|648c5766] (3+4/7) Accurately ripped
02 [052a0ff5|2398d01e] (3+4/7) Accurately ripped
03 [e59a3aa9|b6da8c3f] (3+4/7) Accurately ripped
04 [1f2185a8|25e4727e] (3+4/7) Accurately ripped
05 [3dccf307|7863283f] (3+4/7) Accurately ripped
06 [bc2398be|2bf3971f] (3+4/7) Accurately ripped
07 [57e6a8ac|eb492ff8] (3+4/7) Accurately ripped
08 [57e87c98|2b868808] (3+4/7) Accurately ripped
09 [1e621caf|dabbe933] (3+4/7) Accurately ripped
10 [4f148f84|0abb81c1] (3+4/7) Accurately ripped
11 [f0dd62cc|c446864c] (3+4/7) Accurately ripped
12 [c75185cd|d4d1ab70] (3+4/7) Accurately ripped
13 [60fd210c|bcae8331] (3+4/7) Accurately ripped
14 [b83f9e99|93860ae2] (3+4/7) Accurately ripped

Track Peak [ CRC32 ] [W/O NULL] [ LOG ]
– 97,6 [8A0E90AE] [04CB7FCB] CRC32
01 94,3 [95917B7E] [C054E927]
02 97,6 [44C93869] [85564704]
03 97,5 [150B471B] [E4CAC192]
04 97,5 [CB69720E] [6FE3582E]
05 95,1 [780E18A9] [931D28E6]
06 97,6 [11EA3619] [A63DD3CB]
07 60,2 [9AEDF019] [26FAF7CC]
08 97,6 [DE65EB6E] [C092FF15]
09 97,6 [7B8050E7] [FAD8E7D6]
10 96,1 [D1FE41E1] [D96A5C7A]
11 97,0 [1284CC96] [0DF9712D]
12 95,8 [47817A5C] [C203EE59]
13 88,1 [304976E9] [8C9C7320]
14 96,6 [866BE4E4] [5C6E2247]


Mark Knopfler - Golden Heart (1996) [Vertigo PHCR-1420, Japan]

All thanks go to Alex Fal

Mark Knopfler or Mark Knopfler in my Blog

Download Mark Knopfler - Golden Heart (1996):