Subcategories

Mark Knopfler - Guitar Dreams (2003)

Posted By: v3122
Mark Knopfler - Guitar Dreams (2003)

Mark Knopfler - Guitar Dreams (2003)
EAC | Flac(Image) + Cue + Log & MP3 CBR 320Kbps
Murphy Records, 0 9362-00020-2 2 | ~ 428 or 189 Mb | Scans(jpg) -> 11 Mb
Folk Rock, Acoustic, Soft Rock

~ A compilation of rare and unreleased studio and live tracks ~

Mark Knopfler - Guitar Dreams (2003)

Mark Knopfler at Wiki | Mark Knopfler at Discogs | Mark Knopfler at Allmusic | Mark Knopfler HomePage

***********

Mark Knopfler - Guitar Dreams (2003):

Mark Knopfler - Guitar Dreams (2003)

Tracklist:

[01] Why Aye Man [06:46]
[02] Quality Shoe [04:00]
Recorded live at the Shepherds Bush Empire, London, England, 24 th July 2002
[03] So Far Away [04:36]
Recorded live at the Shepherds Bush Empire, London, England, 25 th July 2002
[04] Sailing to Philadelphia [07:16]
[05] Brothers in Arms [08:59]
[06] Speedway at Nazareth [07:52]
Recorded live at the Massey Hall, Toronto, Canada, 3 rd May 2001
[07] Small Potatoes [03:11]
Previously unreleased studio track recorded in 2002 during the « The Ragpicker's Dream» sessions
[08] Let's See You [03:46]
[09] The Long Highway [04:21]
[10] Camerado [02:58]
[11] Do America [04:10]
Previously unreleased studio tracks recorded in 2000 during the « Sailing to Philadelphia» sessions
[12] Going Home [03:45]
Recorded for Taratata TV Italy in November 2000
[13] Baloney Again [05:29]
[14] El Macho [04:30]
Recorded at WDR2 studios Cologne, Germany in October 2000
[15] My Claim to Fame [04:38]
Previously unreleased studio track recorded in 1996 during the «Golden Heart» sessions
[16] Mademoiselle Will Decide [02:29]
Jools Hollands Big Band Rhythm & Blues featuring Mark Knopfler, recorded Monday 24 th September 2001

Exact Audio Copy V1.2 from 12. August 2016

EAC extraction logfile from 6. November 2017, 22:43

Mark Knopfler / Guitar Dreams

Used drive : ASUS SDRW-08D1S-U Adapter: 1 ID: 1

Read mode : Secure
Utilize accurate stream : Yes
Defeat audio cache : Yes
Make use of C2 pointers : No

Read offset correction : 667
Overread into Lead-In and Lead-Out : No
Fill up missing offset samples with silence : Yes
Delete leading and trailing silent blocks : No
Null samples used in CRC calculations : Yes
Used interface : Native Win32 interface for Win NT & 2000

Used output format : User Defined Encoder
Selected bitrate : 128 kBit/s
Quality : High
Add ID3 tag : No
Command line compressor : C:\Program Files (x86)\Exact Audio Copy\Flac\flac.exe
Additional command line options : -V -8 -T "Date=%year%" -T "Genre=%genre%" %source%


TOC of the extracted CD

Track | Start | Length | Start sector | End sector
––––––––––––––––––––––––––––-
1 | 0:00.00 | 6:45.46 | 0 | 30420
2 | 6:45.46 | 4:00.16 | 30421 | 48436
3 | 10:45.62 | 4:35.55 | 48437 | 69116
4 | 15:21.42 | 7:16.32 | 69117 | 101848
5 | 22:37.74 | 8:58.65 | 101849 | 142263
6 | 31:36.64 | 7:52.31 | 142264 | 177694
7 | 39:29.20 | 3:11.06 | 177695 | 192025
8 | 42:40.26 | 3:45.49 | 192026 | 208949
9 | 46:26.00 | 4:21.12 | 208950 | 228536
10 | 50:47.12 | 2:58.07 | 228537 | 241893
11 | 53:45.19 | 4:10.16 | 241894 | 260659
12 | 57:55.35 | 3:45.05 | 260660 | 277539
13 | 61:40.40 | 5:28.62 | 277540 | 302201
14 | 67:09.27 | 4:30.01 | 302202 | 322452
15 | 71:39.28 | 4:38.08 | 322453 | 343310
16 | 76:17.36 | 2:28.60 | 343311 | 354470


Range status and errors

Selected range

Filename C:\Users\Олег\Desktop\Mark Knopfler - Guitar Dreams\Mark Knopfler - Guitar Dreams.wav

Peak level 87.5 %
Extraction speed 4.2 X
Range quality 100.0 %
Test CRC 01D29EFB
Copy CRC 01D29EFB
Copy OK

No errors occurred


AccurateRip summary

Track 1 accurately ripped (confidence 2) [1AD9ACE5] (AR v2)
Track 2 accurately ripped (confidence 2) [585B71D4] (AR v2)
Track 3 accurately ripped (confidence 2) [63DEB59C] (AR v2)
Track 4 accurately ripped (confidence 2) [2CB0C52D] (AR v2)
Track 5 accurately ripped (confidence 2) [7D568470] (AR v2)
Track 6 accurately ripped (confidence 2) [FE1C80F5] (AR v2)
Track 7 accurately ripped (confidence 2) [C9A903F6] (AR v2)
Track 8 accurately ripped (confidence 2) [BEFBA307] (AR v2)
Track 9 accurately ripped (confidence 2) [8C50587E] (AR v2)
Track 10 accurately ripped (confidence 2) [A4E17FB0] (AR v2)
Track 11 accurately ripped (confidence 2) [53768FCD] (AR v2)
Track 12 accurately ripped (confidence 2) [3362FB8A] (AR v2)
Track 13 accurately ripped (confidence 2) [7FE7DC07] (AR v2)
Track 14 accurately ripped (confidence 2) [B7637CCD] (AR v2)
Track 15 accurately ripped (confidence 2) [31F3035E] (AR v2)
Track 16 accurately ripped (confidence 2) [688236BD] (AR v2)

All tracks accurately ripped

End of status report

–– CUETools DB Plugin V2.1.6

[CTDB TOCID: ZzTDhTZ_..i_VKM2Y7B42KCZuVE-] found
Submit result: already submitted
Track | CTDB Status
1 | ( 9/11) Accurately ripped
2 | (11/11) Accurately ripped
3 | (11/11) Accurately ripped
4 | (11/11) Accurately ripped
5 | (11/11) Accurately ripped
6 | (11/11) Accurately ripped
7 | (11/11) Accurately ripped
8 | (11/11) Accurately ripped
9 | (11/11) Accurately ripped
10 | (11/11) Accurately ripped
11 | (11/11) Accurately ripped
12 | (11/11) Accurately ripped
13 | (11/11) Accurately ripped
14 | (11/11) Accurately ripped
15 | (11/11) Accurately ripped
16 | (11/11) Accurately ripped


==== Log checksum B43647144280CA9EBDE85CF48D00CB5BC553552AE1D1A2724B85D3A386BE7C42 ====

––––––––––––––––––––––––––––––

Exact Audio Copy V1.2 from 12. August 2016

EAC extraction logfile from 6. November 2017, 22:43

Mark Knopfler / Guitar Dreams

Used drive : ASUS SDRW-08D1S-U Adapter: 1 ID: 1

Read mode : Secure
Utilize accurate stream : Yes
Defeat audio cache : Yes
Make use of C2 pointers : No

Read offset correction : 667
Overread into Lead-In and Lead-Out : No
Fill up missing offset samples with silence : Yes
Delete leading and trailing silent blocks : No
Null samples used in CRC calculations : Yes
Used interface : Native Win32 interface for Win NT & 2000

Used output format : User Defined Encoder
Selected bitrate : 128 kBit/s
Quality : High
Add ID3 tag : No
Command line compressor : C:\Program Files (x86)\Exact Audio Copy\Flac\flac.exe
Additional command line options : -V -8 -T "Date=%year%" -T "Genre=%genre%" %source%


TOC of the extracted CD

Track | Start | Length | Start sector | End sector
––––––––––––––––––––––––––––-
1 | 0:00.00 | 6:45.46 | 0 | 30420
2 | 6:45.46 | 4:00.16 | 30421 | 48436
3 | 10:45.62 | 4:35.55 | 48437 | 69116
4 | 15:21.42 | 7:16.32 | 69117 | 101848
5 | 22:37.74 | 8:58.65 | 101849 | 142263
6 | 31:36.64 | 7:52.31 | 142264 | 177694
7 | 39:29.20 | 3:11.06 | 177695 | 192025
8 | 42:40.26 | 3:45.49 | 192026 | 208949
9 | 46:26.00 | 4:21.12 | 208950 | 228536
10 | 50:47.12 | 2:58.07 | 228537 | 241893
11 | 53:45.19 | 4:10.16 | 241894 | 260659
12 | 57:55.35 | 3:45.05 | 260660 | 277539
13 | 61:40.40 | 5:28.62 | 277540 | 302201
14 | 67:09.27 | 4:30.01 | 302202 | 322452
15 | 71:39.28 | 4:38.08 | 322453 | 343310
16 | 76:17.36 | 2:28.60 | 343311 | 354470


Range status and errors

Selected range

Filename C:\Users\Олег\Desktop\Mark Knopfler - Guitar Dreams\Mark Knopfler - Guitar Dreams.wav

Peak level 87.5 %
Extraction speed 4.2 X
Range quality 100.0 %
Test CRC 01D29EFB
Copy CRC 01D29EFB
Copy OK

No errors occurred


AccurateRip summary

Track 1 accurately ripped (confidence 2) [1AD9ACE5] (AR v2)
Track 2 accurately ripped (confidence 2) [585B71D4] (AR v2)
Track 3 accurately ripped (confidence 2) [63DEB59C] (AR v2)
Track 4 accurately ripped (confidence 2) [2CB0C52D] (AR v2)
Track 5 accurately ripped (confidence 2) [7D568470] (AR v2)
Track 6 accurately ripped (confidence 2) [FE1C80F5] (AR v2)
Track 7 accurately ripped (confidence 2) [C9A903F6] (AR v2)
Track 8 accurately ripped (confidence 2) [BEFBA307] (AR v2)
Track 9 accurately ripped (confidence 2) [8C50587E] (AR v2)
Track 10 accurately ripped (confidence 2) [A4E17FB0] (AR v2)
Track 11 accurately ripped (confidence 2) [53768FCD] (AR v2)
Track 12 accurately ripped (confidence 2) [3362FB8A] (AR v2)
Track 13 accurately ripped (confidence 2) [7FE7DC07] (AR v2)
Track 14 accurately ripped (confidence 2) [B7637CCD] (AR v2)
Track 15 accurately ripped (confidence 2) [31F3035E] (AR v2)
Track 16 accurately ripped (confidence 2) [688236BD] (AR v2)

All tracks accurately ripped

End of status report

–– CUETools DB Plugin V2.1.6

[CTDB TOCID: ZzTDhTZ_..i_VKM2Y7B42KCZuVE-] found
Submit result: already submitted
Track | CTDB Status
1 | ( 9/11) Accurately ripped
2 | (11/11) Accurately ripped
3 | (11/11) Accurately ripped
4 | (11/11) Accurately ripped
5 | (11/11) Accurately ripped
6 | (11/11) Accurately ripped
7 | (11/11) Accurately ripped
8 | (11/11) Accurately ripped
9 | (11/11) Accurately ripped
10 | (11/11) Accurately ripped
11 | (11/11) Accurately ripped
12 | (11/11) Accurately ripped
13 | (11/11) Accurately ripped
14 | (11/11) Accurately ripped
15 | (11/11) Accurately ripped
16 | (11/11) Accurately ripped


==== Log checksum B43647144280CA9EBDE85CF48D00CB5BC553552AE1D1A2724B85D3A386BE7C42 ====


[CUETools log; Date: 06.02.2018 7:19:23; Version: 2.1.5]
[AccurateRip ID: 003261c3-024fa828-f5127610] found.
Track [ CRC | V2 ] Status
01 [27363c20|1ad9ace5] (0+3/3) Accurately ripped
02 [9a8e2a1b|585b71d4] (0+3/3) Accurately ripped
03 [19c4e3ba|63deb59c] (0+3/3) Accurately ripped
04 [eea952d7|2cb0c52d] (0+3/3) Accurately ripped
05 [7a06675b|7d568470] (0+3/3) Accurately ripped
06 [12f7e904|fe1c80f5] (0+3/3) Accurately ripped
07 [a88474c2|c9a903f6] (0+3/3) Accurately ripped
08 [df721b6d|befba307] (0+3/3) Accurately ripped
09 [b4b41cb3|8c50587e] (0+3/3) Accurately ripped
10 [e23f6a8b|a4e17fb0] (0+3/3) Accurately ripped
11 [c32e70e3|53768fcd] (0+3/3) Accurately ripped
12 [1c2d5910|3362fb8a] (0+3/3) Accurately ripped
13 [411aa3d1|7fe7dc07] (0+3/3) Accurately ripped
14 [9ad73932|b7637ccd] (0+3/3) Accurately ripped
15 [3033950d|31f3035e] (0+3/3) Accurately ripped
16 [f4f1b8f5|688236bd] (0+3/3) Accurately ripped

Track Peak [ CRC32 ] [W/O NULL] [ LOG ]
– 87,5 [01D29EFB] [36DE4629]
01 83,6 [7D43B3CF] [79F9F740] [01D29EFB]
02 77,8 [8066E2FB] [DBA1CFF6] [01D29EFB]
03 84,5 [9D668AFF] [3C970DA4]
04 78,9 [7C8BB92D] [D99249C6]
05 86,1 [4D9A64CB] [A5695AF3]
06 83,8 [667B7A62] [D73228A6]
07 81,1 [F9431ADC] [72EC7CA5]
08 73,3 [FD8E0271] [81AACEE5]
09 74,1 [EEB5EE47] [5D21A869]
10 76,4 [5B5EC2C0] [D7B36AE4]
11 87,5 [D556E0DD] [AF26289F]
12 81,6 [0ABE4B1E] [82ACC116]
13 78,7 [13CE970E] [7586C184]
14 76,7 [30615FAA] [6A369F04]
15 60,1 [E21AF9CD] [28859E77]
16 78,9 [E50B58A4] [1146C101]


Mark Knopfler - Guitar Dreams (2003)

All thanks go to the original releaser

Mark Knopfler or Mark Knopfler in my Blog

Download Mark Knopfler - Guitar Dreams (2003):