Subcategories

Mark Knopfler - The Golden Heart: Live Antique 1996 (2016) 3CDs [Unofficial Release]

Posted By: Designol
Mark Knopfler - The Golden Heart: Live Antique 1996 (2016) 3CDs [Unofficial Release]

Mark Knopfler - The Golden Heart: Live Antique 1996 (2016) 3CDs [Unofficial Release]
EAC | FLAC | Image (Cue&Log) ~ 1 Gb | Mp3 (CBR320) ~ 395 Mb | Scans included
Rock, Country, Blues | Label: Project Zip | # PJZ-622A/B/C | Time: 02:50:16

Live recordings at Theatre Antique, Vaison, France, 2 and 3 August, 1996. The Golden Heart Tour was a 1996 concert tour by British singer-songwriter and guitarist Mark Knopfler, promoting the release of his first solo album Golden Heart. The tour consisted of two legs: the British Isles and Europe. The tour started on 24 April 1996 in Galway, Ireland, and included 84 concerts in 66 cities, ending in Antibes, France, on 4 August 1996.

The tour lineup included Mark Knopfler (guitar, vocals), Guy Fletcher (keyboards), Richard Bennett (guitar), Glenn Worf (bass), Chad Cromwell (drums), and Jim Cox (keyboards). This initial touring group later became known to Knopfler fans as the 96-ers.

Soundboard recording taken from master source so the sound is really excellent, as good as it can get! I'm the fool is taken from the Polish radio broadcast and it has got some slight hiss. Calling Elvis suffers from some slight distortion at the high volume parts. It is the complete concert, it even includes the music they played before the concert as well as interview before and after the concert and it also includes some of the talking between songs that was cut away on the master source to make it absolutely complete. This show includes one of the best versions of Calling Elvis and Water of love. As a bonus an audience recording is included of the songs Mark Knopfler and his band played the day before, on 2nd August 1996, same location. They had to cancel that concert after a couple of songs because of the bad weather, it was raining a lot.

Mark Knopfler at Allmusic
Mark Knopfler Website
Mark Knopfler at Wiki

Tracklist:

CD1 (1:05:31)

01. Interview (0:59)
02. Intro (3:20)
03. Darling Pretty (4:47)
04. Walk Of Life (4:48)
05. Imelda (6:27)
06. The Bug (5:47)
07. Rudiger (6:41)
08. Je Suis Desole (6:00)
09. Calling Elvis (11:09)
10. I'm The Fool (5:29)
11. Last Exit To Brooklin (2:17)
12. Romeo And Juliet (7:49)


CD2 (1:12:48)

01. Sultans Of Swing (17:04)
02. Done With Bonaparte (5:25)
03. Father And Son (0:55)
04. Golden Heart (5:00)
05. Water Of Love (5:32)
06. Cannibals (7:34)
07. Telegraph Road (15:30)
08. Brothers In Arms (8:57)
09. Money For Nothing (6:52)


CD3 (31:57)

01. A Night In Summer Long Ago (5:45)
02. The Long Highway (4:11)
03. Going Home (4:59)
04. Interview (1:07)
05. Darling Pretty (4:53)
06. Walk Of Life (5:09)
07. Imelda (5:53)


Exact Audio Copy V1.2 from 12. August 2016

EAC extraction logfile from 2. May 2018, 17:57

Mark Knopfler / The Golden Heart Live Antique (CD1)

Used drive : ASUS SDRW-08D1S-U Adapter: 1 ID: 1

Read mode : Secure
Utilize accurate stream : Yes
Defeat audio cache : Yes
Make use of C2 pointers : No

Read offset correction : 667
Overread into Lead-In and Lead-Out : No
Fill up missing offset samples with silence : Yes
Delete leading and trailing silent blocks : No
Null samples used in CRC calculations : Yes
Used interface : Native Win32 interface for Win NT & 2000

Used output format : User Defined Encoder
Selected bitrate : 128 kBit/s
Quality : High
Add ID3 tag : No
Command line compressor : C:\Program Files (x86)\Exact Audio Copy\Flac\flac.exe
Additional command line options : -V -8 -T "Date=%year%" -T "Genre=%genre%" %source%


TOC of the extracted CD

Track | Start | Length | Start sector | End sector
––––––––––––––––––––––––––––-
1 | 0:00.00 | 0:58.52 | 0 | 4401
2 | 0:58.52 | 3:19.47 | 4402 | 19373
3 | 4:18.24 | 4:46.39 | 19374 | 40862
4 | 9:04.63 | 4:47.53 | 40863 | 62440
5 | 13:52.41 | 6:27.14 | 62441 | 91479
6 | 20:19.55 | 5:46.43 | 91480 | 117472
7 | 26:06.23 | 6:40.55 | 117473 | 147527
8 | 32:47.03 | 5:59.54 | 147528 | 174506
9 | 38:46.57 | 11:09.08 | 174507 | 224689
10 | 49:55.65 | 5:28.66 | 224690 | 249355
11 | 55:24.56 | 2:17.23 | 249356 | 259653
12 | 57:42.04 | 7:49.24 | 259654 | 294852


Range status and errors

Selected range

Filename C:\Users\Олег\Desktop\Mark Knopfler - The Golden Heart Live Antique 1996\CD1\Mark Knopfler - The Golden Heart Live Antique (CD1).wav

Peak level 97.7 %
Extraction speed 3.9 X
Range quality 100.0 %
Test CRC E651B363
Copy CRC E651B363
Copy OK

No errors occurred


AccurateRip summary

Track 1 not present in database
Track 2 not present in database
Track 3 not present in database
Track 4 not present in database
Track 5 not present in database
Track 6 not present in database
Track 7 not present in database
Track 8 not present in database
Track 9 not present in database
Track 10 not present in database
Track 11 not present in database
Track 12 not present in database

None of the tracks are present in the AccurateRip database

End of status report

–– CUETools DB Plugin V2.1.6

[CTDB TOCID: YHKYgO4zHim_oEnyXk74qr22nPE-] disk not present in database
Submit result: YHKYgO4zHim_oEnyXk74qr22nPE- has been uploaded


==== Log checksum 1AA45DF6BB8585B2FC0C705D88526F51B98C82360BB4E3A614A48245FD0E5107 ====

[CUETools log; Date: 03.05.2018 13:19:23; Version: 2.1.4]
[CTDB TOCID: YHKYgO4zHim_oEnyXk74qr22nPE-] found.
Track | CTDB Status
1 | (1/1) Accurately ripped
2 | (1/1) Accurately ripped
3 | (1/1) Accurately ripped
4 | (1/1) Accurately ripped
5 | (1/1) Accurately ripped
6 | (1/1) Accurately ripped
7 | (1/1) Accurately ripped
8 | (1/1) Accurately ripped
9 | (1/1) Accurately ripped
10 | (1/1) Accurately ripped
11 | (1/1) Accurately ripped
12 | (1/1) Accurately ripped
[AccurateRip ID: 0019bc5d-00fd58b3-aa0f5b0c] disk not present in database.

Track Peak [ CRC32 ] [W/O NULL] [ LOG ]
– 97,7 [E651B363] [18DA795A] CRC32
01 70,4 [C1D87FCC] [A4DEF871]
02 45,4 [C7E4C26D] [96D13E4A]
03 97,7 [7074CFD1] [A9C22778]
04 97,7 [82CE511C] [0C78B8FE]
05 97,7 [D2099FA1] [00A0CD63]
06 97,7 [98DCA9D8] [0493A4B3]
07 97,7 [47C050A5] [4C2CBB85]
08 97,7 [EF446F47] [5FE97AE7]
09 97,7 [0B0EEC0A] [3682DA97]
10 89,6 [E4B5AEA0] [F2E66A29]
11 52,5 [88166E0B] [1E3F0E30]
12 97,7 [C5B2EE42] [4B19A508]

foobar2000 1.2 / Dynamic Range Meter 1.1.1
log date: 2018-05-03 13:17:31

––––––––––––––––––––––––––––––––––––––––
Analyzed: Mark Knopfler / The Golden Heart Live Antique (CD1)
––––––––––––––––––––––––––––––––––––––––

DR Peak RMS Duration Track
––––––––––––––––––––––––––––––––––––––––
DR18 -3.05 dB -27.63 dB 0:59 01-Interview
DR8 -6.84 dB -17.11 dB 3:20 02-Intro
DR8 -0.20 dB -9.20 dB 4:47 03-Darling Pretty
DR9 -0.20 dB -10.81 dB 4:48 04-Walk Of Life
DR8 -0.20 dB -9.83 dB 6:27 05-Imelda
DR9 -0.20 dB -11.22 dB 5:47 06-The Bug
DR11 -0.20 dB -14.01 dB 6:41 07-Rudiger
DR9 -0.20 dB -12.41 dB 6:00 08-Je Suis Desole
DR7 -0.20 dB -9.62 dB 11:09 09-Calling Elvis
DR9 -0.95 dB -11.09 dB 5:29 10-I'm The Fool
DR8 -5.59 dB -17.72 dB 2:17 11-Last Exit To Brooklin
DR9 -0.20 dB -12.82 dB 7:49 12-Romeo And Juliet
––––––––––––––––––––––––––––––––––––––––

Number of tracks: 12
Official DR value: DR9

Samplerate: 44100 Hz
Channels: 2
Bits per sample: 16
Bitrate: 895 kbps
Codec: FLAC
================================================================================


Exact Audio Copy V1.2 from 12. August 2016

EAC extraction logfile from 2. May 2018, 19:32

Mark Knopfler / The Golden Heart Live Antique (CD2)

Used drive : ASUS SDRW-08D1S-U Adapter: 1 ID: 1

Read mode : Secure
Utilize accurate stream : Yes
Defeat audio cache : Yes
Make use of C2 pointers : No

Read offset correction : 667
Overread into Lead-In and Lead-Out : No
Fill up missing offset samples with silence : Yes
Delete leading and trailing silent blocks : No
Null samples used in CRC calculations : Yes
Used interface : Native Win32 interface for Win NT & 2000

Used output format : User Defined Encoder
Selected bitrate : 128 kBit/s
Quality : High
Add ID3 tag : No
Command line compressor : C:\Program Files (x86)\Exact Audio Copy\Flac\flac.exe
Additional command line options : -V -8 -T "Date=%year%" -T "Genre=%genre%" %source%


TOC of the extracted CD

Track | Start | Length | Start sector | End sector
––––––––––––––––––––––––––––-
1 | 0:00.00 | 17:03.43 | 0 | 76767
2 | 17:03.43 | 5:25.37 | 76768 | 101179
3 | 22:29.05 | 0:55.27 | 101180 | 105331
4 | 23:24.32 | 4:59.42 | 105332 | 127798
5 | 28:23.74 | 5:32.10 | 127799 | 152708
6 | 33:56.09 | 7:33.40 | 152709 | 186723
7 | 41:29.49 | 15:29.38 | 186724 | 256436
8 | 56:59.12 | 8:56.38 | 256437 | 296674
9 | 65:55.50 | 6:52.37 | 296675 | 327611


Range status and errors

Selected range

Filename C:\Users\Олег\Desktop\Mark Knopfler - The Golden Heart Live Antique 1996\CD2\Mark Knopfler - The Golden Heart Live Antique (CD2).wav

Peak level 97.7 %
Extraction speed 4.0 X
Range quality 99.9 %
Test CRC 20DEBA2C
Copy CRC 20DEBA2C
Copy OK

No errors occurred


AccurateRip summary

Track 1 not present in database
Track 2 not present in database
Track 3 not present in database
Track 4 not present in database
Track 5 not present in database
Track 6 not present in database
Track 7 not present in database
Track 8 not present in database
Track 9 not present in database

None of the tracks are present in the AccurateRip database

End of status report

–– CUETools DB Plugin V2.1.6

[CTDB TOCID: qMkWAwu0qPEK7beZ_it3WzHY67A-] disk not present in database
Submit result: qMkWAwu0qPEK7beZ_it3WzHY67A- has been uploaded


==== Log checksum 0B856D95B17E914DB7070DF8AE242D81F92769A22E1EA33ED290195152D5AFCF ====

[CUETools log; Date: 03.05.2018 13:19:42; Version: 2.1.4]
[CTDB TOCID: qMkWAwu0qPEK7beZ_it3WzHY67A-] found.
Track | CTDB Status
1 | (1/1) Accurately ripped
2 | (1/1) Accurately ripped
3 | (1/1) Accurately ripped
4 | (1/1) Accurately ripped
5 | (1/1) Accurately ripped
6 | (1/1) Accurately ripped
7 | (1/1) Accurately ripped
8 | (1/1) Accurately ripped
9 | (1/1) Accurately ripped
[AccurateRip ID: 0018e404-00b31d2d-6b111009] disk not present in database.

Track Peak [ CRC32 ] [W/O NULL] [ LOG ]
– 97,7 [20DEBA2C] [CEB14354] CRC32
01 97,7 [659289D3] [AB285830]
02 97,7 [36CC7AFD] [07A9CAB5]
03 39,2 [EA8A10D2] [4FB0D363]
04 97,7 [A3914CA7] [7AEECDE5]
05 97,7 [9AF7CBE4] [96EEAA37]
06 97,7 [1FBB63B9] [3276BAC9]
07 97,7 [9DF1764A] [8DF95F33]
08 97,7 [31EC7CA4] [FD2FECA5]
09 97,7 [DA09EE86] [CF36E935]

foobar2000 1.2 / Dynamic Range Meter 1.1.1
log date: 2018-05-03 13:18:14

––––––––––––––––––––––––––––––––––––––––
Analyzed: Mark Knopfler / The Golden Heart Live Antique (CD2)
––––––––––––––––––––––––––––––––––––––––

DR Peak RMS Duration Track
––––––––––––––––––––––––––––––––––––––––
DR8 -0.20 dB -11.05 dB 17:04 01-Sultans Of Swing
DR11 -0.20 dB -13.21 dB 5:25 02-Done With Bonaparte
DR10 -8.11 dB -22.61 dB 0:55 03-Father And Son
DR11 -0.20 dB -15.11 dB 5:00 04-Golden Heart
DR11 -0.20 dB -12.57 dB 5:32 05-Water Of Love
DR8 -0.20 dB -9.92 dB 7:34 06-Cannibals
DR8 -0.20 dB -11.14 dB 15:30 07-Telegraph Road
DR10 -0.20 dB -15.29 dB 8:57 08-Brothers In Arms
DR10 -0.20 dB -11.36 dB 6:52 09-Money For Nothing
––––––––––––––––––––––––––––––––––––––––

Number of tracks: 9
Official DR value: DR10

Samplerate: 44100 Hz
Channels: 2
Bits per sample: 16
Bitrate: 859 kbps
Codec: FLAC
================================================================================


Exact Audio Copy V1.2 from 12. August 2016

EAC extraction logfile from 2. May 2018, 18:50

Mark Knopfler / The Golden Heart Live Antique (CD3)

Used drive : ASUS SDRW-08D1S-U Adapter: 1 ID: 1

Read mode : Secure
Utilize accurate stream : Yes
Defeat audio cache : Yes
Make use of C2 pointers : No

Read offset correction : 667
Overread into Lead-In and Lead-Out : No
Fill up missing offset samples with silence : Yes
Delete leading and trailing silent blocks : No
Null samples used in CRC calculations : Yes
Used interface : Native Win32 interface for Win NT & 2000

Used output format : User Defined Encoder
Selected bitrate : 128 kBit/s
Quality : High
Add ID3 tag : No
Command line compressor : C:\Program Files (x86)\Exact Audio Copy\Flac\flac.exe
Additional command line options : -V -8 -T "Date=%year%" -T "Genre=%genre%" %source%


TOC of the extracted CD

Track | Start | Length | Start sector | End sector
––––––––––––––––––––––––––––-
1 | 0:00.00 | 5:44.38 | 0 | 25837
2 | 5:44.38 | 4:11.09 | 25838 | 44671
3 | 9:55.47 | 4:59.06 | 44672 | 67102
4 | 14:54.53 | 1:06.70 | 67103 | 72122
5 | 16:01.48 | 4:53.14 | 72123 | 94111
6 | 20:54.62 | 5:08.57 | 94112 | 117268
7 | 26:03.44 | 5:53.16 | 117269 | 143759


Range status and errors

Selected range

Filename C:\Users\Олег\Desktop\Mark Knopfler - The Golden Heart Live Antique 1996\CD3\Mark Knopfler - The Golden Heart Live Antique (CD3).wav

Peak level 100.0 %
Extraction speed 3.3 X
Range quality 100.0 %
Test CRC 1B179682
Copy CRC 1B179682
Copy OK

No errors occurred


AccurateRip summary

Track 1 not present in database
Track 2 not present in database
Track 3 not present in database
Track 4 not present in database
Track 5 not present in database
Track 6 not present in database
Track 7 not present in database

None of the tracks are present in the AccurateRip database

End of status report

–– CUETools DB Plugin V2.1.6

[CTDB TOCID: 6w6rZEPLasQSiBXh3kJiAzjriS8-] disk not present in database
Submit result: 6w6rZEPLasQSiBXh3kJiAzjriS8- has been uploaded


==== Log checksum EC2690CBE458379B431BC6696682B5AE523EA60AF73D3D376F14C8048FB15F2B ====

[CUETools log; Date: 03.05.2018 13:19:56; Version: 2.1.4]
[CTDB TOCID: 6w6rZEPLasQSiBXh3kJiAzjriS8-] found.
Track | CTDB Status
1 | (1/1) Accurately ripped
2 | (1/1) Accurately ripped
3 | (1/1) Accurately ripped
4 | (1/1) Accurately ripped
5 | (1/1) Accurately ripped
6 | (1/1) Accurately ripped
7 | (1/1) Accurately ripped
[AccurateRip ID: 00089e8d-00331f53-6c077c07] disk not present in database.

Track Peak [ CRC32 ] [W/O NULL] [ LOG ]
– 100,0 [1B179682] [B68E8369] CRC32
01 97,7 [E69018AA] [E147CCB7]
02 74,9 [C412C9C0] [ABD3833E]
03 97,7 [2394E8A0] [C5CFB917]
04 69,9 [85533DA3] [C9C662E4]
05 100,0 [0A0CAC64] [3A405EF9]
06 100,0 [27B6AFB7] [47E58B04]
07 100,0 [C895A28F] [7172A626]

foobar2000 1.2 / Dynamic Range Meter 1.1.1
log date: 2018-05-03 13:18:42

––––––––––––––––––––––––––––––––––––––––
Analyzed: Mark Knopfler / The Golden Heart Live Antique (CD3)
––––––––––––––––––––––––––––––––––––––––

DR Peak RMS Duration Track
––––––––––––––––––––––––––––––––––––––––
DR12 -0.20 dB -16.83 dB 5:45 01-A Night In Summer Long Ago
DR12 -2.51 dB -19.17 dB 4:11 02-The Long Highway
DR8 -0.20 dB -10.66 dB 4:59 03-Going Home
DR17 -3.10 dB -26.51 dB 1:07 04-Interview
DR10 0.00 dB -11.43 dB 4:53 05-Darling Pretty
DR11 0.00 dB -12.23 dB 5:09 06-Walk Of Life
DR10 0.00 dB -11.45 dB 5:53 07-Imelda
––––––––––––––––––––––––––––––––––––––––

Number of tracks: 7
Official DR value: DR12

Samplerate: 44100 Hz
Channels: 2
Bits per sample: 16
Bitrate: 854 kbps
Codec: FLAC
================================================================================

Mark Knopfler - The Golden Heart: Live Antique 1996 (2016) 3CDs [Unofficial Release]

All thanks to original releaser - Alex Fal

More interesting music in My Blog