Subcategories

Marlene Dietrich - Lili Marlene: The Best of Marlene Dietrich (2000) [Re-Up]

Posted By: Designol
Marlene Dietrich - Lili Marlene: The Best of Marlene Dietrich (2000) [Re-Up]

Marlene Dietrich - Lili Marlene: The Best of Marlene Dietrich (2000)
EAC | FLAC | Image (Cue&Log) ~ 194 Mb | Mp3 (CBR320) ~ 124 Mb | Scans included
Cabaret, Vocal Pop | Label: Spectrum Music | # 544 293-2 | Time: 00:45:25

La Femme Dietrich's career lasted several decades, and when she inked a deal with Decca Records in 1939, her first recording assignment was to produce an album of her "greatest hits," so already pervasive was her fame. This 16-track collection rounds up selections recorded over a 25-year period between her signing to Decca and her later recordings for Dot and Kapp, all of which parent company MCA-Universal now owns. Besides the definitive, elegant orchestral reading of 'Falling In Love Again', Marlene also puts her pipes and personality to other hits like "The Boys in the Backroom" and "You've Got That Look (That Makes Me Weak)" from the movie Destry Rides Again, as well as a batch of classy readings of "You Do Something to Me," "You Go to My Head," and uncharacteristic, almost surreal 1957 rock & roll stabs at "Near You," and "Kisses Sweeter Than Wine" and the campy spins of her final single in 1965, "If He Swing By the String" and "Such Trying Times." All in all, a great little career overview to add to the pop vocal side of the collection.

Review by Cub Koda, Allmusic.com

The most exotic actress of the 1930s and '40s, Marlene Dietrich performed her cabaret act around the world and recorded for Decca, Columbia and Capitol in the post-war period, after her film career had slowed. A thick German accent and her odd sung-spoken vocal style proved no barrier to international popular success and adoration. Born near Berlin in 1901, she began studying acting as a teenager, and auditioned with director Max Reinhardt several times before entering his drama school. She worked in the German theater and film world during the 1920s, gradually assuming star status until her international breakout at the end of the decade, when she appeared in The Blue Angel, directed by American Josef von Sternberg.

The film's success led directly to Hollywood, where she became one of the major female stars of the 1930s, in such films as Song of Songs, The Scarlet Empress, Knight Without Armour and Destry Rides Again. Because of her German heritage, the newly American citizen made a large mark in the war effort, performing the favorite "Lilli Marlene" on USO tours and recording anti-Nazi propaganda in German. She was awarded the Medal of Freedom and Chevalier of the French Legion of Honor after war's end. She had recorded music in Germany as early as the late '20s, but Dietrich returned again to the vocal industry in the '50s, first with Decca and then a long-standing contract with Columbia. The label released many live albums, preserving her wild cabaret act from various European capitals (several of them recorded with a young Burt Bacharach serving as musical director).

After her Columbia contract expired, Marlene Dietrich began to record with Capitol in the mid-'60s but retired a decade later, returning only for two roles – one in the 1979 film Just a Gigolo with David Bowie, the other a 1984 documentary name Marlene, with her recorded interviews but no glimpse of the present-day Dietrich. Just after her death in 1992, a new musical opened based on her life, titled Sag Mir Wo Die Blumen Sind ("Where Have All the Flowers Gone?").

John Bush, Allmusic.com

Marlene Dietrich - Lili Marlene: The Best of Marlene Dietrich (2000) [Re-Up]



Tracklist:

01. Falling In Love Again (02:58)
02. You've Got That Look (02:44)
03. The Boys In The Backroom (02:03)
04. I've Been In Love Bevore (02:38)
05. You Go To My Head (03:10)
06. You Do Something To Me (03:01)
07. Illusions (03:24)
08. Black Market (03:13)
09. Lili Marlene (03:27)
10. Symphonie (03:05)
11. Another Spring, Another Love (02:21)
12. Near You (02:19)
13. Kisses Sweeter Than Wine (03:03)
14. I May Never Go Home Anymore (01:43)
15. If He Swing By The String (03:12)
16. Such Trying Times (02:58)


Exact Audio Copy V0.99 prebeta 5 from 4. May 2009

Отчёт EAC об извлечении, выполненном 8. января 2011, 18:34

Marlene Dietrich / The Best of

Дисковод: PIONEER DVD-RW DVR-217F Adapter: 0 ID: 1

Режим чтения : Достоверность
Использование точного потока : Да
Отключение кэша аудио : Да
Использование указателей C2 : Нет

Коррекция смещения при чтении : 96
Способность читать области Lead-in и Lead-out : Нет
Заполнение пропущенных сэмплов тишиной : Да
Удаление блоков с тишиной в начале и конце : Нет
При вычислениях CRC использовались нулевые сэмплы : Да
Интерфейс : Установленный внешний ASPI-интерфейс

Выходной формат : Пользовательский кодировщик
Выбранный битрейт : 128 kBit/s
Качество : Высокий
Добавление ID3-тэга : Нет
Утилита сжатия : C:\Program Files\FLAC\FLAC frontend.exe
Дополнительные параметры : -8 -V %s


TOC извлечённого CD

Трек | Старт | Длительность | Начальный сектор | Конечный сектор
––––––––––––––––––––––––––––––––––-
1 | 0:00.00 | 2:58.50 | 0 | 13399
2 | 2:58.50 | 2:44.02 | 13400 | 25701
3 | 5:42.52 | 2:03.00 | 25702 | 34926
4 | 7:45.52 | 2:38.40 | 34927 | 46816
5 | 10:24.17 | 3:10.05 | 46817 | 61071
6 | 13:34.22 | 3:01.34 | 61072 | 74680
7 | 16:35.56 | 3:24.22 | 74681 | 90002
8 | 20:00.03 | 3:13.29 | 90003 | 104506
9 | 23:13.32 | 3:27.16 | 104507 | 120047
10 | 26:40.48 | 3:05.28 | 120048 | 133950
11 | 29:46.01 | 2:21.71 | 133951 | 144596
12 | 32:07.72 | 2:19.55 | 144597 | 155076
13 | 34:27.52 | 3:03.44 | 155077 | 168845
14 | 37:31.21 | 1:43.64 | 168846 | 176634
15 | 39:15.10 | 3:12.01 | 176635 | 191035
16 | 42:27.11 | 2:58.54 | 191036 | 204439


Характеристики диапазона извлечения и сообщения об ошибках

Выбранный диапазон

Имя файла C:\Torrent\Marlene Dietrich\Marlene Dietrich - The Best of.wav

Пиковый уровень 97.9 %
Качество диапазона 99.9 %
CRC теста 9416B6FB
CRC копии 9416B6FB
Копирование… OK

Ошибок не произошло


AccurateRip: сводка

Трек 1 точное извлечение (доверие 2) [2BB18CDA]
Трек 2 точное извлечение (доверие 2) [2BC73392]
Трек 3 точное извлечение (доверие 2) [EBD9A39F]
Трек 4 точное извлечение (доверие 2) [FEB5A723]
Трек 5 точное извлечение (доверие 2) [CFDB86D6]
Трек 6 точное извлечение (доверие 2) [7D68A954]
Трек 7 точное извлечение (доверие 2) [866B0A43]
Трек 8 точное извлечение (доверие 2) [DE0B3CA1]
Трек 9 точное извлечение (доверие 2) [22D5DE0E]
Трек 10 точное извлечение (доверие 2) [29B582B1]
Трек 11 точное извлечение (доверие 2) [1AEAA326]
Трек 12 точное извлечение (доверие 2) [2D090006]
Трек 13 точное извлечение (доверие 2) [AF2FC107]
Трек 14 точное извлечение (доверие 2) [3AE99380]
Трек 15 точное извлечение (доверие 2) [FF1E0842]
Трек 16 точное извлечение (доверие 2) [D103E8AB]

Все треки извлечены точно

Конец отчёта

foobar2000 1.3.8 / Dynamic Range Meter 1.1.1
log date: 2015-12-03 18:00:34

––––––––––––––––––––––––––––––––––––––––
Analyzed: Marlene Dietrich / The Best of
––––––––––––––––––––––––––––––––––––––––

DR Peak RMS Duration Track
––––––––––––––––––––––––––––––––––––––––
DR11 -2.21 dB -15.79 dB 2:59 01-Falling in Love again
DR11 -0.92 dB -14.94 dB 2:44 02-You've got that Look
DR10 -0.89 dB -12.95 dB 2:03 03-The Boys in the Backroom
DR11 -1.42 dB -16.01 dB 2:39 04-I've been in Love bevore
DR11 -1.09 dB -14.57 dB 3:10 05-You go to my Head
DR10 -0.69 dB -13.70 dB 3:01 06-You do something to me
DR12 -2.01 dB -16.24 dB 3:24 07-Illusions
DR13 -1.37 dB -17.08 dB 3:13 08-Black Market
DR12 -0.35 dB -15.50 dB 3:27 09-Lili Marlene
DR11 -1.72 dB -15.14 dB 3:05 10-Symphonie
DR13 -0.18 dB -16.39 dB 2:22 11-Another Spring, another Love
DR13 -0.95 dB -16.49 dB 2:20 12-Near You
DR11 -2.16 dB -16.19 dB 3:04 13-Kisses sweeter than Wine
DR11 -2.09 dB -13.98 dB 1:44 14-I may never go home anymore
DR10 -2.87 dB -15.67 dB 3:12 15-If he swing by the string
DR11 -1.13 dB -15.29 dB 2:59 16-Such trying times
––––––––––––––––––––––––––––––––––––––––

Number of tracks: 16
Official DR value: DR11

Samplerate: 44100 Hz
Channels: 2
Bits per sample: 16
Bitrate: 535 kbps
Codec: FLAC
================================================================================

Marlene Dietrich - Lili Marlene: The Best of Marlene Dietrich (2000) [Re-Up]

Marlene Dietrich - Lili Marlene: The Best of Marlene Dietrich (2000) [Re-Up]

All thanks to original releaser - alexkhaa

More interesting music in My Blog