Subcategories

Martin L. Gore - MG (2015)

Posted By: popsakov
Martin L. Gore - MG (2015)

Martin L. Gore - MG (2015)
EAC Rip | FLAC (Img) + Cue + Log ~ 320 Mb | MP3 CBR320 ~ 140 Mb
Covers Included | RAR 5% Recovery
Electronic, Experimental, Minimal | Mute Records #CDSTUMM381

MG is the second solo studio album by Martin Gore, the primary songwriter for the band Depeche Mode. It was released on 24 April 2015 by Mute Records and consists of sixteen electronic instrumentals. Martin Lee Gore is an English singer songwriter, guitarist, keyboardist, producer, remixer, and DJ. He is a founding member of Depeche Mode and has written the majority of their songs. His work now spans over three decades. Gore's best-known compositions include hits such as "Personal Jesus", "Enjoy the Silence", "I Feel You", "People Are People", "Everything Counts", "Shake the Disease" and "Never Let Me Down Again".

***************

Martin L. Gore - MG (2015)

Track List:

01. Pinking [02:23]
02. Swanning [02:58]
03. Exalt [04:31]
04. Elk [02:04]
05. Brink [03:06]
06. Europa Hymn [03:17]
07. Creeper [03:26]
08. Spiral [04:02]
09. Stealth [04:16]
10. Hum [04:13]
11. Islet [03:19]
12. Crowly [04:18]
13. Trysting [03:18]
14. Southerly [04:04]
15. Featherlight [02:33]
16. Blade [03:09]

Exact Audio Copy V1.0 beta 3 from 29. August 2011

EAC extraction logfile from 15. May 2015, 19:14

Martin L. Gore / MG

Used drive : MATSHITABD-CMB UJ242AS Adapter: 0 ID: 1

Read mode : Secure
Utilize accurate stream : Yes
Defeat audio cache : Yes
Make use of C2 pointers : No

Read offset correction : 103
Overread into Lead-In and Lead-Out : No
Fill up missing offset samples with silence : Yes
Delete leading and trailing silent blocks : No
Null samples used in CRC calculations : Yes
Used interface : Installed external ASPI interface

Used output format : User Defined Encoder
Selected bitrate : 1024 kBit/s
Quality : High
Add ID3 tag : Yes
Command line compressor : C:\Program Files (x86)\Exact Audio Copy\Flac\flac.exe
Additional command line options : -V -8 -T "Date=%year%" -T "Genre=%genre%" %source%


TOC of the extracted CD

Track | Start | Length | Start sector | End sector
––––––––––––––––––––––––––––-
1 | 0:00.00 | 2:22.33 | 0 | 10682
2 | 2:22.33 | 2:57.71 | 10683 | 24028
3 | 5:20.29 | 4:30.73 | 24029 | 44351
4 | 9:51.27 | 2:03.57 | 44352 | 53633
5 | 11:55.09 | 3:05.55 | 53634 | 67563
6 | 15:00.64 | 3:16.16 | 67564 | 82279
7 | 18:17.05 | 3:25.03 | 82280 | 97657
8 | 21:42.08 | 4:01.57 | 97658 | 115789
9 | 25:43.65 | 4:15.73 | 115790 | 134987
10 | 29:59.63 | 4:12.61 | 134988 | 153948
11 | 34:12.49 | 3:18.36 | 153949 | 168834
12 | 37:31.10 | 4:17.43 | 168835 | 188152
13 | 41:48.53 | 3:17.26 | 188153 | 202953
14 | 45:06.04 | 4:03.57 | 202954 | 221235
15 | 49:09.61 | 2:32.06 | 221236 | 232641
16 | 51:41.67 | 3:08.03 | 232642 | 246744


Range status and errors

Selected range

Filename C:\EACrip\Martin L. Gore - MG.wav

Peak level 97.3 %
Extraction speed 2.5 X
Range quality 100.0 %
Test CRC BEB7CC4E
Copy CRC BEB7CC4E
Copy OK

No errors occurred


AccurateRip summary

Track 1 not present in database
Track 2 not present in database
Track 3 not present in database
Track 4 not present in database
Track 5 not present in database
Track 6 not present in database
Track 7 not present in database
Track 8 not present in database
Track 9 not present in database
Track 10 not present in database
Track 11 not present in database
Track 12 not present in database
Track 13 not present in database
Track 14 not present in database
Track 15 not present in database
Track 16 not present in database

None of the tracks are present in the AccurateRip database

End of status report

==== Log checksum BD5CAE318D5AB658D42F963144AD1EB1030320D2DACE4F3455CEA71C1DE48995 ====

Martin L. Gore - MG (2015)

All thanks go to rd

>>> My Blog <<<

Download from icerbox.com: