Subcategories

Daniel Barenboim, Staatskapelle Berlin, Anna Netrebko, Rolando Villazon - Massenet: Manon (2008) [Blu-Ray]

Posted By: Vilboa
Daniel Barenboim, Staatskapelle Berlin, Anna Netrebko, Rolando Villazon - Massenet: Manon (2008) [Blu-Ray]

Daniel Barenboim, Staatskapelle Berlin, Anna Netrebko, Rolando Villazón - Massenet: Manon (2008) [Blu-Ray]
BluRay | BDMV | MPEG-4 AVC Video / 1080i / 29,970 fps | 158 min | 43,2 Gb
Audio1: French / LPCM Audio / 2.0 / 24-bit | Audio2: French / LPCM Audio / 5.1 / 24-bit | Audio3: DTS-HD Master Audio / 5.1 / 48 kHz / 24-bit

BluRay-rip | AVC | MKV 1920x1080 / 6215 kbps / 29,97 fps | 158 min | 8,59 Gb
Audio: French / DTS / 6ch / 48.0 KHz / 24 bits
Classical | Deutsche Grammophon | Sub: French, English, German, Spanish, Chinese

International superstars Anna Netrebko and Rolando Villazón give inspired performances in Massenet's passionate opera, Manon. Netrebko gives full range to her abilities as a singer and actress in portraying innocence, lust, greed and, above all, beauty. It is Netrebko's mesmerizing performance which makes Villazón's youthful passion and ultimate despair even more authentic and heart-breaking. The setting in this production has been updated to the 1950s and the entire opera takes place as if Manon were the star of her own film. Indeed, Netrebko transforms her character from the innocence of Audrey Hepburn through the voluptuousness of Marilyn Monroe into the tragedy of Ingrid Bergman. The work of director Vincent Paterson, known for his work on Broadway and in music videos, is especially effective in creating an energetic and ultimately tragic performance with stunning visual splendor. Netrebko and Villazón, the true dream-team for this opera, are joined by the conductor Daniel Barenboim who leads the Staatskapelle Berlin in a spontaneous and passionate performance.

Cast:
Manon - Anna Netrebko
Le Chevalier des Grieux - Rolando Villazón
Le Comte des Grieux - Christof Fischesser
Lescaut - Alfredo Daza
Guillot de Morfontaine - Rémy Corazza
Brétigny - Alfredo Daza
Staatsopernchor
Staatskapelle Berlin
Conductor - Daniel Barenboim


Disc Title: MASSENET MANON
Disc Size: 46 393 702 340 bytes
Protection: AACS
BD-Java: No
Playlist: 00001.MPLS
Size: 44 346 003 456 bytes
Length: 2:38:36.507
Total Bitrate: 37,28 Mbps
Video: MPEG-4 AVC Video / 23906 kbps / 1080i / 29,970 fps / 16:9 / High Profile 4.1
Audio: French / DTS-HD High-Res Audio / 5.1 / 48 kHz / 2046 kbps / 24-bit (DTS Core: 5.1 / 48 kHz / 1509 kbps / 24-bit)
Audio: French / LPCM Audio / 5.1 / 48 kHz / 6912 kbps / 24-bit
Audio: French / LPCM Audio / 2.0 / 48 kHz / 2304 kbps / 24-bit
Subtitle: French / 21,759 kbps
Subtitle: English / 22,734 kbps
Subtitle: German / 24,151 kbps
Subtitle: Spanish / 20,616 kbps
Subtitle: Chinese / 22,314 kbps


General
Unique ID : 216935684598873424988817284699191093833 (0xA3344B087042880CA8524AB64795AA49)
Complete name : C:\Manon.mkv
Format : Matroska
Format version : Version 2
File size : 8.60 GiB
Duration : 2h 38mn
Overall bit rate : 7 762 Kbps
Movie name : Manon
Encoded date : UTC 2018-02-04 14:18:27
Writing application : DVDFab 9.1.6.8
Writing library : libebml v0.7.8 + libmatroska v0.8.1

Video
ID : 1
Format : AVC
Format/Info : Advanced Video Codec
Format profile : High@L4.1
Format settings, CABAC : Yes
Format settings, ReFrames : 2 frames
Codec ID : V_MPEG4/ISO/AVC
Duration : 2h 38mn
Bit rate : 6 215 Kbps
Width : 1 920 pixels
Height : 1 080 pixels
Display aspect ratio : 16:9
Frame rate mode : Constant
Frame rate : 29.970 fps
Color space : YUV
Chroma subsampling : 4:2:0
Bit depth : 8 bits
Scan type : Progressive
Bits/(Pixel*Frame) : 0.100
Stream size : 6.75 GiB (79%)
Writing library : x264 core 142
Encoding settings : cabac=1 / ref=1 / deblock=1:-1:-1 / analyse=0x3:0 / me=hex / subme=5 / psy=0 / mixed_ref=0 / me_range=16 / chroma_me=1 / trellis=0 / 8x8dct=1 / cqm=0 / deadzone=21,11 / fast_pskip=1 / chroma_qp_offset=0 / threads=8 / lookahead_threads=2 / sliced_threads=0 / nr=0 / decimate=1 / interlaced=0 / bluray_compat=0 / constrained_intra=0 / bframes=2 / b_pyramid=0 / b_adapt=1 / b_bias=0 / direct=1 / weightb=1 / open_gop=0 / weightp=0 / keyint=24 / keyint_min=13 / scenecut=40 / intra_refresh=0 / rc=abr / mbtree=0 / bitrate=6215 / ratetol=1.0 / qcomp=0.60 / qpmin=0 / qpmax=69 / qpstep=4 / ip_ratio=1.40 / pb_ratio=1.30 / aq=1:1.00
Default : Yes
Forced : No
Color primaries : BT.709
Transfer characteristics : BT.709
Matrix coefficients : BT.709
Color range : Limited

Audio
ID : 2
Format : DTS
Format/Info : Digital Theater Systems
Mode : 16
Format settings, Endianness : Big
Codec ID : A_DTS
Duration : 2h 38mn
Bit rate mode : Constant
Bit rate : 1 509 Kbps
Channel(s) : 6 channels
Channel positions : Front: L C R, Side: L R, LFE
Sampling rate : 48.0 KHz
Bit depth : 24 bits
Compression mode : Lossy
Stream size : 1.67 GiB (19%)
Language : French
Default : Yes
Forced : No

Text #1
ID : 3
Format : VobSub
Codec ID : S_VOBSUB
Codec ID/Info : The same subtitle format used on DVDs
Language : French
Default : Yes
Forced : No

Text #2
ID : 4
Format : VobSub
Codec ID : S_VOBSUB
Codec ID/Info : The same subtitle format used on DVDs
Language : English
Default : No
Forced : No

Text #3
ID : 5
Format : VobSub
Codec ID : S_VOBSUB
Codec ID/Info : The same subtitle format used on DVDs
Language : German
Default : No
Forced : No

Text #4
ID : 6
Format : VobSub
Codec ID : S_VOBSUB
Codec ID/Info : The same subtitle format used on DVDs
Language : Spanish
Default : No
Forced : No

Text #5
ID : 7
Format : VobSub
Codec ID : S_VOBSUB
Codec ID/Info : The same subtitle format used on DVDs
Language : Chinese
Default : No
Forced : No

Menu
00:00:00.000 : en:Chapter 01
00:03:43.456 : en:Chapter 02
00:08:58.504 : en:Chapter 03
00:11:43.169 : en:Chapter 04
00:16:33.792 : en:Chapter 05
00:20:15.714 : en:Chapter 06
00:23:13.825 : en:Chapter 07
00:28:38.750 : en:Chapter 08
00:33:06.784 : en:Chapter 09
00:36:51.108 : en:Chapter 10
00:40:05.369 : en:Chapter 11
00:43:54.431 : en:Chapter 12
00:47:33.016 : en:Chapter 13
00:53:28.772 : en:Chapter 14
00:55:35.899 : en:Chapter 15
01:00:16.679 : en:Chapter 16
01:05:31.093 : en:Chapter 17
01:09:16.018 : en:Chapter 18
01:13:07.082 : en:Chapter 19
01:15:16.111 : en:Chapter 20
01:17:58.140 : en:Chapter 21
01:21:40.128 : en:Chapter 22
01:28:20.328 : en:Chapter 23
01:30:19.781 : en:Chapter 24
01:33:31.172 : en:Chapter 25
01:37:39.420 : en:Chapter 26
01:40:54.181 : en:Chapter 27
01:46:03.924 : en:Chapter 28
01:48:00.173 : en:Chapter 29
01:49:27.294 : en:Chapter 30
01:52:55.568 : en:Chapter 31
01:57:03.716 : en:Chapter 32
02:01:28.681 : en:Chapter 33
02:07:00.813 : en:Chapter 34
02:13:53.291 : en:Chapter 35
02:16:45.797 : en:Chapter 36
02:21:06.357 : en:Chapter 37
02:22:58.970 : en:Chapter 38
02:33:51.222 : en:Chapter 39

All screenshots taken from BDRip

Daniel Barenboim, Staatskapelle Berlin, Anna Netrebko, Rolando Villazon - Massenet: Manon (2008) [Blu-Ray]