Subcategories

Gianandrea Noseda, Orchestra e Coro del Teatro Regio di Torino - Massenet: Thais (2009)

Posted By: Vilboa
Gianandrea Noseda, Orchestra e Coro del Teatro Regio di Torino - Massenet: Thais (2009)

Gianandrea Noseda, Orchestra e Coro del Teatro Regio di Torino - Massenet: Thaïs (2009)
BluRay | BDMV | MPEG-4 AVC Video / 14974 kbps / 1080i / 29,970 fps | 139 min | 21,2 Gb
Audio1: French / LPCM Audio / 2.0 / 16-bit | Audio2: DTS-HD Master Audio / 7.1 / 48 kHz / 2369 kbps / 16-bit

BluRay-rip | AVC | MKV 1920x1080 / 6215 kbps / 29,97 fps | 139 min | 7,53 Gb
Audio: French / DTS / 6ch / 48.0 KHz / 16 bits
Classical | Arthaus Musik | Sub: English, German, French, Spanish, Italian, Japanese

Thaïs, a mature work by the composer Jules Massenet on the libretto by Louis Gallet, it is based on the novel of the same name by Anatole France. The new production of this rarely performed work is the result of more than a year of close collaboration between the forces of the Theatre and Stefano Poda, responsible, for the first time in Italy, for the direction, choreography, sets, lighting and costumes. On the podium, Gianandrea Noseda, who, seduced by the dramatic force and modernity of the orchestral writing, conducts Thaïs for the first time; a debut also for the protagonist Barbara Frittoli, who has chosen the Regio to make her debut in this difficult role. Georgian baritone Lado Ataneli gives an impressive study of the monk Athanaël. Purifi ed of the anticlerical excesses of Anatole France’s original novel, the libretto by Louis Gallet retains the sensual charge, and above all, the irony which, though remaining underplayed, contributes to keeping alive a subject that has possible references to the contemporary world. The taste for the orient that characterised French culture during the nineteenth century had become, by the end on the century, a truly dominant theme in literature, painting and theatre. In Thaïs, which had its debut in 1894, exoticism becomes the vehicle of a trend which is explicitly decadent, containing themes typical of fin-de-siècle art, i.e. the contrast between sacred and profane, transgression and the figure of the femme fatale. The story, which stands out against the background of Alessandria in Egypt in all its opulence and refinement, culture and indolence, presents us with the crossed destinies of Athanaël, a Cenobite monk whose missionary zeal borders on fanaticism, and Thaïs, a famous courtesan who, worried about the transience of her beauty, lets herself be convinced to search immortality in the love of God.

Cast:
Thaïs – Barbara Frittoli
Athanaël – Lado Ataneli
Nicias – Alessandro Liberatore
Palémon – Maurizio Lo Piccolo
Albine – Nadežda Serdyuk
Crobyle – Eleonora Buratto
Myrtale – Kete van Kemoklidze
La Charmeuse – Daniela Schillaci
Un serviteur – Diego Matamoros
Orchestra e Coro del Teatro Regio di Torino
Conductor - Gianandrea Noseda


Disc Title: MASSENET THAIS
Disc Size: 22 787 669 084 bytes
Protection: AACS
BD-Java: No
Playlist: 00000.MPLS
Size: 21 241 202 688 bytes
Length: 2:19:10.709
Total Bitrate: 20,35 Mbps
Video: MPEG-4 AVC Video / 14974 kbps / 1080i / 29,970 fps / 16:9 / High Profile 4.1
Audio: French / LPCM Audio / 2.0 / 48 kHz / 1536 kbps / 16-bit
Audio: French / DTS-HD Master Audio / 7.1 / 48 kHz / 2369 kbps / 16-bit (DTS Core: 5.1 / 48 kHz / 1509 kbps / 16-bit)
Subtitle: English / 15,410 kbps
Subtitle: German / 15,572 kbps
Subtitle: French / 13,750 kbps
Subtitle: Spanish / 12,887 kbps
Subtitle: Italian / 13,175 kbps
Subtitle: Japanese / 14,847 kbps


General
Unique ID : 205067588135997798111312664798736394462 (0x9A4694B355D2A63A898518B73E8FA8DE)
Complete name : C:\Thais_01.mkv
Format : Matroska
Format version : Version 2
File size : 2.35 GiB
Duration : 43mn 18s
Overall bit rate : 7 752 Kbps
Movie name : Thais_01
Encoded date : UTC 2017-12-07 08:13:31
Writing application : DVDFab 9.1.6.8
Writing library : libebml v0.7.8 + libmatroska v0.8.1

Video
ID : 1
Format : AVC
Format/Info : Advanced Video Codec
Format profile : High@L4.1
Format settings, CABAC : Yes
Format settings, ReFrames : 2 frames
Codec ID : V_MPEG4/ISO/AVC
Duration : 43mn 18s
Bit rate : 6 215 Kbps
Width : 1 920 pixels
Height : 1 080 pixels
Display aspect ratio : 16:9
Frame rate mode : Constant
Frame rate : 29.970 fps
Color space : YUV
Chroma subsampling : 4:2:0
Bit depth : 8 bits
Scan type : Progressive
Bits/(Pixel*Frame) : 0.100
Stream size : 1.84 GiB (79%)
Writing library : x264 core 142
Encoding settings : cabac=1 / ref=1 / deblock=1:-1:-1 / analyse=0x3:0 / me=hex / subme=5 / psy=0 / mixed_ref=0 / me_range=16 / chroma_me=1 / trellis=0 / 8x8dct=1 / cqm=0 / deadzone=21,11 / fast_pskip=1 / chroma_qp_offset=0 / threads=8 / lookahead_threads=2 / sliced_threads=0 / nr=0 / decimate=1 / interlaced=0 / bluray_compat=0 / constrained_intra=0 / bframes=2 / b_pyramid=0 / b_adapt=1 / b_bias=0 / direct=1 / weightb=1 / open_gop=0 / weightp=0 / keyint=24 / keyint_min=13 / scenecut=40 / intra_refresh=0 / rc=abr / mbtree=0 / bitrate=6215 / ratetol=1.0 / qcomp=0.60 / qpmin=0 / qpmax=69 / qpstep=4 / ip_ratio=1.40 / pb_ratio=1.30 / aq=1:1.00
Default : Yes
Forced : No
Color primaries : BT.709
Transfer characteristics : BT.709
Matrix coefficients : BT.709
Color range : Limited

Audio
ID : 2
Format : DTS
Format/Info : Digital Theater Systems
Mode : 16
Format settings, Endianness : Big
Codec ID : A_DTS
Duration : 43mn 18s
Bit rate mode : Constant
Bit rate : 1 509 Kbps
Channel(s) : 6 channels
Channel positions : Front: L C R, Side: L R, LFE
Sampling rate : 48.0 KHz
Bit depth : 16 bits
Compression mode : Lossy
Stream size : 467 MiB (19%)
Language : French
Default : Yes
Forced : No

Text #1
ID : 3
Format : VobSub
Codec ID : S_VOBSUB
Codec ID/Info : The same subtitle format used on DVDs
Language : English
Default : Yes
Forced : No

Text #2
ID : 4
Format : VobSub
Codec ID : S_VOBSUB
Codec ID/Info : The same subtitle format used on DVDs
Language : German
Default : No
Forced : No

Text #3
ID : 5
Format : VobSub
Codec ID : S_VOBSUB
Codec ID/Info : The same subtitle format used on DVDs
Language : French
Default : No
Forced : No

Text #4
ID : 6
Format : VobSub
Codec ID : S_VOBSUB
Codec ID/Info : The same subtitle format used on DVDs
Language : Spanish
Default : No
Forced : No

Text #5
ID : 7
Format : VobSub
Codec ID : S_VOBSUB
Codec ID/Info : The same subtitle format used on DVDs
Language : Italian
Default : No
Forced : No

Text #6
ID : 8
Format : VobSub
Codec ID : S_VOBSUB
Codec ID/Info : The same subtitle format used on DVDs
Language : Japanese
Default : No
Forced : No

Menu
00:00:00.000 : en:Chapter 01
00:02:29.749 : en:Chapter 02
00:06:27.053 : en:Chapter 03
00:08:07.854 : en:Chapter 04
00:10:04.870 : en:Chapter 05
00:13:05.417 : en:Chapter 06
00:14:51.156 : en:Chapter 07
00:17:00.619 : en:Chapter 08
00:19:38.677 : en:Chapter 09
00:21:16.642 : en:Chapter 10
00:22:09.394 : en:Chapter 11
00:24:49.988 : en:Chapter 12
00:28:48.693 : en:Chapter 13
00:32:13.531 : en:Chapter 14
00:33:57.402 : en:Chapter 15
00:36:55.846 : en:Chapter 16
00:38:56.734 : en:Chapter 17
00:41:08.165 : en:Chapter 18

All screenshots taken from BDRip

Gianandrea Noseda, Orchestra e Coro del Teatro Regio di Torino - Massenet: Thais (2009)