Matthew Sweet & Susanna Hoffs - Completely Under The Covers (2015) 4CD Box Set

Posted By: Designol
Matthew Sweet & Susanna Hoffs - Completely Under The Covers (2015) 4CD Box Set

Matthew Sweet & Susanna Hoffs - Completely Under The Covers (2015) 4CD Box Set
EAC | FLAC | Tracks (Cue&Log) ~ 1.55 Gb (incl 5%) | Mp3 (CBR320) ~ 547 Mb (incl 5%) | Scans ~ 103 Mb
Pop/Rock, Classic Rock, Folk Rock, Alternative/Indie Rock | Label: Edsel | # EDSB 4025 | Time: 03:42:53

Limited box containing four CDs in card wallets housed inside a clamshell box. Susanna Hoffs, a founding member of The Bangles and co-conspirator Matthew Sweet released three full volumes of their Under The Covers series between 2006 and 2013, on which the two teamed up to pay homage to many of the singles (and album deep cuts) from the '60s, '70s, and '80s which informed and shaped their own musical destinies. The Beatles, Dylan, Fairport Convention, Neil Young, The Beach Boys, The Who, Grateful Dead, Fleetwood Mac, Carly Simon, The Ramones, The Clash, The Pretenders, The Smiths and Prince are amongst the 57 acts covered. With guest appearances from Lindsey Buckingham, Steve Howe, Van Dyke Parks and Dhani Harrison, this 60 song package contains all three albums and fifteen previously-hard-to-get bonus tracks plus a 48 page booklet with annotation by Sweet and Hoffs, all gathered together for the first time.

Matthew Sweet & Susanna Hoffs - Completely Under The Covers (2015) 4CD Box Set






Matthew Sweet & Susanna Hoffs - Completely Under The Covers (2015) 4CD Box Set

CD1: Volume 1, 1960s (2006)
EAC | FLAC | Tracks (Cue&Log) ~ 426 Mb | Mp3 (CBR320) ~ 140 Mb | 00:56:59

Matthew Sweet and Susanna Hoffs have always displayed an unapologetic love of '60s pop in their own music, and they even teamed up as part of the pop supergroup Ming Tea to record the terrific "BBC" for the first Austin Powers film, so the duo's 2006 album, Under the Covers, Vol. 1, feels logical and right. With this record, the two – who have adopted the name "Sid N Susie," although this only appears on the inside of the CD's booklet and on their MySpace page – tackle 15 classic pop and folk-rock tunes from the '60s (well, the Bee Gees' "Run to Me" is from 1971, but its heart is in the '60s). Their selections, a mix of familiar oldies and beloved cult classics, display exceptionally good taste: it's a mix of the Beatles ("And Your Bird Can Sing"), Bob Dylan ("It's All Over Now, Baby Blue"), the Beach Boys ("The Warmth of the Sun"), the Who ("The Kids Are Alright"), the Mamas & the Papas ("Monday, Monday"), and Neil Young ("Cinnamon Girl," "Everybody Knows This Is Nowhere"), plus Love ("Alone Again Or"), the Zombies ("Care of Cell #44"), the Velvet Underground ("Sunday Morning"), Fairport Convention ("Who Knows Where the Time Goes?"), the Stone Poneys ("Different Drum"), the Left Banke ("She May Call You Up Tonight"), and the Marmalade ("I See the Rain"). Not a bad song in the bunch, and the band – a rotating lineup largely comprised of Sweet mainstays including drummer Ric Menck and guitarist Greg Leisz, plus guitarist Richard Lloyd and keyboardist Van Dyke Parks, both appear on a couple of tracks a piece – relish playing songs that they clearly love, since they never reinterpret the songs, or even play around with the arrangements. The affection that Sweet, Hoffs and company display for this music is the reason to hear this record: they're having such a good time playing their favorite songs, it's hard not to smile along as well. And if that doesn't make for a major record, it certainly makes for a likeable one.

Stephen Thomas Erlewine, Allmusic.com

Tracklist:

01. I See The Rain (03:46) (The Marmalade)
02. And Your Bird Can Sing (02:10) (The Beatles)
03. It's All Over Now, Baby Blue (03:45) Bob Dylan)
04. Who Knows Where The Time Goes? (05:52) (Fairport Convention)
05. Cinnamon Girl (02:47) (Neil Young and Crazy Horse)
06. Alone Again Or (03:36) (Love)
07. The Warmth Of The Sun (03:09) (The Beach Boys)
08. Different Drum (02:52) (Stone Poneys featuring Linda Ronstadt)
09. The Kids Are Alright (02:50) (The Who)
10. Sunday Morning (03:27) (The Velvet Underground)
11. Everybody Knows This Is Nowhere (02:28) (Neil Young and Crazy Horse)
12. Care Of Cell 44 (03:57) (The Zombies)
13. Monday, Monday (03:28) The Mamas & The Papas
14. She May Call You Up Tonight (02:24) (The Left Banke)
15. Run To Me (03:10) (Bee Gees)
16. Village Green Preservation Society (02:57) (The Kinks)
17. I Can See For Miles (04:14) (The Who)


Exact Audio Copy V1.1 from 23. June 2015

EAC extraction logfile from 30. December 2015, 0:01

Matthew Sweet And Susanna Hoffs / Completely Under The Covers

Used drive : PLEXTOR DVDR PX-712A Adapter: 1 ID: 0

Read mode : Secure
Utilize accurate stream : Yes
Defeat audio cache : Yes
Make use of C2 pointers : No

Read offset correction : 30
Overread into Lead-In and Lead-Out : No
Fill up missing offset samples with silence : Yes
Delete leading and trailing silent blocks : No
Null samples used in CRC calculations : Yes
Used interface : Native Win32 interface for Win NT & 2000
Gap handling : Appended to previous track

Used output format : User Defined Encoder
Selected bitrate : 1024 kBit/s
Quality : High
Add ID3 tag : No
Command line compressor : C:\Program Files (x86)\Exact Audio Copy\Flac\flac.exe
Additional command line options : -8 -V -T "ARTIST=%artist%" -T "TITLE=%title%" -T "ALBUM=%albumtitle%" -T "DATE=%year%" -T "TRACKNUMBER=%tracknr%" -T "GENRE=%genre%" -T "PERFORMER=%albuminterpret%" -T "COMPOSER=%composer%" %haslyrics%–tag-from-file=LYRICS="%lyricsfile%"%haslyrics% -T "ALBUMARTIST=%albumartist%" -T "DISCNUMBER=%cdnumber%" -T "TOTALDISCS=%totalcds%" -T "TOTALTRACKS=%numtracks%" -T "COMMENT=%comment%" %source% -o %dest%


TOC of the extracted CD

Track | Start | Length | Start sector | End sector
––––––––––––––––––––––––––––-
1 | 0:00.00 | 3:46.19 | 0 | 16968
2 | 3:46.19 | 2:10.36 | 16969 | 26754
3 | 5:56.55 | 3:45.38 | 26755 | 43667
4 | 9:42.18 | 5:52.57 | 43668 | 70124
5 | 15:35.00 | 2:47.47 | 70125 | 82696
6 | 18:22.47 | 3:36.12 | 82697 | 98908
7 | 21:58.59 | 3:09.22 | 98909 | 113105
8 | 25:08.06 | 2:52.42 | 113106 | 126047
9 | 28:00.48 | 2:50.69 | 126048 | 138866
10 | 30:51.42 | 3:27.65 | 138867 | 154456
11 | 34:19.32 | 2:28.06 | 154457 | 165562
12 | 36:47.38 | 3:57.02 | 165563 | 183339
13 | 40:44.40 | 3:28.02 | 183340 | 198941
14 | 44:12.42 | 2:24.62 | 198942 | 209803
15 | 46:37.29 | 3:10.26 | 209804 | 224079
16 | 49:47.55 | 2:57.26 | 224080 | 237380
17 | 52:45.06 | 4:14.11 | 237381 | 256441


Track 1

Filename D:\Ripping\Matthew Sweet And Susanna Hoffs - 2015 - Completely Under The Covers\Disc 1\01 I See The Rain.wav

Pre-gap length 0:00:02.00

Peak level 98.7 %
Extraction speed 3.6 X
Track quality 100.0 %
Test CRC 485C3DEA
Copy CRC 485C3DEA
Accurately ripped (confidence 4) [C49D623B] (AR v2)
Copy OK

Track 2

Filename D:\Ripping\Matthew Sweet And Susanna Hoffs - 2015 - Completely Under The Covers\Disc 1\02 And Your Bird Can Sing.wav

Pre-gap length 0:00:02.54

Peak level 98.7 %
Extraction speed 2.9 X
Track quality 99.9 %
Test CRC 96FA3FDF
Copy CRC 96FA3FDF
Accurately ripped (confidence 4) [AB6A1BE6] (AR v2)
Copy OK

Track 3

Filename D:\Ripping\Matthew Sweet And Susanna Hoffs - 2015 - Completely Under The Covers\Disc 1\03 It's All Over Now, Baby Blue.wav

Pre-gap length 0:00:02.54

Peak level 98.7 %
Extraction speed 3.7 X
Track quality 100.0 %
Test CRC C3693376
Copy CRC C3693376
Accurately ripped (confidence 4) [61F2C04C] (AR v2)
Copy OK

Track 4

Filename D:\Ripping\Matthew Sweet And Susanna Hoffs - 2015 - Completely Under The Covers\Disc 1\04 Who Knows Where The Time Goes.wav

Pre-gap length 0:00:02.54

Peak level 98.7 %
Extraction speed 3.7 X
Track quality 100.0 %
Test CRC D7700A08
Copy CRC D7700A08
Accurately ripped (confidence 4) [45D13919] (AR v2)
Copy OK

Track 5

Filename D:\Ripping\Matthew Sweet And Susanna Hoffs - 2015 - Completely Under The Covers\Disc 1\05 Cinnamon Girl.wav

Pre-gap length 0:00:02.54

Peak level 98.7 %
Extraction speed 3.1 X
Track quality 99.9 %
Test CRC FE02BC7A
Copy CRC FE02BC7A
Accurately ripped (confidence 4) [7E94AB98] (AR v2)
Copy OK

Track 6

Filename D:\Ripping\Matthew Sweet And Susanna Hoffs - 2015 - Completely Under The Covers\Disc 1\06 Alone Again Or.wav

Pre-gap length 0:00:02.54

Peak level 98.7 %
Extraction speed 3.7 X
Track quality 100.0 %
Test CRC FBAC5F10
Copy CRC FBAC5F10
Accurately ripped (confidence 4) [6DF439BA] (AR v2)
Copy OK

Track 7

Filename D:\Ripping\Matthew Sweet And Susanna Hoffs - 2015 - Completely Under The Covers\Disc 1\07 The Warmth Of The Sun.wav

Pre-gap length 0:00:02.54

Peak level 98.2 %
Extraction speed 3.6 X
Track quality 100.0 %
Test CRC BEBF3D93
Copy CRC BEBF3D93
Accurately ripped (confidence 4) [3E9EC023] (AR v2)
Copy OK

Track 8

Filename D:\Ripping\Matthew Sweet And Susanna Hoffs - 2015 - Completely Under The Covers\Disc 1\08 Different Drum.wav

Pre-gap length 0:00:02.54

Peak level 98.7 %
Extraction speed 3.6 X
Track quality 100.0 %
Test CRC 260A522C
Copy CRC 260A522C
Accurately ripped (confidence 4) [3537F040] (AR v2)
Copy OK

Track 9

Filename D:\Ripping\Matthew Sweet And Susanna Hoffs - 2015 - Completely Under The Covers\Disc 1\09 The Kids Are Alright.wav

Pre-gap length 0:00:02.54

Peak level 98.7 %
Extraction speed 3.6 X
Track quality 100.0 %
Test CRC 2835E6DF
Copy CRC 2835E6DF
Accurately ripped (confidence 4) [8C547A51] (AR v2)
Copy OK

Track 10

Filename D:\Ripping\Matthew Sweet And Susanna Hoffs - 2015 - Completely Under The Covers\Disc 1\10 Sunday Morning.wav

Pre-gap length 0:00:02.54

Peak level 98.7 %
Extraction speed 3.6 X
Track quality 100.0 %
Test CRC 6B6F2611
Copy CRC 6B6F2611
Accurately ripped (confidence 4) [88446C2C] (AR v2)
Copy OK

Track 11

Filename D:\Ripping\Matthew Sweet And Susanna Hoffs - 2015 - Completely Under The Covers\Disc 1\11 Everybody Knows This Is Nowhere.wav

Pre-gap length 0:00:02.54

Peak level 97.4 %
Extraction speed 3.0 X
Track quality 99.9 %
Test CRC 1302BC28
Copy CRC 1302BC28
Accurately ripped (confidence 4) [A85A23B8] (AR v2)
Copy OK

Track 12

Filename D:\Ripping\Matthew Sweet And Susanna Hoffs - 2015 - Completely Under The Covers\Disc 1\12 Care Of Cell 44.wav

Pre-gap length 0:00:02.54

Peak level 98.7 %
Extraction speed 3.3 X
Track quality 99.9 %
Test CRC BBD2BC51
Copy CRC BBD2BC51
Accurately ripped (confidence 4) [EE76D0CB] (AR v2)
Copy OK

Track 13

Filename D:\Ripping\Matthew Sweet And Susanna Hoffs - 2015 - Completely Under The Covers\Disc 1\13 Monday, Monday.wav

Pre-gap length 0:00:02.54

Peak level 98.7 %
Extraction speed 3.7 X
Track quality 100.0 %
Test CRC F4AC124F
Copy CRC F4AC124F
Accurately ripped (confidence 4) [7F73379C] (AR v2)
Copy OK

Track 14

Filename D:\Ripping\Matthew Sweet And Susanna Hoffs - 2015 - Completely Under The Covers\Disc 1\14 She May Call You Up Tonight.wav

Pre-gap length 0:00:02.54

Peak level 98.7 %
Extraction speed 3.6 X
Track quality 100.0 %
Test CRC E74704CA
Copy CRC E74704CA
Accurately ripped (confidence 4) [AC214A48] (AR v2)
Copy OK

Track 15

Filename D:\Ripping\Matthew Sweet And Susanna Hoffs - 2015 - Completely Under The Covers\Disc 1\15 Run To Me.wav

Pre-gap length 0:00:02.54

Peak level 98.7 %
Extraction speed 3.6 X
Track quality 100.0 %
Test CRC 5F0A183A
Copy CRC 5F0A183A
Accurately ripped (confidence 4) [3EAD60CC] (AR v2)
Copy OK

Track 16

Filename D:\Ripping\Matthew Sweet And Susanna Hoffs - 2015 - Completely Under The Covers\Disc 1\16 Village Green Preservation Society.wav

Pre-gap length 0:00:03.53

Peak level 98.7 %
Extraction speed 3.6 X
Track quality 100.0 %
Test CRC CD3701B9
Copy CRC CD3701B9
Accurately ripped (confidence 4) [B1E03500] (AR v2)
Copy OK

Track 17

Filename D:\Ripping\Matthew Sweet And Susanna Hoffs - 2015 - Completely Under The Covers\Disc 1\17 I Can See For Miles.wav

Pre-gap length 0:00:02.54

Peak level 98.7 %
Extraction speed 3.2 X
Track quality 100.0 %
Test CRC C6565F29
Copy CRC C6565F29
Accurately ripped (confidence 4) [7353A7F5] (AR v2)
Copy OK


All tracks accurately ripped

No errors occurred

End of status report

–– CUETools DB Plugin V2.1.6

[CTDB TOCID: O4jFfr0DQnktGA0MrmtpNIRUQZE-] found
Submit result: O4jFfr0DQnktGA0MrmtpNIRUQZE- has been confirmed
Track | CTDB Status
1 | (8/8) Accurately ripped
2 | (8/8) Accurately ripped
3 | (8/8) Accurately ripped
4 | (8/8) Accurately ripped
5 | (8/8) Accurately ripped
6 | (8/8) Accurately ripped
7 | (8/8) Accurately ripped
8 | (8/8) Accurately ripped
9 | (8/8) Accurately ripped
10 | (8/8) Accurately ripped
11 | (8/8) Accurately ripped
12 | (8/8) Accurately ripped
13 | (8/8) Accurately ripped
14 | (8/8) Accurately ripped
15 | (8/8) Accurately ripped
16 | (8/8) Accurately ripped
17 | (8/8) Accurately ripped


==== Log checksum 8034F6BEC36CF850EB73B2A5238651782BBD6BB1605FADBF8426C51D51169832 ====

foobar2000 1.2 / Dynamic Range Meter 1.1.1
log date: 2016-09-20 21:07:22

––––––––––––––––––––––––––––––––––––––––
Analyzed: Matthew Sweet And Susanna Hoffs / Completely Under The Covers
––––––––––––––––––––––––––––––––––––––––

DR Peak RMS Duration Track
––––––––––––––––––––––––––––––––––––––––
DR7 -0.11 dB -8.77 dB 3:46 01-I See The Rain
DR6 -0.11 dB -7.08 dB 2:10 02-And Your Bird Can Sing
DR6 -0.11 dB -7.20 dB 3:46 03-It's All Over Now, Baby Blue
DR6 -0.11 dB -6.94 dB 5:53 04-Who Knows Where The Time Goes?
DR5 -0.11 dB -6.71 dB 2:48 05-Cinnamon Girl
DR5 -0.11 dB -7.57 dB 3:36 06-Alone Again Or
DR6 -0.15 dB -7.88 dB 3:09 07-The Warmth Of The Sun
DR6 -0.11 dB -8.01 dB 2:53 08-Different Drum
DR6 -0.11 dB -6.62 dB 2:51 09-The Kids Are Alright
DR6 -0.11 dB -7.58 dB 3:28 10-Sunday Morning
DR6 -0.22 dB -7.36 dB 2:28 11-Everybody Knows This Is Nowhere
DR7 -0.11 dB -7.87 dB 3:57 12-Care Of Cell 44
DR5 -0.11 dB -6.97 dB 3:28 13-Monday, Monday
DR5 -0.11 dB -6.26 dB 2:25 14-She May Call You Up Tonight
DR6 -0.11 dB -7.84 dB 3:10 15-Run To Me
DR5 -0.11 dB -6.32 dB 2:57 16-Village Green Preservation Society
DR5 -0.11 dB -6.32 dB 4:14 17-I Can See For Miles
––––––––––––––––––––––––––––––––––––––––

Number of tracks: 17
Official DR value: DR6

Samplerate: 44100 Hz
Channels: 2
Bits per sample: 16
Bitrate: 1006 kbps
Codec: FLAC
================================================================================




Matthew Sweet & Susanna Hoffs - Completely Under The Covers (2015) 4CD Box Set

CD2: Volume 2, 1970s - Part I (2009)
EAC | FLAC | Tracks (Cue&Log) ~ 462 Mb | Mp3 (CBR320) ~ 158 Mb | 01:04:41

A sequel to Matthew Sweet and Susanna Hoffs' 2007 stroll through the '60s was perhaps inevitable, at least as inevitable as the decision to devote Under the Covers, Vol. 2 to the super sounds of the '70s. Sweet and Hoffs tend to pick '70s songs that are a bit more familiar than their '60s selections, never digging out a Me Decade equivalent of Marmalade's "I See the Rain" or the Zombies' "Care of Cell #44," but instead punctuating AM pop hits and FM rock staples like "Sugar Magnolia," "Second Hand News," "All the Young Dudes," "You're So Vain," "I've Seen All Good People," and "Maggie May" with power pop by the Raspberries ("Go All the Way"), Big Star ("Back of a Car"), and Todd Rundgren, who has no less than two songs from Something/Anything? featured here. The influence of that 1972 double LP can be heard in the similarly homespun production of Under the Covers, Vol. 2 but where Rundgren was open-ended, Sweet neatly ties up every loose end with the care of a pop fetishist, making sure all the harmonies and guitar licks are in place, never adding any untasteful elements. Sometimes, everything is a little bit too pat and pretty – particularly on "Sugar Magnolia," whose processed guitars sparkle too brightly – but the duo's enduring, endearing love for this music is evident, sometimes infectious, and, at its best, throws out some surprises, like Susanna's soulful reading of "Maggie May."

Stephen Thomas Erlewine, Allmusic.com

Tracklist:

01. Sugar Magnolia (03:36) (Grateful Dead)
02. Go All The Way (03:33) (Raspberries)
03. Second Hand News (03:16) (Fleetwood Mac)
04. Bell Bottom Blues (05:05) (Derek and the Dominos)
05. All The Young Dudes (03:54) (Mott the Hoople)
06. You're So Vain (04:23) (Carly Simon)
07. Here Comes My Girl (04:24) (Tom Petty and the Heartbreakers)
08. I've Seen All Good People: Your Move/All Good People (07:31) (Yes)
09. Hello It's Me (03:53) (Todd Rundgren)
10. Willin’ (03:02) (Little Feat)
11. Back Of A Car (02:35) (Big Star)
12. Couldn't I Just Tell You (03:30) (Todd Rundgren)
13. Gimme Some Truth (03:28) (John Lennon)
14. Maggie May (05:34) (Rod Stewart)
15. Everything I Own (03:12) (Bread)
16. Beware Of Darkness (03:38) (George Harrison)


Exact Audio Copy V1.1 from 23. June 2015

EAC extraction logfile from 29. December 2015, 23:52

Matthew Sweet And Susanna Hoffs / Completely Under The Covers

Used drive : TSSTcorpCDDVDW SH-S223L Adapter: 1 ID: 1

Read mode : Secure
Utilize accurate stream : Yes
Defeat audio cache : Yes
Make use of C2 pointers : No

Read offset correction : 6
Overread into Lead-In and Lead-Out : No
Fill up missing offset samples with silence : Yes
Delete leading and trailing silent blocks : No
Null samples used in CRC calculations : Yes
Used interface : Native Win32 interface for Win NT & 2000
Gap handling : Appended to previous track

Used output format : User Defined Encoder
Selected bitrate : 1024 kBit/s
Quality : High
Add ID3 tag : No
Command line compressor : C:\Program Files (x86)\Exact Audio Copy\Flac\flac.exe
Additional command line options : -8 -V -T "ARTIST=%artist%" -T "TITLE=%title%" -T "ALBUM=%albumtitle%" -T "DATE=%year%" -T "TRACKNUMBER=%tracknr%" -T "GENRE=%genre%" -T "PERFORMER=%albuminterpret%" -T "COMPOSER=%composer%" %haslyrics%–tag-from-file=LYRICS="%lyricsfile%"%haslyrics% -T "ALBUMARTIST=%albumartist%" -T "DISCNUMBER=%cdnumber%" -T "TOTALDISCS=%totalcds%" -T "TOTALTRACKS=%numtracks%" -T "COMMENT=%comment%" %source% -o %dest%


TOC of the extracted CD

Track | Start | Length | Start sector | End sector
––––––––––––––––––––––––––––-
1 | 0:00.00 | 3:36.11 | 0 | 16210
2 | 3:36.11 | 3:33.59 | 16211 | 32244
3 | 7:09.70 | 3:16.32 | 32245 | 46976
4 | 10:26.27 | 5:05.30 | 46977 | 69881
5 | 15:31.57 | 3:54.59 | 69882 | 87490
6 | 19:26.41 | 4:23.61 | 87491 | 107276
7 | 23:50.27 | 4:24.07 | 107277 | 127083
8 | 28:14.34 | 7:31.36 | 127084 | 160944
9 | 35:45.70 | 3:53.40 | 160945 | 178459
10 | 39:39.35 | 3:02.38 | 178460 | 192147
11 | 42:41.73 | 2:35.04 | 192148 | 203776
12 | 45:17.02 | 3:30.08 | 203777 | 219534
13 | 48:47.10 | 3:28.45 | 219535 | 235179
14 | 52:15.55 | 5:34.34 | 235180 | 260263
15 | 57:50.14 | 3:12.18 | 260264 | 274681
16 | 61:02.32 | 3:38.44 | 274682 | 291075


Track 1

Filename D:\Ripping\Matthew Sweet And Susanna Hoffs - 2015 - Completely Under The Covers\Disc 2\01 Sugar Magnolia.wav

Pre-gap length 0:00:02.00

Peak level 98.7 %
Extraction speed 3.5 X
Track quality 99.9 %
Test CRC A6ACF515
Copy CRC A6ACF515
Accurately ripped (confidence 4) [46C76A17] (AR v2)
Copy OK

Track 2

Filename D:\Ripping\Matthew Sweet And Susanna Hoffs - 2015 - Completely Under The Covers\Disc 2\02 Go All The Way.wav

Pre-gap length 0:00:02.54

Peak level 98.7 %
Extraction speed 3.8 X
Track quality 99.9 %
Test CRC 16740E4B
Copy CRC 16740E4B
Accurately ripped (confidence 4) [76F1B89F] (AR v2)
Copy OK

Track 3

Filename D:\Ripping\Matthew Sweet And Susanna Hoffs - 2015 - Completely Under The Covers\Disc 2\03 Second Hand News.wav

Pre-gap length 0:00:01.54

Peak level 98.7 %
Extraction speed 5.1 X
Track quality 100.0 %
Test CRC AD372E2D
Copy CRC AD372E2D
Accurately ripped (confidence 4) [A89D0169] (AR v2)
Copy OK

Track 4

Filename D:\Ripping\Matthew Sweet And Susanna Hoffs - 2015 - Completely Under The Covers\Disc 2\04 Bell Bottom Blues.wav

Pre-gap length 0:00:02.54

Peak level 98.7 %
Extraction speed 5.9 X
Track quality 100.0 %
Test CRC 175B7DC5
Copy CRC 175B7DC5
Accurately ripped (confidence 4) [0CDEF123] (AR v2)
Copy OK

Track 5

Filename D:\Ripping\Matthew Sweet And Susanna Hoffs - 2015 - Completely Under The Covers\Disc 2\05 All The Young Dudes.wav

Pre-gap length 0:00:02.54

Peak level 98.7 %
Extraction speed 6.0 X
Track quality 100.0 %
Test CRC 92368F08
Copy CRC 92368F08
Accurately ripped (confidence 4) [6BB2718C] (AR v2)
Copy OK

Track 6

Filename D:\Ripping\Matthew Sweet And Susanna Hoffs - 2015 - Completely Under The Covers\Disc 2\06 You're So Vain.wav

Pre-gap length 0:00:02.44

Peak level 87.9 %
Extraction speed 6.4 X
Track quality 100.0 %
Test CRC 86C9B81A
Copy CRC 86C9B81A
Accurately ripped (confidence 4) [E18A1014] (AR v2)
Copy OK

Track 7

Filename D:\Ripping\Matthew Sweet And Susanna Hoffs - 2015 - Completely Under The Covers\Disc 2\07 Here Comes My Girl.wav

Pre-gap length 0:00:01.54

Peak level 98.7 %
Extraction speed 6.8 X
Track quality 100.0 %
Test CRC 830AEACA
Copy CRC 830AEACA
Accurately ripped (confidence 4) [11A512DF] (AR v2)
Copy OK

Track 8

Filename D:\Ripping\Matthew Sweet And Susanna Hoffs - 2015 - Completely Under The Covers\Disc 2\08 I've Seen All Good People- Your Move,All Good People.wav

Pre-gap length 0:00:01.54

Peak level 98.7 %
Extraction speed 7.6 X
Track quality 100.0 %
Test CRC 671615AC
Copy CRC 671615AC
Accurately ripped (confidence 4) [FA4C36C7] (AR v2)
Copy OK

Track 9

Filename D:\Ripping\Matthew Sweet And Susanna Hoffs - 2015 - Completely Under The Covers\Disc 2\09 Hello It's Me.wav

Pre-gap length 0:00:01.53

Peak level 98.7 %
Extraction speed 7.4 X
Track quality 100.0 %
Test CRC DC9B36A2
Copy CRC DC9B36A2
Accurately ripped (confidence 4) [908D585C] (AR v2)
Copy OK

Track 10

Filename D:\Ripping\Matthew Sweet And Susanna Hoffs - 2015 - Completely Under The Covers\Disc 2\10 Willin’.wav

Pre-gap length 0:00:02.54

Peak level 98.7 %
Extraction speed 7.3 X
Track quality 100.0 %
Test CRC EE66DF7D
Copy CRC EE66DF7D
Accurately ripped (confidence 4) [566D0B5B] (AR v2)
Copy OK

Track 11

Filename D:\Ripping\Matthew Sweet And Susanna Hoffs - 2015 - Completely Under The Covers\Disc 2\11 Back Of A Car.wav

Pre-gap length 0:00:02.54

Peak level 98.7 %
Extraction speed 5.3 X
Track quality 99.9 %
Test CRC 20C5EECE
Copy CRC 20C5EECE
Accurately ripped (confidence 4) [060908A7] (AR v2)
Copy OK

Track 12

Filename D:\Ripping\Matthew Sweet And Susanna Hoffs - 2015 - Completely Under The Covers\Disc 2\12 Couldn't I Just Tell You.wav

Pre-gap length 0:00:02.54

Peak level 98.7 %
Extraction speed 7.8 X
Track quality 100.0 %
Test CRC DD43535C
Copy CRC DD43535C
Accurately ripped (confidence 4) [0E0A1DE5] (AR v2)
Copy OK

Track 13

Filename D:\Ripping\Matthew Sweet And Susanna Hoffs - 2015 - Completely Under The Covers\Disc 2\13 Gimme Some Truth.wav

Pre-gap length 0:00:02.54

Peak level 98.7 %
Extraction speed 7.9 X
Track quality 100.0 %
Test CRC BA4207DA
Copy CRC BA4207DA
Accurately ripped (confidence 4) [CDD8F97D] (AR v2)
Copy OK

Track 14

Filename D:\Ripping\Matthew Sweet And Susanna Hoffs - 2015 - Completely Under The Covers\Disc 2\14 Maggie May.wav

Pre-gap length 0:00:01.54

Peak level 98.7 %
Extraction speed 8.7 X
Track quality 100.0 %
Test CRC 4392B0F9
Copy CRC 4392B0F9
Accurately ripped (confidence 4) [585DFA66] (AR v2)
Copy OK

Track 15

Filename D:\Ripping\Matthew Sweet And Susanna Hoffs - 2015 - Completely Under The Covers\Disc 2\15 Everything I Own.wav

Pre-gap length 0:00:01.54

Peak level 85.4 %
Extraction speed 6.3 X
Track quality 99.9 %
Test CRC 971C33FE
Copy CRC 971C33FE
Accurately ripped (confidence 4) [6896B9B9] (AR v2)
Copy OK

Track 16

Filename D:\Ripping\Matthew Sweet And Susanna Hoffs - 2015 - Completely Under The Covers\Disc 2\16 Beware Of Darkness.wav

Pre-gap length 0:00:02.54

Peak level 98.7 %
Extraction speed 8.7 X
Track quality 100.0 %
Test CRC CA11099A
Copy CRC CA11099A
Accurately ripped (confidence 4) [7EF2E862] (AR v2)
Copy OK


All tracks accurately ripped

No errors occurred

End of status report

–– CUETools DB Plugin V2.1.6

[CTDB TOCID: 8H2exBSgXp1GHdxtrKTByQs4Vcc-] found
Submit result: 8H2exBSgXp1GHdxtrKTByQs4Vcc- has been confirmed
Track | CTDB Status
1 | (8/8) Accurately ripped
2 | (8/8) Accurately ripped
3 | (8/8) Accurately ripped
4 | (8/8) Accurately ripped
5 | (8/8) Accurately ripped
6 | (8/8) Accurately ripped
7 | (8/8) Accurately ripped
8 | (8/8) Accurately ripped
9 | (8/8) Accurately ripped
10 | (8/8) Accurately ripped
11 | (8/8) Accurately ripped
12 | (8/8) Accurately ripped
13 | (8/8) Accurately ripped
14 | (8/8) Accurately ripped
15 | (8/8) Accurately ripped
16 | (8/8) Accurately ripped


==== Log checksum 149651EC18D257A24B811D0653424BA456138551B279E0479E3C6D28E23591A8 ====

foobar2000 1.2 / Dynamic Range Meter 1.1.1
log date: 2016-09-20 21:08:02

––––––––––––––––––––––––––––––––––––––––
Analyzed: Matthew Sweet And Susanna Hoffs / Completely Under The Covers
––––––––––––––––––––––––––––––––––––––––

DR Peak RMS Duration Track
––––––––––––––––––––––––––––––––––––––––
DR7 -0.11 dB -8.50 dB 3:36 01-Sugar Magnolia
DR5 -0.11 dB -7.07 dB 3:34 02-Go All The Way
DR6 -0.11 dB -8.10 dB 3:16 03-Second Hand News
DR7 -0.11 dB -8.89 dB 5:05 04-Bell Bottom Blues
DR6 -0.11 dB -8.01 dB 3:55 05-All The Young Dudes
DR7 -1.11 dB -9.37 dB 4:24 06-You're So Vain
DR7 -0.11 dB -8.99 dB 4:24 07-Here Comes My Girl
DR6 -0.11 dB -8.58 dB 7:31 08-I've Seen All Good People: Your Move/All Good People
DR7 -0.11 dB -8.96 dB 3:54 09-Hello It's Me
DR7 -0.11 dB -8.85 dB 3:03 10-Willin’
DR7 -0.11 dB -8.46 dB 2:35 11-Back Of A Car
DR7 -0.11 dB -8.26 dB 3:30 12-Couldn't I Just Tell You
DR7 -0.11 dB -8.17 dB 3:29 13-Gimme Some Truth
DR8 -0.11 dB -9.51 dB 5:34 14-Maggie May
DR8 -1.36 dB -12.17 dB 3:12 15-Everything I Own
DR6 -0.11 dB -7.76 dB 3:39 16-Beware Of Darkness
––––––––––––––––––––––––––––––––––––––––

Number of tracks: 16
Official DR value: DR7

Samplerate: 44100 Hz
Channels: 2
Bits per sample: 16
Bitrate: 895 kbps
Codec: FLAC
================================================================================




Matthew Sweet & Susanna Hoffs - Completely Under The Covers (2015) 4CD Box Set

CD3: Volume 2, 1970s - Part II
EAC | FLAC | Tracks (Cue&Log) ~ 290 Mb | Mp3 (CBR320) ~ 101 Mb | 00:41:12


Tracklist:

01. Dreaming (02:54) (Blondie)
02. Marquee Moon (10:51) (Television)
03. I Wanna Be Sedated (02:13) (Ramones)
04. Baby Blue (03:45) (Badfinger)
05. You Say You Don't Love Me (02:56) (Buzzcocks)
06. (What's So Funny ‘Bout) Peace, Love And Understanding (03:58) (Brinsley Schwarz)
07. You Can Close Your Eyes (02:36) (James Taylor)
08. Melissa (04:16) (The Allman Brothers Band)
09. Killer Queen (02:58) (Queen)
10. A Song For You (04:39) (Gram Parsons)


Exact Audio Copy V1.1 from 23. June 2015

EAC extraction logfile from 30. December 2015, 0:36

Matthew Sweet And Susanna Hoffs / Completely Under The Covers

Used drive : PLEXTOR DVDR PX-712A Adapter: 1 ID: 0

Read mode : Secure
Utilize accurate stream : Yes
Defeat audio cache : Yes
Make use of C2 pointers : No

Read offset correction : 30
Overread into Lead-In and Lead-Out : No
Fill up missing offset samples with silence : Yes
Delete leading and trailing silent blocks : No
Null samples used in CRC calculations : Yes
Used interface : Native Win32 interface for Win NT & 2000
Gap handling : Appended to previous track

Used output format : User Defined Encoder
Selected bitrate : 1024 kBit/s
Quality : High
Add ID3 tag : No
Command line compressor : C:\Program Files (x86)\Exact Audio Copy\Flac\flac.exe
Additional command line options : -8 -V -T "ARTIST=%artist%" -T "TITLE=%title%" -T "ALBUM=%albumtitle%" -T "DATE=%year%" -T "TRACKNUMBER=%tracknr%" -T "GENRE=%genre%" -T "PERFORMER=%albuminterpret%" -T "COMPOSER=%composer%" %haslyrics%–tag-from-file=LYRICS="%lyricsfile%"%haslyrics% -T "ALBUMARTIST=%albumartist%" -T "DISCNUMBER=%cdnumber%" -T "TOTALDISCS=%totalcds%" -T "TOTALTRACKS=%numtracks%" -T "COMMENT=%comment%" %source% -o %dest%


TOC of the extracted CD

Track | Start | Length | Start sector | End sector
––––––––––––––––––––––––––––-
1 | 0:00.00 | 2:54.56 | 0 | 13105
2 | 2:54.56 | 10:51.39 | 13106 | 61969
3 | 13:46.20 | 2:13.02 | 61970 | 71946
4 | 15:59.22 | 3:45.09 | 71947 | 88830
5 | 19:44.31 | 2:56.62 | 88831 | 102092
6 | 22:41.18 | 3:58.57 | 102093 | 119999
7 | 26:40.00 | 2:36.53 | 120000 | 131752
8 | 29:16.53 | 4:16.47 | 131753 | 150999
9 | 33:33.25 | 2:58.69 | 151000 | 164418
10 | 36:32.19 | 4:39.70 | 164419 | 185413


Track 1

Filename D:\Ripping\Matthew Sweet And Susanna Hoffs - 2015 - Completely Under The Covers\Disc 3\01 Dreaming.wav

Pre-gap length 0:00:02.00

Peak level 98.7 %
Extraction speed 3.6 X
Track quality 100.0 %
Test CRC BB12CD52
Copy CRC BB12CD52
Accurately ripped (confidence 4) [5C3BBD1A] (AR v2)
Copy OK

Track 2

Filename D:\Ripping\Matthew Sweet And Susanna Hoffs - 2015 - Completely Under The Covers\Disc 3\02 Marquee Moon.wav

Pre-gap length 0:00:02.54

Peak level 98.7 %
Extraction speed 3.8 X
Track quality 100.0 %
Test CRC 373DE0AC
Copy CRC 373DE0AC
Accurately ripped (confidence 4) [70C2F7C3] (AR v2)
Copy OK

Track 3

Filename D:\Ripping\Matthew Sweet And Susanna Hoffs - 2015 - Completely Under The Covers\Disc 3\03 I Wanna Be Sedated.wav

Pre-gap length 0:00:01.54

Peak level 98.7 %
Extraction speed 3.5 X
Track quality 100.0 %
Test CRC 8B5D4E90
Copy CRC 8B5D4E90
Accurately ripped (confidence 4) [AFF529BB] (AR v2)
Copy OK

Track 4

Filename D:\Ripping\Matthew Sweet And Susanna Hoffs - 2015 - Completely Under The Covers\Disc 3\04 Baby Blue.wav

Pre-gap length 0:00:02.54

Peak level 98.7 %
Extraction speed 3.3 X
Track quality 99.9 %
Test CRC 3D84282A
Copy CRC 3D84282A
Accurately ripped (confidence 4) [47C49F08] (AR v2)
Copy OK

Track 5

Filename D:\Ripping\Matthew Sweet And Susanna Hoffs - 2015 - Completely Under The Covers\Disc 3\05 You Say You Don't Love Me.wav

Pre-gap length 0:00:02.54

Peak level 98.7 %
Extraction speed 3.6 X
Track quality 100.0 %
Test CRC CDC6E9EA
Copy CRC CDC6E9EA
Accurately ripped (confidence 4) [54F28741] (AR v2)
Copy OK

Track 6

Filename D:\Ripping\Matthew Sweet And Susanna Hoffs - 2015 - Completely Under The Covers\Disc 3\06 (What's So Funny ‘Bout) Peace, Love And Understanding.wav

Pre-gap length 0:00:01.53

Peak level 98.7 %
Extraction speed 3.7 X
Track quality 100.0 %
Test CRC 10CC095F
Copy CRC 10CC095F
Accurately ripped (confidence 4) [9E1DCAAE] (AR v2)
Copy OK

Track 7

Filename D:\Ripping\Matthew Sweet And Susanna Hoffs - 2015 - Completely Under The Covers\Disc 3\07 You Can Close Your Eyes.wav

Pre-gap length 0:00:01.54

Peak level 87.9 %
Extraction speed 3.1 X
Track quality 99.9 %
Test CRC 5FBC9D57
Copy CRC 5FBC9D57
Accurately ripped (confidence 4) [6EE68F5D] (AR v2)
Copy OK

Track 8

Filename D:\Ripping\Matthew Sweet And Susanna Hoffs - 2015 - Completely Under The Covers\Disc 3\08 Melissa.wav

Pre-gap length 0:00:02.54

Peak level 98.7 %
Extraction speed 3.3 X
Track quality 99.9 %
Test CRC A20A5D4B
Copy CRC A20A5D4B
Accurately ripped (confidence 4) [8475CA9C] (AR v2)
Copy OK

Track 9

Filename D:\Ripping\Matthew Sweet And Susanna Hoffs - 2015 - Completely Under The Covers\Disc 3\09 Killer Queen.wav

Pre-gap length 0:00:02.54

Peak level 94.2 %
Extraction speed 3.2 X
Track quality 99.9 %
Test CRC C4D88DC3
Copy CRC C4D88DC3
Accurately ripped (confidence 4) [BBEE6B11] (AR v2)
Copy OK

Track 10

Filename D:\Ripping\Matthew Sweet And Susanna Hoffs - 2015 - Completely Under The Covers\Disc 3\10 A Song For You.wav

Pre-gap length 0:00:01.53

Peak level 98.7 %
Extraction speed 3.7 X
Track quality 100.0 %
Test CRC 3F12DE16
Copy CRC 3F12DE16
Accurately ripped (confidence 4) [10D595CA] (AR v2)
Copy OK


All tracks accurately ripped

No errors occurred

End of status report

–– CUETools DB Plugin V2.1.6

[CTDB TOCID: oVh.cO7naqKhz_of6VCgQhrcnh4-] found
Submit result: oVh.cO7naqKhz_of6VCgQhrcnh4- has been confirmed
Track | CTDB Status
1 | (8/8) Accurately ripped
2 | (8/8) Accurately ripped
3 | (8/8) Accurately ripped
4 | (8/8) Accurately ripped
5 | (8/8) Accurately ripped
6 | (8/8) Accurately ripped
7 | (8/8) Accurately ripped
8 | (8/8) Accurately ripped
9 | (8/8) Accurately ripped
10 | (8/8) Accurately ripped


==== Log checksum 92CFDE4B99ADFFE9EDB6843F05F2D8890E4D867BC838233AEA0C69BEEB1829DC ====

foobar2000 1.2 / Dynamic Range Meter 1.1.1
log date: 2016-09-20 21:08:25

––––––––––––––––––––––––––––––––––––––––
Analyzed: Matthew Sweet And Susanna Hoffs / Completely Under The Covers
––––––––––––––––––––––––––––––––––––––––

DR Peak RMS Duration Track
––––––––––––––––––––––––––––––––––––––––
DR7 -0.11 dB -7.99 dB 2:55 01-Dreaming
DR7 -0.11 dB -9.18 dB 10:52 02-Marquee Moon
DR6 -0.11 dB -7.07 dB 2:13 03-I Wanna Be Sedated
DR7 -0.11 dB -8.97 dB 3:45 04-Baby Blue
DR7 -0.11 dB -7.75 dB 2:57 05-You Say You Don't Love Me
DR5 -0.11 dB -6.47 dB 3:59 06-(What's So Funny ‘Bout) Peace, Love And Understanding
DR9 -1.11 dB -12.09 dB 2:37 07-You Can Close Your Eyes
DR8 -0.11 dB -10.00 dB 4:17 08-Melissa
DR6 -0.51 dB -8.09 dB 2:59 09-Killer Queen
DR7 -0.11 dB -9.19 dB 4:40 10-A Song For You
––––––––––––––––––––––––––––––––––––––––

Number of tracks: 10
Official DR value: DR7

Samplerate: 44100 Hz
Channels: 2
Bits per sample: 16
Bitrate: 876 kbps
Codec: FLAC
================================================================================




Matthew Sweet & Susanna Hoffs - Completely Under The Covers (2015) 4CD Box Set

CD4: Volume 3, 1980s (2013)
EAC | FLAC | Tracks (Cue&Log) ~ 406 Mb | Mp3 (CBR320) ~ 147 Mb | 01:00:00

Matthew Sweet and Susanna Hoffs continue their parade through pop's past with Under the Covers, Vol. 3, a third volume that brings the duo into the '80s. This just so happens to be the decade when both singers began their professional careers. Hoffs went supernova with the Bangles in 1986, the same year Sweet released his debut Inside on Columbia, and while it'd be another half-decade before Matthew experienced his own flush of success, the two are steeped in the underground pop culture of the '80s, where the records of the '60s were celebrated and refracted through the Paisley Underground, R.E.M., and even the one-hit-wonders dotting the landscape of MTV. Under the Covers, Vol. 3 pays tribute to all these sounds and more, balancing MTV hits ("Save It for Later," "They Don't Know," "Our Lips Are Sealed," "Trouble") with songs that were staples on college radio in the '80s: R.E.M.'s "Sitting Still," the dB's "Big Brown Eyes," the Bongos' "The Bulrushes," XTC's "Towers of London," the Smiths' "How Soon Is Now," and Echo & the Bunnymen's "Killing Moon." Sweet and Hoffs remain true to the sweet, slightly wistful, guitar-heavy aesthetic they etched out on the earlier albums and it fits these robust melodies, placing an emphasis on the songcraft and the duo's harmonies. While they never reinterpret the songs – sometimes the arrangements are stripped-down, as on Roxy Music's "More Than This," but the attitude remains the same – Sweet & Hoffs identify why each of these tunes remains beloved, by audiences large or small, and the faithful, heartfelt nostalgia combined with the pair's participation in the scene makes Under the Covers, Vol. 3 the best trip down memory lane the duo has yet made.

Stephen Thomas Erlewine, Allmusic.com

Tracklist:

01. Sitting Still (03:20) (R.E.M.)
02. Girls Talk (03:33) (Dave Edmunds)
03. Big Brown Eyes (01:55) (The dB's)
04. Kid (03:05) (The Pretenders)
05. Free Fallin’ (04:19) (Tom Petty)
06. Save It For Later (03:28) (The English Beat)
07. They Don't Know (03:04) (Kirsty MacColl)
08. The Bulrushes (02:45) (The Bongos)
09. Our Lips Are Sealed (02:56) (The Go-Go's)
10. How Soon Is Now (05:47) (The Smiths)
11. More Than This (04:08) (Roxy Music)
12. Towers Of London (04:55) (XTC)
13. Killing Moon (04:24) (Echo and the Bunnymen)
14. Trouble (03:49) (Lindsey Buckingham)
15. Train In Vain (03:01) (The Clash)
16. You're My Favorite Waste Of Time (02:30) (Marshall Crenshaw)
17. I Would Die 4 U (02:53) (Prince)


Exact Audio Copy V1.1 from 23. June 2015

EAC extraction logfile from 30. December 2015, 0:21

Matthew Sweet And Susanna Hoffs / Completely Under The Covers

Used drive : TSSTcorpCDDVDW SH-S223L Adapter: 1 ID: 1

Read mode : Secure
Utilize accurate stream : Yes
Defeat audio cache : Yes
Make use of C2 pointers : No

Read offset correction : 6
Overread into Lead-In and Lead-Out : No
Fill up missing offset samples with silence : Yes
Delete leading and trailing silent blocks : No
Null samples used in CRC calculations : Yes
Used interface : Native Win32 interface for Win NT & 2000
Gap handling : Appended to previous track

Used output format : User Defined Encoder
Selected bitrate : 1024 kBit/s
Quality : High
Add ID3 tag : No
Command line compressor : C:\Program Files (x86)\Exact Audio Copy\Flac\flac.exe
Additional command line options : -8 -V -T "ARTIST=%artist%" -T "TITLE=%title%" -T "ALBUM=%albumtitle%" -T "DATE=%year%" -T "TRACKNUMBER=%tracknr%" -T "GENRE=%genre%" -T "PERFORMER=%albuminterpret%" -T "COMPOSER=%composer%" %haslyrics%–tag-from-file=LYRICS="%lyricsfile%"%haslyrics% -T "ALBUMARTIST=%albumartist%" -T "DISCNUMBER=%cdnumber%" -T "TOTALDISCS=%totalcds%" -T "TOTALTRACKS=%numtracks%" -T "COMMENT=%comment%" %source% -o %dest%


TOC of the extracted CD

Track | Start | Length | Start sector | End sector
––––––––––––––––––––––––––––-
1 | 0:00.00 | 3:20.65 | 0 | 15064
2 | 3:20.65 | 3:33.42 | 15065 | 31081
3 | 6:54.32 | 1:55.65 | 31082 | 39771
4 | 8:50.22 | 3:05.03 | 39772 | 53649
5 | 11:55.25 | 4:19.24 | 53650 | 73098
6 | 16:14.49 | 3:28.61 | 73099 | 88759
7 | 19:43.35 | 3:04.04 | 88760 | 102563
8 | 22:47.39 | 2:45.25 | 102564 | 114963
9 | 25:32.64 | 2:56.04 | 114964 | 128167
10 | 28:28.68 | 5:47.46 | 128168 | 154238
11 | 34:16.39 | 4:08.69 | 154239 | 172907
12 | 38:25.33 | 4:55.21 | 172908 | 195053
13 | 43:20.54 | 4:24.17 | 195054 | 214870
14 | 47:44.71 | 3:49.01 | 214871 | 232046
15 | 51:33.72 | 3:01.70 | 232047 | 245691
16 | 54:35.67 | 2:30.30 | 245692 | 256971
17 | 57:06.22 | 2:53.73 | 256972 | 270019


Track 1

Filename D:\Ripping\Matthew Sweet And Susanna Hoffs - 2015 - Completely Under The Covers\Disc 4\01 Sitting Still.wav

Pre-gap length 0:00:02.00

Peak level 98.7 %
Extraction speed 3.3 X
Track quality 99.9 %
Test CRC 72BCB7EE
Copy CRC 72BCB7EE
Accurately ripped (confidence 4) [EC7499BA] (AR v2)
Copy OK

Track 2

Filename D:\Ripping\Matthew Sweet And Susanna Hoffs - 2015 - Completely Under The Covers\Disc 4\02 Girls Talk.wav

Pre-gap length 0:00:02.54

Peak level 98.7 %
Extraction speed 4.6 X
Track quality 100.0 %
Test CRC 70BA961F
Copy CRC 70BA961F
Accurately ripped (confidence 4) [C572CA5A] (AR v2)
Copy OK

Track 3

Filename D:\Ripping\Matthew Sweet And Susanna Hoffs - 2015 - Completely Under The Covers\Disc 4\03 Big Brown Eyes.wav

Pre-gap length 0:00:01.54

Peak level 98.7 %
Extraction speed 3.0 X
Track quality 99.9 %
Test CRC 1BE1DD98
Copy CRC 1BE1DD98
Accurately ripped (confidence 4) [FD113C56] (AR v2)
Copy OK

Track 4

Filename D:\Ripping\Matthew Sweet And Susanna Hoffs - 2015 - Completely Under The Covers\Disc 4\04 Kid.wav

Pre-gap length 0:00:01.54

Peak level 98.7 %
Extraction speed 5.0 X
Track quality 100.0 %
Test CRC A2208BF6
Copy CRC A2208BF6
Accurately ripped (confidence 4) [30E8A1A0] (AR v2)
Copy OK

Track 5

Filename D:\Ripping\Matthew Sweet And Susanna Hoffs - 2015 - Completely Under The Covers\Disc 4\05 Free Fallin’.wav

Pre-gap length 0:00:01.53

Peak level 98.7 %
Extraction speed 4.6 X
Track quality 99.9 %
Test CRC 8177D93F
Copy CRC 8177D93F
Accurately ripped (confidence 4) [E7332594] (AR v2)
Copy OK

Track 6

Filename D:\Ripping\Matthew Sweet And Susanna Hoffs - 2015 - Completely Under The Covers\Disc 4\06 Save It For Later.wav

Pre-gap length 0:00:01.53

Peak level 98.7 %
Extraction speed 4.5 X
Track quality 99.9 %
Test CRC 09A6EBC9
Copy CRC 09A6EBC9
Accurately ripped (confidence 4) [9B5F025A] (AR v2)
Copy OK

Track 7

Filename D:\Ripping\Matthew Sweet And Susanna Hoffs - 2015 - Completely Under The Covers\Disc 4\07 They Don't Know.wav

Pre-gap length 0:00:01.54

Peak level 98.7 %
Extraction speed 5.9 X
Track quality 100.0 %
Test CRC 467D8EFE
Copy CRC 467D8EFE
Accurately ripped (confidence 4) [4E3AB3FC] (AR v2)
Copy OK

Track 8

Filename D:\Ripping\Matthew Sweet And Susanna Hoffs - 2015 - Completely Under The Covers\Disc 4\08 The Bulrushes.wav

Pre-gap length 0:00:01.54

Peak level 98.7 %
Extraction speed 4.5 X
Track quality 99.9 %
Test CRC B55CB69C
Copy CRC B55CB69C
Accurately ripped (confidence 4) [73A11C77] (AR v2)
Copy OK

Track 9

Filename D:\Ripping\Matthew Sweet And Susanna Hoffs - 2015 - Completely Under The Covers\Disc 4\09 Our Lips Are Sealed.wav

Pre-gap length 0:00:01.53

Peak level 98.8 %
Extraction speed 6.2 X
Track quality 100.0 %
Test CRC 392F3BF3
Copy CRC 392F3BF3
Accurately ripped (confidence 4) [49603297] (AR v2)
Copy OK

Track 10

Filename D:\Ripping\Matthew Sweet And Susanna Hoffs - 2015 - Completely Under The Covers\Disc 4\10 How Soon Is Now.wav

Pre-gap length 0:00:01.54

Peak level 93.5 %
Extraction speed 6.1 X
Track quality 99.9 %
Test CRC 1C34118B
Copy CRC 1C34118B
Accurately ripped (confidence 4) [5407E5D0] (AR v2)
Copy OK

Track 11

Filename D:\Ripping\Matthew Sweet And Susanna Hoffs - 2015 - Completely Under The Covers\Disc 4\11 More Than This.wav

Pre-gap length 0:00:02.54

Peak level 98.8 %
Extraction speed 7.2 X
Track quality 100.0 %
Test CRC 12214507
Copy CRC 12214507
Accurately ripped (confidence 4) [5E1CE5A7] (AR v2)
Copy OK

Track 12

Filename D:\Ripping\Matthew Sweet And Susanna Hoffs - 2015 - Completely Under The Covers\Disc 4\12 Towers Of London.wav

Pre-gap length 0:00:01.54

Peak level 98.7 %
Extraction speed 7.1 X
Track quality 100.0 %
Test CRC 7F0CDF32
Copy CRC 7F0CDF32
Accurately ripped (confidence 4) [911343AB] (AR v2)
Copy OK

Track 13

Filename D:\Ripping\Matthew Sweet And Susanna Hoffs - 2015 - Completely Under The Covers\Disc 4\13 Killing Moon.wav

Pre-gap length 0:00:01.53

Peak level 98.7 %
Extraction speed 7.8 X
Track quality 100.0 %
Test CRC FBE89BE9
Copy CRC FBE89BE9
Accurately ripped (confidence 4) [1027C775] (AR v2)
Copy OK

Track 14

Filename D:\Ripping\Matthew Sweet And Susanna Hoffs - 2015 - Completely Under The Covers\Disc 4\14 Trouble.wav

Pre-gap length 0:00:01.54

Peak level 98.7 %
Extraction speed 7.9 X
Track quality 100.0 %
Test CRC CE0BCC9C
Copy CRC CE0BCC9C
Accurately ripped (confidence 4) [411D2FF5] (AR v2)
Copy OK

Track 15

Filename D:\Ripping\Matthew Sweet And Susanna Hoffs - 2015 - Completely Under The Covers\Disc 4\15 Train In Vain.wav

Pre-gap length 0:00:03.54

Peak level 98.7 %
Extraction speed 5.9 X
Track quality 99.9 %
Test CRC CD8B4BE5
Copy CRC CD8B4BE5
Accurately ripped (confidence 4) [C2796E7E] (AR v2)
Copy OK

Track 16

Filename D:\Ripping\Matthew Sweet And Susanna Hoffs - 2015 - Completely Under The Covers\Disc 4\16 You're My Favorite Waste Of Time.wav

Pre-gap length 0:00:02.54

Peak level 98.7 %
Extraction speed 5.5 X
Track quality 99.9 %
Test CRC 4B78EFB1
Copy CRC 4B78EFB1
Accurately ripped (confidence 4) [9946FA32] (AR v2)
Copy OK

Track 17

Filename D:\Ripping\Matthew Sweet And Susanna Hoffs - 2015 - Completely Under The Covers\Disc 4\17 I Would Die 4 U.wav

Pre-gap length 0:00:01.53

Peak level 98.7 %
Extraction speed 5.9 X
Track quality 99.9 %
Test CRC D588DC33
Copy CRC D588DC33
Accurately ripped (confidence 4) [93E142E3] (AR v2)
Copy OK


All tracks accurately ripped

No errors occurred

End of status report

–– CUETools DB Plugin V2.1.6

[CTDB TOCID: UPmUd_2bobPAOgLfxDkOEalk2O4-] found
Submit result: UPmUd_2bobPAOgLfxDkOEalk2O4- has been confirmed
Track | CTDB Status
1 | (9/9) Accurately ripped
2 | (9/9) Accurately ripped
3 | (9/9) Accurately ripped
4 | (9/9) Accurately ripped
5 | (9/9) Accurately ripped
6 | (9/9) Accurately ripped
7 | (9/9) Accurately ripped
8 | (9/9) Accurately ripped
9 | (9/9) Accurately ripped
10 | (9/9) Accurately ripped
11 | (9/9) Accurately ripped
12 | (9/9) Accurately ripped
13 | (9/9) Accurately ripped
14 | (9/9) Accurately ripped
15 | (9/9) Accurately ripped
16 | (9/9) Accurately ripped
17 | (9/9) Accurately ripped


==== Log checksum 0E66A76D13EE7342105C9355708657F9DA0F896441EB35B250107B14E87DA9D9 ====

foobar2000 1.2 / Dynamic Range Meter 1.1.1
log date: 2016-09-20 21:08:52

––––––––––––––––––––––––––––––––––––––––
Analyzed: Matthew Sweet And Susanna Hoffs / Completely Under The Covers
––––––––––––––––––––––––––––––––––––––––

DR Peak RMS Duration Track
––––––––––––––––––––––––––––––––––––––––
DR10 -0.11 dB -10.51 dB 3:21 01-Sitting Still
DR10 -0.11 dB -11.38 dB 3:34 02-Girls Talk
DR10 -0.11 dB -10.96 dB 1:56 03-Big Brown Eyes
DR10 -0.11 dB -10.96 dB 3:05 04-Kid
DR11 -0.11 dB -12.40 dB 4:19 05-Free Fallin’
DR10 -0.11 dB -11.78 dB 3:29 06-Save It For Later
DR10 -0.11 dB -11.80 dB 3:04 07-They Don't Know
DR10 -0.11 dB -10.66 dB 2:45 08-The Bulrushes
DR11 -0.11 dB -12.09 dB 2:56 09-Our Lips Are Sealed
DR11 -0.58 dB -13.03 dB 5:48 10-How Soon Is Now
DR10 -0.11 dB -10.99 dB 4:09 11-More Than This
DR10 -0.11 dB -10.71 dB 4:55 12-Towers Of London
DR11 -0.11 dB -11.58 dB 4:24 13-Killing Moon
DR12 -0.11 dB -12.92 dB 3:49 14-Trouble
DR10 -0.11 dB -11.53 dB 3:02 15-Train In Vain
DR10 -0.11 dB -11.94 dB 2:30 16-You're My Favorite Waste Of Time
DR11 -0.11 dB -11.65 dB 2:54 17-I Would Die 4 U
––––––––––––––––––––––––––––––––––––––––

Number of tracks: 17
Official DR value: DR10

Samplerate: 44100 Hz
Channels: 2
Bits per sample: 16
Bitrate: 936 kbps
Codec: FLAC
================================================================================




Matthew Sweet & Susanna Hoffs - Completely Under The Covers (2015) 4CD Box Set