Peter Maxwell Davies - Strathclyde Concertos Nos. 3 and 4 (R. Cook, Franks, Morrison, Scottish Chamber Orchestra)

Posted By: tapaz9
Peter Maxwell Davies - Strathclyde Concertos Nos. 3 and 4 (R. Cook, Franks, Morrison, Scottish Chamber Orchestra)

Peter Maxwell Davies - Strathclyde Concertos Nos. 3 and 4 (R. Cook, Franks, Morrison, Scottish Chamber Orchestra)
Classical | EAC: FLAC+Cue+Log | 1 Cd, Covers + Booklet | 238 Mb
Date: 2013

Sir Peter Maxwell Davies’ Strathclyde Concertos, all premièred by the Scottish Chamber Orchestra, are among his most significant contributions to the concerto genre. Concerto No 3 for Horn and Trumpet marks a turning point in the cycle of ten concertos by employing multiple soloists, and stands in the lineage of works by Haydn, Mozart and Bach’s Brandenburg Concertos. Concerto No 4 explores the clarinet’s lyrical Mozartian heritage, alongside subtle percussive effects and agile virtuosity.
Tracks:

01. Strathclyde Concerto No. 3 - I. Introduction: Adagio - [0:08:32.11]
02. II. Allegro moderato - [0:06:21.29]
03. III. Cadenza - [0:02:47.36]
04. IV. Andante - [0:08:35.16]
05. V. Allegro [0:05:23.31]
06. Strathclyde Concerto No. 4 - I. Introduction: Lento [0:01:38.19]
07. II. Allegro moderato - [0:08:49.43]
08. III. Adagio - [0:12:04.61]
09. IV. Cadenza - [0:04:14.45]
10. V. Adagio [0:02:38.02]


Exact Audio Copy V1.0 beta 3 from 29. August 2011

EAC extraction logfile from 25. July 2013, 0:45

Peter Maxwell Davies / Strathclyde Concertos Nos. 3 and 4 (R. Cook, Franks, Morrison, Scottish Chamber Orchestra, Maxwell Davies)

Used drive : TSSTcorpCDDVDW SH-S223C Adapter: 2 ID: 1

Read mode : Secure
Utilize accurate stream : Yes
Defeat audio cache : Yes
Make use of C2 pointers : No

Read offset correction : 697
Overread into Lead-In and Lead-Out : No
Fill up missing offset samples with silence : Yes
Delete leading and trailing silent blocks : No
Null samples used in CRC calculations : Yes
Used interface : Native Win32 interface for Win NT & 2000

Used output format : User Defined Encoder
Selected bitrate : 896 kBit/s
Quality : High
Add ID3 tag : No
Command line compressor : C:\Program Files (x86)\Exact Audio Copy\FLAC\FLAC.EXE
Additional command line options : -V -0 -T "COMMENT=Ripped by Tapaz9" -T "artist=%artist%" -T "title=%title%" -T "album=%albumtitle%" -T "date=%year%" -T "tracknumber=%tracknr%" -T "genre=%genre%" %source%


TOC of the extracted CD

Track | Start | Length | Start sector | End sector
––––––––––––––––––––––––––––-
1 | 0:00.00 | 8:32.11 | 0 | 38410
2 | 8:32.11 | 6:21.29 | 38411 | 67014
3 | 14:53.40 | 2:47.36 | 67015 | 79575
4 | 17:41.01 | 8:35.16 | 79576 | 118216
5 | 26:16.17 | 5:23.31 | 118217 | 142472
6 | 31:39.48 | 1:38.19 | 142473 | 149841
7 | 33:17.67 | 8:49.43 | 149842 | 189559
8 | 42:07.35 | 12:04.61 | 189560 | 243920
9 | 54:12.21 | 4:14.45 | 243921 | 263015
10 | 58:26.66 | 2:38.02 | 263016 | 274867


Range status and errors

Selected range

Filename F:\Musique\Maxwell Davies, Peter\MaxwellDavies_StrathclydeConcertos3and4\Peter Maxwell Davies - Strathclyde Concertos Nos. 3 and 4.wav

Peak level 78.4 %
Extraction speed 14.1 X
Range quality 100.0 %
Copy CRC AF531240
Copy OK

No errors occurred

End of status report

==== Log checksum E4E5257A806A29376C39CA2AFD95A7D77CDA5303F048B57E41B7B229079CD993 ====

No Mirrors and Torrent-uploads Please

For more classical music check out My Avax blog