Subcategories

Maxx Explosion - Forever (2013)

Posted By: Andi_Deris
Maxx Explosion - Forever (2013)

Maxx Explosion - Forever (2013)
EAC Rip | FLAC: Image+Cue+Log | 396 Mb | MP3 CBR 320 kbps | 127 Mb | Scans | Time: 51:21
Melodic Hard Rock | Kivel Records | 884501983327

Anyone who has seen House of Lords over the past few tours have experienced all what James Christian has to offer in terms of keeping the legacy of a legendary hard rock act from the late 80’s/early 90’s alive and actually kicking it up a notch with a modern day sound. What was once was classified information to the average rock fan is now a visible top notch band known as Maxx Explosion. Their debut album released on Kivel Records. Maxx Explosion is a high energy rock band.

Maxx Explosion - Forever (2013)




Maxx Explosion - Forever (2013)


Track Listing

01. Devil's Locomotive (04:36)
02. Falling Away (03:58)
03. Cross Your Heart (03:59)
04. Don't Wanna Break (04:49)
05. Love Is A Nightmare (03:40)
06. Rise (03:49)
07. End Of The Line (03:33)
08. Demon Wheel (02:00)
09. Can't Stop Falling (04:36)
10. Beat Around The Bush (03:54)
11. Famous (04:05)
12. Suicide Door (03:42)
13. Forever (04:40)

Produced by Chris McCarvil and Don Dokken

The Band

• Chris McCarvill (House Of Lords, Eddie Ojeda, Michael Vescera): Lead Vocals, Bass, Keys
• Jimi Bell (Arc Angel, Robin Beck, James Christian, House Of Lords, Michael Vescera, Cannata, Rob Rock, Thunderhead, From The Inside): Guitar, Backing Vocals
• BJ Zampa (James Christian, House Of Lords): Drums, Backing Vocals

Maxx Explosion - Forever (2013)


Exact Audio Copy V1.0 beta 3 from 29. August 2011

EAC extraction logfile from 14. December 2013, 7:25

Maxx Explosion / Forever

Used drive : PLEXTOR DVDR PX-860A Adapter: 0 ID: 4

Read mode : Secure
Utilize accurate stream : Yes
Defeat audio cache : Yes
Make use of C2 pointers : No

Read offset correction : 96
Overread into Lead-In and Lead-Out : No
Fill up missing offset samples with silence : Yes
Delete leading and trailing silent blocks : No
Null samples used in CRC calculations : Yes
Used interface : Installed external ASPI interface

Used output format : User Defined Encoder
Selected bitrate : 1024 kBit/s
Quality : High
Add ID3 tag : Yes
Command line compressor : E:\Program Files (x86)\Exact Audio Copy\Flac\flac.exe
Additional command line options : -V -8 -T "Date=%year%" -T "Genre=%genre%" %source%


TOC of the extracted CD

Track | Start | Length | Start sector | End sector
––––––––––––––––––––––––––––-
1 | 0:00.00 | 4:36.00 | 0 | 20699
2 | 4:36.00 | 3:58.00 | 20700 | 38549
3 | 8:34.00 | 3:59.00 | 38550 | 56474
4 | 12:33.00 | 4:49.00 | 56475 | 78149
5 | 17:22.00 | 3:40.00 | 78150 | 94649
6 | 21:02.00 | 3:49.00 | 94650 | 111824
7 | 24:51.00 | 3:33.00 | 111825 | 127799
8 | 28:24.00 | 2:00.00 | 127800 | 136799
9 | 30:24.00 | 4:36.00 | 136800 | 157499
10 | 35:00.00 | 3:54.00 | 157500 | 175049
11 | 38:54.00 | 4:05.00 | 175050 | 193424
12 | 42:59.00 | 3:42.00 | 193425 | 210074
13 | 46:41.00 | 4:40.00 | 210075 | 231074


Range status and errors

Selected range

Filename D:\MUSIC\Maxx Explosion - Forever.wav

Peak level 100.0 %
Extraction speed 7.5 X
Range quality 100.0 %
Test CRC EC81690F
Copy CRC EC81690F
Copy OK

No errors occurred


AccurateRip summary

Track 1 not present in database
Track 2 not present in database
Track 3 not present in database
Track 4 not present in database
Track 5 not present in database
Track 6 not present in database
Track 7 not present in database
Track 8 not present in database
Track 9 not present in database
Track 10 not present in database
Track 11 not present in database
Track 12 not present in database
Track 13 not present in database

None of the tracks are present in the AccurateRip database

End of status report

==== Log checksum 5F9F8C585D027371C02EB3E56A309527B30B1BDEDB7162D31737BFBEEE76393A ====


Many thanks to the original uploader: RD

–––––––––
Nitroflare