Maynard Ferguson - High Voltage 2 (1989)

Posted By: PCWhizzkid
Maynard Ferguson - High Voltage 2 (1989)

Maynard Ferguson - High Voltage 2 (1989)
EAC | FLAC+CUE+LOG - 261 MB | SCANS - 19 MB (600dpi) + 3% Recovery
Genre: Jazz / Jazz Funk / Jazz Fusion | Label: Intima | Catalogue No: 7733602

For a period in the mid-to-late '80s, trumpeter Maynard Ferguson broke up his usual little big band and had a funky combo, a septet with just two horns and a large rhythm section. For the second of his two High Voltage CD's, Ferguson primarily plays group originals.

Personnel:
Maynard Ferguson - Trumpet, Flugel Horn
John Toomey - Keyborads
Dave Tull - drums
Michael Lufkin - Bass
Tom "Boomer" Bevan - Guitar
Billy Halting - Percussion, Vibes, Marimba & KAT Midi Mallei Instrument
Matt Wallace - Saxophones


TRACK LIST:

1. Omaha
2. Whatcha Thinkin'
3. Star Eyes
4. Till Then
5. Zihuatanejo
6. Nightgown
7. Get Off The Bus
8. King Kan


Exact Audio Copy V1.0 beta 1 from 15. November 2010

EAC extraction logfile from 20. April 2011, 16:03

Maynard Ferguson / High Voltage 2

Used drive : HL-DT-STDVDRAM GH22NS40 Adapter: 4 ID: 0

Read mode : Secure
Utilize accurate stream : Yes
Defeat audio cache : Yes
Make use of C2 pointers : No

Read offset correction : 667
Overread into Lead-In and Lead-Out : No
Fill up missing offset samples with silence : Yes
Delete leading and trailing silent blocks : No
Null samples used in CRC calculations : Yes
Used interface : Native Win32 interface for Win NT & 2000

Used output format : User Defined Encoder
Selected bitrate : 768 kBit/s
Quality : High
Add ID3 tag : No
Command line compressor : C:\Program Files (x86)\Exact Audio Copy\FLAC\FLAC.EXE
Additional command line options : -6 -V -T "ARTIST=%a" -T "TITLE=%t" -T "ALBUM=%g" -T "DATE=%y" -T "TRACKNUMBER=%n" -T "GENRE=%m" -T "COMMENT=%e" %j–picture="%i"%j %s -o %d


TOC of the extracted CD

Track | Start | Length | Start sector | End sector
––––––––––––––––––––––––––––-
1 | 0:00.27 | 5:53.38 | 27 | 26539
2 | 5:53.65 | 4:19.45 | 26540 | 46009
3 | 10:13.35 | 6:08.40 | 46010 | 73649
4 | 16:22.00 | 5:44.02 | 73650 | 99451
5 | 22:06.02 | 5:42.70 | 99452 | 125171
6 | 27:48.72 | 3:47.30 | 125172 | 142226
7 | 31:36.27 | 5:56.45 | 142227 | 168971
8 | 37:32.72 | 5:28.70 | 168972 | 193641


Range status and errors

Selected range

Filename T:\Maynard Ferguson - High Voltage 2.wav

Peak level 100.0 %
Extraction speed 0.1 X
Range quality 100.0 %
Test CRC DF141001
Copy CRC DF141001
Copy OK

No errors occurred


AccurateRip summary

Track 1 accurately ripped (confidence 2) [F8B97CAE]
Track 2 accurately ripped (confidence 2) [88127397]
Track 3 accurately ripped (confidence 2) [EB12A785]
Track 4 accurately ripped (confidence 2) [1CFA047C]
Track 5 accurately ripped (confidence 2) [C89049BD]
Track 6 accurately ripped (confidence 2) [8C741938]
Track 7 accurately ripped (confidence 2) [1EBA28C1]
Track 8 accurately ripped (confidence 2) [A8FA6D5F]

All tracks accurately ripped

End of status report

==== Log checksum A8FDF3CEB8400C46AA814E0DC31D4756B8E26DD1B5D0A04742153BB1953DB0CB ====



Maynard Ferguson - High Voltage 2 (1989)



Maynard Ferguson - High Voltage 2 (1989)