Subcategories

Maynard Ferguson - Primal Scream (1976) {Wounded Bird}

Posted By: tiburon
Maynard Ferguson - Primal Scream (1976) {Wounded Bird}

Maynard Ferguson - Primal Scream (1976) {Wounded Bird}
EAC 1.0b4 | FLAC tracks level 8 | Cue+Log+M3U | Full Scans 300dpi | 235MB + 5% Recovery
MP3 CBR 320 Kbps | 96MB + 5% Recovery
Genre: Jazz-Funk, Fusion
Maynard Ferguson - Primal Scream (1976) {Wounded Bird}

An all-star cast assists Maynard Ferguson in this disco-tinged big-band outing. Ferguson's trademark trumpet playing is featured in all its screaming glory, and Mark Colby contributes a couple of high-energy sax solos. "Primal Scream" and "Invitation" sound as though they were lifted right off the mid-'70s disco dancefloor, complete with T.S.O.P.-type strings and pulsing rhythms. "Pagliacci," too, has the disco beat pounding underneath a Jay Chattaway adaptation of an operatic melody, with Bobby Militello featured on an energetic, overblown flute solo. Chick Corea's "The Cheshire Cat Walk" sounds like latter-day Return to Forever, as Corea's synth trades licks with Ferguson's horn over a familiar RTF rhythmic/chordal bassline sequence. The final cut, Eric Gale's "Swamp," stands out because of its reggae beat. This album was an obvious attempt to jump on the disco-funk bandwagon, and serves as a well-played, though dated, document of that era.
Track List
1. Primal Scream (07:07)
2. The Cheshire Cat Walk (10:06)
3. Invitation (05:32)
4. Pagliacci (05:53)
5. Swamp (07:20)

musicians
Trumpet [All Solos] – Maynard Ferguson
Piano, Synthesizer [Arp], Clavinet – Bob James
Electric Piano, Synthesizer [Mini Moog] – Chick Corea
Alto Saxophone – Dave Sanborn
Drums – Steve Gadd
Bass – Gary King
Bass Trombone – David Taylor, Paul Faulise
Cello – Alan Shulman, Charles McCracken
Flute, Baritone Saxophone – Bobby Militello
French Horn – Brooks Tillotson, Earl Chapin
Guitar – Eric Gale, Jeff Mirenov, Jerry Friedman
Percussion – Ralph MacDonald
Soprano Saxophone, Tenor Saxophone – Mark Colby
Tenor Saxophone – Joe Farrell
Trombone – Tony Studd
Trumpet – Marvin Stamm
Trumpet, Flugelhorn – Bernie Glow, Jon Faddis, Stan Mark
Viola – Emanuel Vardi, Theodore Israel
Violin – Charles Libove, David Nadien, Emanuel Green, Frederick Buldivini, Harry Cykman, Joseph Malin, Max Ellen, Paul Gershman
Vocals – Hilda Harris, Lani Groves, Patti Austin

Produced by Bob James


Exact Audio Copy V1.0 beta 4 from 7. December 2014

EAC extraction logfile from 13. November 2017, 2:47

Maynard Ferguson / Primal Scream

Used drive : TSSTcorpDVD+-RW TS-H653B Adapter: 1 ID: 0

Read mode : Secure
Utilize accurate stream : Yes
Defeat audio cache : Yes
Make use of C2 pointers : No

Read offset correction : 6
Overread into Lead-In and Lead-Out : No
Fill up missing offset samples with silence : Yes
Delete leading and trailing silent blocks : No
Null samples used in CRC calculations : Yes
Used interface : Native Win32 interface for Win NT & 2000
Gap handling : Appended to previous track

Used output format : User Defined Encoder
Selected bitrate : 128 kBit/s
Quality : High
Add ID3 tag : No
Command line compressor : C:\Program Files (x86)\Exact Audio Copy\Flac\flac.exe
Additional command line options : -8 -V -T "ARTIST=%artist%" -T "TITLE=%title%" -T "ALBUM=%albumtitle%" -T "DATE=%year%" -T "TRACKNUMBER=%tracknr%" -T "TOTALTRACKS=%numtracks%" -T "GENRE=%genre%" -T "ALBUMARTIST=%albumartist%" -T "ALBUM ARTIST=%albumartist%" -T "COMMENT=EAC Secure Mode, Test & Copy, AccurateRip, FLAC -8" %source%


TOC of the extracted CD

Track | Start | Length | Start sector | End sector
––––––––––––––––––––––––––––-
1 | 0:00.00 | 7:09.67 | 0 | 32241
2 | 7:09.67 | 10:09.38 | 32242 | 77954
3 | 17:19.30 | 5:32.71 | 77955 | 102925
4 | 22:52.26 | 5:55.42 | 102926 | 129592
5 | 28:47.68 | 7:24.24 | 129593 | 162916


Track 1

Filename C:\extract\albums\Maynard Ferguson - Primal Scream (1976) [FLAC] {Wounded Bird 2004}\01 - Primal Scream.wav

Pre-gap length 0:00:02.00

Peak level 87.7 %
Extraction speed 2.1 X
Track quality 100.0 %
Test CRC B77420E9
Copy CRC B77420E9
Accurately ripped (confidence 5) [BD56A882] (AR v2)
Copy OK

Track 2

Filename C:\extract\albums\Maynard Ferguson - Primal Scream (1976) [FLAC] {Wounded Bird 2004}\02 - The Cheshire Cat Walk.wav

Peak level 72.4 %
Extraction speed 2.6 X
Track quality 100.0 %
Test CRC 5B1CA2C1
Copy CRC 5B1CA2C1
Accurately ripped (confidence 5) [3CC0C79B] (AR v2)
Copy OK

Track 3

Filename C:\extract\albums\Maynard Ferguson - Primal Scream (1976) [FLAC] {Wounded Bird 2004}\03 - Invitation.wav

Peak level 89.3 %
Extraction speed 2.3 X
Track quality 99.9 %
Test CRC DB7AD648
Copy CRC DB7AD648
Accurately ripped (confidence 5) [9BCFDA00] (AR v2)
Copy OK

Track 4

Filename C:\extract\albums\Maynard Ferguson - Primal Scream (1976) [FLAC] {Wounded Bird 2004}\04 - Pagliacci.wav

Peak level 88.2 %
Extraction speed 2.5 X
Track quality 99.9 %
Test CRC 3B92E56E
Copy CRC 3B92E56E
Accurately ripped (confidence 5) [1E7C0638] (AR v2)
Copy OK

Track 5

Filename C:\extract\albums\Maynard Ferguson - Primal Scream (1976) [FLAC] {Wounded Bird 2004}\05 - Swamp.wav

Peak level 79.2 %
Extraction speed 3.2 X
Track quality 100.0 %
Test CRC 0703C813
Copy CRC 0703C813
Accurately ripped (confidence 5) [FAC37599] (AR v2)
Copy OK


All tracks accurately ripped

No errors occurred

End of status report

–– CUETools DB Plugin V2.1.4

[CTDB TOCID: Ok_KjberBJqvZ4ybKBhK7lQisiY-] database access error: There is an error in XML document (1, 1).


==== Log checksum E84AA28CC2C03AD32D2D082594F73D866119B8256397CC9C95ADD03066F9D9D9 ====


––––––––––––––––––––––––––––––––––––––––
Analyzed: Maynard Ferguson / Primal Scream
––––––––––––––––––––––––––––––––––––––––

DR Peak RMS Duration Track
––––––––––––––––––––––––––––––––––––––––
DR11 -1.14 dB -14.62 dB 7:10 01-Primal Scream
DR10 -2.80 dB -15.97 dB 10:10 02-The Cheshire Cat Walk
DR11 -0.98 dB -14.30 dB 5:33 03-Invitation
DR11 -1.08 dB -15.18 dB 5:56 04-Pagliacci
DR12 -2.02 dB -16.89 dB 7:24 05-Swamp
––––––––––––––––––––––––––––––––––––––––

Number of tracks: 5
Official DR value: DR11

Samplerate: 44100 Hz
Channels: 2
Bits per sample: 16
Bitrate: 740 kbps
Codec: FLAC
================================================================================

Maynard Ferguson - Primal Scream (1976) {Wounded Bird}
Maynard Ferguson - Primal Scream (1976) {Wounded Bird}
Maynard Ferguson - Primal Scream (1976) {Wounded Bird}


Thanks to the original ripper